#TITLE:Dawn of the Kore;
#SUBTITLE:(Original Mix);
#ARTIST:M-Project vs DJ Sharpnel;
#TITLETRANSLIT:;
#SUBTITLETRANSLIT:;
#ARTISTTRANSLIT:;
#CREDIT:;
#BANNER:dawn of the bn original.png;
#BACKGROUND:dawn of the bg original.png;
#LYRICSPATH:;
#CDTITLE:;
#MUSIC:01 - Dawn of the kore (Original Mix).ogg;
#OFFSET:0.005;
#SAMPLESTART:208.714;
#SAMPLELENGTH:20.644;
#SELECTABLE:YES;
#DISPLAYBPM:186.000;
#BPMS:0.000=186.000;
#STOPS:;
#BGCHANGES:;
// cache tags:
#FIRSTBEAT:32.000;
#LASTBEAT:980.000;
#SONGFILENAME:Songs/SHARPNELSTREAMZ v2/Dawn of the Kore (Original Mix)/dawn.sm;
#HASMUSIC:1;
#HASBANNER:1;
#MUSICLENGTH:298.260;
// end cache tags

//---------------dance-single - 15 (TYLR)----------------
#NOTES:
     dance-single:
     15 (TYLR):
     Challenge:
     15:
     1.000,1.000,0.077,0.094,1.000,2268.000,23.000,28.000,1.000,1.000:
0000
0000
0000
0000
,
0000
0000
0000
0000
,
0000
0000
0000
0000
,
0000
0000
0000
0000
,
0000
0000
0000
0000
,
0000
0000
0000
0000
,
0000
0000
0000
0000
,
0000
0000
0000
0000
,
0002
0000
0000
0000
,
2003
0000
0000
0000
,
3200
0000
0000
0000
,
0320
0000
0000
0000
,
0032
0000
0000
0000
,
0203
0000
0000
0000
,
0320
0000
0000
0000
,
2030
0000
0000
0000
0000
0000
0000
0000
0000
0000
0000
0000
0000
0000
0000
0000
0000
0000
0000
0000
0000
0000
0000
3000
,
1001
0000
0000
0001
0000
0000
0001
0000
0001
0000
0000
0001
0000
0000
0001
0000
,
0100
0000
0000
0100
0000
0000
0100
0000
0010
0000
0000
0010
0000
0000
0010
0000
,
1000
0000
0000
1000
0000
0000
1000
0000
1000
0000
0000
1000
0000
0000
1000
0000
,
0100
0000
0000
0100
0000
0000
0100
0000
0010
0000
0000
0010
0000
0000
0010
0000
,
0001
0000
0000
0001
0000
0000
0001
0000
0001
0000
0000
0001
0000
0000
0100
0000
,
0010
0000
0000
0010
0000
0000
0010
0000
0010
0000
0000
0010
0000
0000
1000
0000
,
0100
0000
0000
0100
0000
0000
0100
0000
0100
0000
0000
0100
0000
0000
0100
0000
,
1000
0000
0000
1000
0000
0000
1000
0000
1000
0000
0000
1000
0000
0000
0001
0000
,
0101
0000
0000
0100
0000
0000
0100
0000
0100
0000
0000
0100
0000
0000
0100
0000
,
0010
0000
0000
0010
0000
0000
0010
0000
1000
0000
0000
1000
0000
0000
1000
0000
,
0001
0000
0000
0001
0000
0000
0001
0000
0001
0000
0000
0001
0000
0000
0001
0000
,
0010
0000
0000
0010
0000
0000
0010
0000
0100
0000
0000
0100
0000
0000
0100
0000
,
1000
0000
0000
1000
0000
0000
1000
0000
1000
0000
0000
1000
0000
0000
0010
0000
,
0100
0000
0000
0100
0000
0000
0100
0000
0100
0000
0000
0100
0000
0000
0001
0000
,
0010
0000
0000
0010
0000
0000
0010
0000
0010
0000
0000
0010
0000
0000
0010
0000
,
0001
0000
0000
0001
0000
0000
0001
0000
0001
0000
0000
0001
0000
0000
1000
0000
,
1001
0000
0000
0001
0000
0000
1000
0000
0001
0000
0000
1000
0000
0000
0001
0000
,
1000
0000
0000
0001
0000
0000
1000
0000
0001
0000
0000
1000
0000
0000
0001
0000
,
1000
0000
0000
0001
0000
0000
1000
0000
0001
0000
0000
1000
0000
0000
0001
0000
,
1000
0000
0000
0001
0000
0000
1000
0000
0001
0000
0000
1000
0000
0000
0001
0000
,
1000
0000
0000
1000
0001
0000
0000
0001
1000
0000
0000
1000
0001
0000
0000
0001
,
1000
0000
0000
1000
0001
0000
0000
0001
1000
0000
0000
1000
0001
0000
0000
0001
,
1000
0001
1000
0001
1000
0001
1000
0001
,
1001
0000
0000
0000
,
0000
0000
0000
0000
,
0000
0000
0000
0000
,
1000
0000
0001
0010
0000
0000
0001
1000
0001
0100
0000
0001
0100
0000
0100
0000
,
0010
0000
1000
0001
0000
0000
1000
0100
0010
0001
0000
1000
0001
0000
0001
0000
,
0100
0000
0001
1000
0000
0000
0001
0010
0001
1000
0000
0001
1000
0000
1000
0000
,
0010
0000
0100
0001
0000
0000
0100
0010
1000
0001
0000
1000
0001
0000
0001
0010
,
0100
0000
1000
0100
0000
0000
1000
0001
1000
0010
0000
1000
0010
0000
0010
0000
,
0100
0000
0001
1000
0000
0000
0001
0010
0100
1000
0000
0001
1000
0000
1000
0000
,
0010
0000
1000
0001
0000
0000
1000
0100
1000
0001
0000
1000
0001
0000
0001
0000
,
0100
0000
0010
1000
0000
0000
0010
0100
0001
1000
0000
0001
1000
0000
1000
0100
,
0010
0000
0001
1000
0001
0000
0100
0010
1000
0001
0000
1000
0100
0000
0100
0000
,
0010
0000
0001
1000
0001
0000
1000
0010
0100
0001
0000
1000
0001
0000
0001
0000
,
0100
0000
0010
1000
0010
0000
0100
0001
1000
0001
0000
0010
0100
0000
0100
0000
,
1000
0000
0001
0010
0001
0000
1000
0001
0100
0010
0000
1000
0001
0000
0001
0010
,
0100
0000
1000
0100
0010
0000
0001
1000
0001
0100
0000
0010
1000
0000
1000
0000
,
0001
0000
0010
0100
1000
0000
0100
0010
0001
1000
0000
0010
0100
0000
0100
0000
,
0001
0000
1000
0100
0010
0000
0001
0010
0100
1000
0000
0001
0100
0000
0100
0000
,
0010
0000
1000
0000
0001
0000
1000
0000
0000
0001
0000
0000
0010
0000
0000
0000
0000
0000
0010
0000
0000
0000
0000
0000
0100
0000
1000
0000
0100
0000
0010
0000
0000
0001
0000
0000
1000
0000
0000
0000
0000
0000
1000
0000
0000
0001
0000
0000
,
0010
0000
0001
1000
0001
0000
0100
0010
1000
0001
0000
1000
0100
0000
0100
0010
,
0001
0000
1000
0001
0100
0000
0010
1000
0010
0100
0000
0001
1000
0000
1000
0100
,
0010
0000
0001
0010
0100
0000
1000
0001
0100
0001
0000
0010
0100
0000
0100
1000
,
0001
0000
0100
0010
1000
0000
0010
0100
0001
1000
0000
0001
0010
0000
0010
0100
,
1000
0000
0001
0100
0010
0000
0100
0001
1000
0100
0000
0010
0001
0000
0001
1000
,
0010
0000
1000
0001
0010
0000
0100
1000
0001
0100
0000
0010
1000
0000
1000
0001
,
0010
0000
0100
0010
0001
0000
1000
0001
0100
0010
0000
1000
0001
0000
0001
1000
,
0100
0000
0010
0100
1000
0000
0001
1000
0001
0100
0000
0010
1000
0000
1000
0001
,
0010
0000
0001
1000
0001
0000
0100
0010
1000
0001
0000
1000
0100
0000
0100
0010
,
0001
0000
1000
0001
0100
0000
0010
1000
0010
0100
0000
0001
1000
0000
1000
0100
,
0010
0000
0001
0010
0100
0000
1000
0001
0100
0001
0000
0010
0100
0000
0100
1000
,
0001
0000
0100
0010
1000
0000
0010
0100
0001
1000
0000
0001
0010
0000
0010
0100
,
1000
0000
0001
0100
0010
0000
0100
0001
1000
0100
0000
0010
0001
0000
0001
1000
,
0010
0000
1000
0001
0M10
0000
0001
1000
0010
0100
0000
0010
1000
0000
1000
0001
,
0010
0000
0100
0010
0001
0000
1000
0001
0100
0010
0000
0100
0001
0000
0001
1000
,
0100
0000
0010
0000
0100
0000
1000
0000
0000
0001
0000
0000
0010
0000
0000
0000
0000
0000
0001
0000
0000
0000
0000
0000
1000
0000
0001
0000
1000
0000
0001
0000
0000
0100
0000
0000
0010
0000
0000
0000
0000
0000
0100
0000
0000
0001
0000
0000
,
1000
0001
1000
0100
0010
0001
1000
0001
1000
0010
0100
0010
1000
0001
0100
0001
,
1000
0100
0010
0001
0010
0100
1000
0001
0010
0001
1000
0001
0100
0010
1000
0010
,
0100
0001
1000
0100
0010
0100
1000
0001
0010
0001
1000
0001
0100
0010
1000
0010
,
0100
0001
1000
0100
0010
0100
1000
0001
0010
0001
1000
0001
0100
0010
1000
0001
,
1000
0001
1000
0010
0100
0001
1000
0001
1000
0100
0010
0100
1000
0001
0010
0001
,
1000
0010
0100
0001
0100
0010
1000
0001
0100
0001
1000
0001
0010
0100
1000
0100
,
0010
0001
1000
0010
0100
0010
1000
0001
0100
0001
1000
0001
0010
0100
1000
0100
,
0010
0001
1000
0010
0100
0010
1000
0001
0100
0001
1000
0001
0010
0100
1000
0001
,
1000
0001
1000
0100
0010
0001
1000
0001
1000
0010
0100
0010
1000
0001
0100
0001
,
1000
0100
0010
0001
0010
0100
1000
0001
0010
0001
1000
0001
0100
0010
1000
0010
,
0100
0001
1000
0100
0010
0100
1000
0001
0010
0001
1000
0001
0100
0010
1000
0010
,
0100
0001
1000
0100
0010
0100
1000
0001
0010
0001
1000
0001
0100
0010
1000
0001
,
1000
0001
1000
0010
0100
0001
1000
0001
1000
0100
0010
0100
1000
0001
0010
0001
,
1000
0010
0100
0001
0100
0010
1000
0001
0100
0001
1000
0001
0010
0100
1000
0100
,
0010
0001
1000
0010
0100
0010
1000
0001
0100
0001
1000
0001
0010
0100
1000
0100
,
0010
0001
1000
0010
0100
0010
1000
0001
0100
0001
1000
0001
0010
0100
1000
0001
,
1000
0001
0010
0100
1000
0001
0010
0001
1000
0010
0100
0001
1000
0001
0100
0010
,
1000
0001
0010
0100
1000
0100
0010
0001
1000
0010
0100
0010
1000
0001
0100
0001
,
1000
0100
1000
0001
0010
0001
1000
0001
0100
0010
1000
0010
0100
0001
1000
0001
,
1000
0100
1000
0001
0010
0001
1000
0010
0100
0001
1000
0001
0100
0010
1000
0001
,
0010
0100
0010
0001
1000
0001
0100
0010
1000
0010
0100
0001
1000
0010
1000
0001
,
0010
0100
0010
0001
1000
0010
0100
0001
1000
0001
0100
0010
1000
0001
0010
0100
,
1000
0001
1000
0010
0100
0001
1000
0001
0100
0010
1000
0001
0010
0100
1000
0001
,
0010
0100
0010
0001
1000
0001
0100
0010
1000
0001
0100
0001
1000
0100
0010
0001
,
1000
0010
1000
0001
0010
0100
1000
0001
0100
0001
1000
0100
0010
0001
0010
0100
,
1000
0001
1000
0010
0100
0001
0100
0010
1000
0001
1000
0100
0010
0100
1000
0001
,
0100
0001
1000
0100
0010
0100
1000
0001
0100
0010
1000
0001
0100
0001
1000
0100
,
0010
0001
0010
0100
1000
0001
1000
0010
0100
0001
0100
0010
1000
0001
0010
0100
,
1000
0001
1000
0010
0100
0001
0100
0010
1000
0001
1000
0100
0010
0001
0010
0100
,
1000
0001
1000
0010
0100
0001
0100
0010
1000
0001
1000
0100
0010
0001
0010
0100
,
1000
0001
1000
0010
0100
0001
0100
0010
1000
0001
1000
0100
0010
0001
0010
0100
,
1000
0000
0001
0000
1000
0000
0001
0000
0000
0000
0000
0000
0100
0000
0000
0001
0000
0000
0100
0000
0000
0000
0000
0000
0010
0000
1000
0000
0010
0000
1000
0000
0000
0000
0000
0000
0001
0000
0000
0000
0000
0000
1000
0000
0000
0000
0000
0000
,
1001
1000
0010
0100
,
0101
0001
0100
0010
,
1010
1000
0100
0010
,
0011
0001
0010
0100
,
1100
1000
0010
0100
,
0101
0001
0100
0010
,
1010
1000
0100
1000
,
1001
0001
0100
0001
,
0011
0010
0100
1000
,
1001
0001
1000
0100
,
0110
0010
0001
1000
,
1001
0001
0100
0010
,
1010
1000
0100
0010
,
0011
0001
0010
0100
,
1100
1000
0010
0100
,
0101
0001
0100
0010
,
1002
0000
0000
0000
,
0203
0000
0000
0000
,
0320
0000
0000
0000
,
2030
0000
0000
0000
,
3002
0000
0000
0000
,
0023
0000
0000
0000
,
0230
0000
0000
0000
,
2300
0000
0000
0000
0000
0000
0000
0000
0000
0000
0000
0000
0000
0000
0000
3000
,
2000
0000
0000
0000
,
3200
0000
0000
0000
,
0320
0000
0000
0000
,
0032
0000
0000
0000
,
2003
0000
0000
0000
,
3002
0000
0000
0000
,
0203
0000
0000
0000
,
0320
0000
0000
0000
0000
0000
0000
0000
0000
0000
0000
0000
0000
0000
0000
0030
,
1001
0000
0001
1000
0000
0001
1000
0000
1000
0000
0001
1000
0000
0001
1000
0000
,
0100
0000
1000
0100
0000
1000
0100
0000
0010
0000
0001
0010
0000
0001
0010
0000
,
0001
0000
1000
0001
0000
1000
0001
0000
0001
0000
1000
0001
0000
1000
0001
0000
,
0100
0000
0001
0100
0000
0001
0100
0000
0010
0000
0100
0010
0000
0100
0010
0000
,
1000
0000
0010
1000
0000
0010
1000
0000
1000
0000
0010
1000
0000
0001
0010
0000
,
0100
0000
1000
0100
0000
1000
0100
0000
0100
0000
1000
0100
0000
0010
0001
0000
,
0100
0000
0001
0100
0000
0001
0100
0000
0100
0000
0001
0100
0000
0001
0100
0000
,
0010
0000
1000
0010
0000
1000
0010
0000
0010
0000
1000
0010
0000
0010
0100
0000
,
0001
0000
0100
0001
0000
0100
0001
0000
0001
0000
0100
0001
0000
0100
0001
0000
,
1000
0000
0100
1000
0000
0100
1000
0000
0010
0000
1000
0010
0000
1000
0010
0000
,
0100
0000
0001
0100
0000
0001
0100
0000
0100
0000
0001
0100
0000
0001
0100
0000
,
0010
0000
0100
0010
0000
0100
0010
0000
1000
0000
0010
1000
0000
0010
1000
0000
,
0001
0000
0010
0001
0000
0010
0001
0000
0001
0000
0010
0001
0000
0010
0100
0000
,
1000
0000
0100
1000
0000
0100
1000
0000
1000
0000
0100
1000
0000
0001
0100
0000
,
0010
0000
1000
0010
0000
1000
0010
0000
0010
0000
1000
0010
0000
1000
0010
0000
,
0100
0000
0001
0100
0000
0001
0100
0000
0100
0000
0001
0100
0000
0100
0010
0000
,
1000
0000
0001
1000
0000
0001
1000
0000
0001
0000
1000
0001
0000
1000
0001
0000
,
1000
0000
0001
1000
0000
0001
1000
0000
0001
0000
1000
0001
0000
1000
0001
0000
,
1000
0000
0001
1000
0000
0001
1000
0000
0001
0000
1000
0001
0000
1000
0001
0000
,
1000
0000
0001
1000
0000
0001
1000
0000
0001
0000
1000
0001
0000
1000
0001
0000
,
1000
0000
0001
1000
0001
0000
1000
0001
1000
0000
0001
1000
0001
0000
1000
0001
,
1000
0000
0001
1000
0001
0000
1000
0001
1000
0000
0001
1000
0001
0000
1000
0001
,
1000
0001
1000
0001
1000
0001
1000
0001
,
1000
0000
0000
0000
,
0001
1000
0010
1000
0001
0010
0001
1000
0001
0010
0001
1000
0010
1000
0001
0010
,
0100
1000
0001
0100
0001
1000
0100
1000
0010
0100
0001
0010
0001
0100
0010
1000
,
0100
1000
0001
0100
0001
1000
0100
0010
0100
1000
0001
0100
0001
1000
0100
0010
,
0001
1000
0010
1000
0001
0010
0001
1000
0100
1000
0001
0100
0001
1000
0100
0010
,
0001
1000
0010
1000
0001
0010
0100
0010
0001
1000
0010
1000
0001
0010
0100
1000
,
0010
1000
0001
0010
0001
1000
0010
0100
0010
1000
0001
0010
0001
1000
0010
1000
,
0100
0010
0001
0100
0001
0010
0100
1000
0100
0010
0001
0100
0001
0010
0100
1000
,
0001
0100
0001
1000
0100
1000
0001
0100
0010
1000
0001
0010
0100
1000
0100
1000
,
0001
1000
0010
1000
0001
0010
0001
1000
0001
0010
0001
1000
0010
1000
0001
0010
,
0100
1000
0001
0100
0001
1000
0100
1000
0010
0100
0001
0010
0001
0100
0010
1000
,
0100
1000
0001
0100
0001
1000
0100
0010
0100
1000
0001
0100
0001
1000
0100
0010
,
0001
1000
0010
1000
0001
0010
0001
1000
0100
1000
0001
0100
0001
1000
0100
0010
,
0001
1000
0010
1000
0001
0010
0100
0010
0001
1000
0010
1000
0001
0010
0100
1000
,
0010
1000
0001
0010
0001
1000
0010
0100
0010
1000
0001
0010
0001
1000
0010
1000
,
0100
0010
0001
0100
0001
0010
0100
1000
0100
0010
0001
0100
0001
0010
0100
1000
,
0001
0100
0001
1000
0100
0010
0100
1000
0001
0100
0001
1000
0100
0010
0001
0100
,
0010
1000
0100
1000
0001
0100
0010
0100
0001
1000
0100
1000
0001
0100
0010
1000
,
0001
0010
0001
1000
0010
1000
0001
0010
0100
1000
0001
0100
0001
1000
0100
1000
,
0001
1000
0010
1000
0001
0010
0001
1000
0001
1000
0010
1000
0001
0010
0001
1000
,
0100
1000
0001
0100
0001
1000
0100
0010
0001
1000
0001
0100
0010
1000
0001
0010
,
0100
1000
0001
0100
0001
1000
0100
0010
0100
1000
0001
0100
0001
1000
0100
0010
,
0001
1000
0010
1000
0001
0010
0100
0010
0001
1000
0010
1000
0001
0010
0100
1000
,
0010
0100
0001
0010
0001
0100
0010
1000
0010
0100
0001
0010
0001
0100
0010
1000
,
0100
1000
0001
0100
0001
1000
0100
0010
0100
1000
0001
0100
0010
1000
0010
1000
,
0100
0010
0001
1000
0001
0100
0010
0100
0001
1000
0100
1000
0001
0100
0010
1000
,
0001
0010
0001
1000
0010
1000
0001
0010
0100
1000
0001
0100
0001
1000
0100
1000
,
0001
1000
0010
1000
0001
0010
0001
1000
0001
1000
0010
1000
0001
0010
0001
1000
,
0100
1000
0001
0100
0001
1000
0100
0010
0001
1000
0001
0100
0010
1000
0001
0010
,
0100
1000
0001
0100
0001
1000
0100
0010
0100
1000
0001
0100
0001
1000
0100
0010
,
0001
1000
0010
1000
0001
0010
0100
0010
0001
1000
0010
1000
0001
0010
0100
1000
,
0010
0100
0001
0010
0001
0100
0010
1000
0010
0100
0001
0010
0001
0100
0010
1000
,
0100
1000
0001
0100
0001
1000
0100
0010
0100
1000
0001
0100
0010
1000
0100
0010
,
0001
1000
0010
0100
0001
0100
0010
1000
0100
0010
0001
0010
0100
1000
0001
0100
,
0001
1000
0010
0100
0001
0100
0010
1000
0001
1000
0100
0010
0001
0010
0100
1000
,
0001
1000
0010
0100
0001
0100
0010
1000
0100
0010
0001
0010
0100
1000
0001
0100
,
0001
1000
0010
0100
0001
0100
0010
1000
0001
1000
0100
0010
0001
0010
0100
1000
,
0001
1000
0100
0010
0001
0010
0100
1000
0010
0100
0001
0100
0010
1000
0001
0010
,
0001
1000
0100
0010
0001
0010
0100
1000
0001
1000
0010
0100
0001
0100
0010
1000
,
0001
1000
0100
0010
0001
0010
0100
1000
0010
0100
0001
0100
0010
1000
0001
0010
,
0001
1000
0100
0010
0001
0010
0100
1000
0001
0100
0010
1000
0100
0010
0100
0010
,
0001
1000
0010
0100
0001
0100
0010
1000
0100
0010
0001
0010
0100
1000
0001
0100
,
0001
1000
0010
0100
0001
0100
0010
1000
0001
1000
0100
0010
0001
0010
0100
1000
,
0001
1000
0010
0100
0001
0100
0010
1000
0100
0010
0001
0010
0100
1000
0001
0100
,
0001
1000
0010
0100
0001
0100
0010
1000
0001
1000
0100
0010
0001
0010
0100
1000
,
0001
1000
0100
0010
0001
0010
0100
1000
0010
0100
0001
0100
0010
1000
0001
0010
,
0001
1000
0100
0010
0001
0010
0100
1000
0001
1000
0010
0100
0001
0100
0010
1000
,
0001
1000
0100
0010
0001
0010
0100
1000
0010
0100
0001
0100
0010
1000
0001
0010
,
0001
1000
0100
0010
0001
0010
0100
1000
0001
0100
0010
1000
0100
0010
0001
1000
,
0001
0000
0100
0010
1000
0000
0001
1000
0000
0100
0000
0010
0100
0000
1000
0001
,
0100
0000
0010
1000
0000
0000
0010
0100
0000
0001
0000
1000
0001
0000
0100
0010
,
1000
0000
0001
0010
0000
0000
0100
1000
0000
0001
0000
1000
0001
0000
1000
0001
,
0100
0000
0010
1000
0000
0000
0001
1000
0100
0010
0100
0010
0001
0000
1000
0001
,
0100
0000
0010
1000
0000
0000
0001
1000
0000
0100
0000
0010
0100
0000
1000
0000
,
0001
0000
1000
0010
0000
0000
1000
0001
0000
0010
0000
0100
0010
0000
0001
0000
,
0100
0000
0010
1000
0000
0000
0001
1000
0000
0100
0000
0010
0100
0000
1000
0000
,
0001
0000
0100
0010
0000
0000
1000
0010
0000
0100
0000
0001
0010
0100
0010
0100
,
1000
0000
0001
0010
0000
0000
0001
1000
0000
0001
0000
1000
0001
0000
0100
0000
,
0010
0000
1000
0001
0000
0000
1000
0100
0000
0010
0000
0100
0010
0000
0001
0000
,
1000
0000
0010
1000
0000
0000
0001
1000
0000
0100
0000
0010
0100
0000
1000
0000
,
0001
0000
0100
0010
0000
0000
0100
0001
0000
1000
0000
0001
1000
0000
0100
0000
,
0010
0000
0001
1000
0000
0000
0001
0010
0000
0100
0000
1000
0100
0000
0010
0000
,
0001
0000
1000
0010
0000
0000
1000
0001
0000
0010
0000
0100
0010
0000
0001
0000
,
0100
0000
0001
1000
0000
0000
0100
1000
0000
0001
0000
0010
0001
0000
1000
0000
,
0001
0000
0100
0010
0000
0000
0100
0001
0000
1000
0000
0001
1000
0000
0100
0000
,
0020
0030
0000
0000
0000
0000
0000
0000
,
0000
0000
0000
0000
,
0000
0000
0000
0000
,
0000
0000
0000
0000
,
0000
0000
0000
0000
,
0000
0000
0000
0000
,
0000
0000
0000
0000
,
0000
0000
0000
0000
,
0000
0000
0000
0000
,
0000
0000
0000
0000
,
0000
0000
0000
0000
,
0000
0000
0000
0000
,
0000
0000
0000
0000
,
0000
0000
0000
0000
,
0000
0000
0000
0000
,
0000
0000
0000
0000
,
0000
0000
0000
0000
,
0000
0000
0000
0000
,
0000
0000
2220
0000
0000
0000
3000
0300
,
0030
0000
0000
0000
;
