#TITLE:Manchurian Candy;
#SUBTITLE:;
#ARTIST:Utabi;
#TITLETRANSLIT:;
#SUBTITLETRANSLIT:;
#ARTISTTRANSLIT:;
#CREDIT:;
#BANNER:mcandy.png;
#BACKGROUND:mcandy-bg.png;
#LYRICSPATH:;
#CDTITLE:!aptitle.png;
#MUSIC:Manchurian Candy.mp3;
#OFFSET:-0.053;
#SAMPLESTART:58.330;
#SAMPLELENGTH:18.230;
#SELECTABLE:YES;
#BPMS:0.000=131.630;
#STOPS:64.000=0.227
,70.000=0.227
,128.688=0.114
,128.938=0.114
,129.188=0.114
,129.438=0.114
,133.333=0.227
,139.875=0.227
;
#BGCHANGES:;
// cache tags:
#FIRSTBEAT:0.000;
#LASTBEAT:301.500;
#SONGFILENAME:Songs/Community Keyboard Megapack - Volume 3/(aperson) Manchurian Candy/Manchurian Candy.sm;
#HASMUSIC:1;
#HASBANNER:1;
#MUSICLENGTH:147.853;
// end cache tags

//---------------dance-single - ----------------
#NOTES:
     dance-single:
     :
     Challenge:
     12:
     1.000,0.994,1.000,0.243,1.000,827.000,247.000,36.000,0.000,0.000:  // measure 1
1001
0000
0100
0000
0000
0100
1000
0000
0000
1000
0000
0001
0010
0000
0000
0000
0000
0000
0000
0000
0000
0000
0000
0101
,  // measure 2
0000
0000
0100
0010
0000
0010
1000
0000
0000
0000
0000
0001
0100
0000
0000
0110
0000
0000
0000
0000
1000
0100
0000
0001
,  // measure 3
0010
0000
1000
0010
0000
0001
0100
0000
0010
0000
0000
2000
0000
3000
0000
0002
0000
0003
0000
0000
0000
0101
0000
0000
,  // measure 4
0010
0000
0010
1000
0000
1000
0001
0000
0000
0000
0000
0110
0000
0000
0010
1000
0000
0000
1100
0000
0000
1000
0000
0100
,  // measure 5
0011
0000
0100
0000
0000
0001
0100
0000
0000
0010
0000
1000
0010
0000
0100
0000
0000
0000
0101
0000
0000
1000
0000
0011
,  // measure 6
0000
0000
1000
0100
0000
0001
0010
0000
0000
0000
0000
0001
0100
0000
0000
0110
0000
0000
0000
0000
1000
0100
0000
0001
,  // measure 7
0010
0000
1000
0010
0000
0001
0100
0000
0010
0000
0000
2020
0000
3030
0000
0202
0000
0303
0000
0000
0000
0011
0000
0000
,  // measure 8
0001
0000
0001
0100
0000
0100
0010
0000
0000
0000
0000
1100
0000
0000
0001
0010
0000
0101
0000
0000
1010
0000
0000
0100
,  // measure 9
0010
0000
0010
1000
0000
1000
0010
0000
0010
1000
0000
0000
0101
0000
0000
0000
0000
0011
0000
0000
0000
0000
0000
1001
,  // measure 10
0000
0000
0100
1000
0000
0010
0001
0000
0000
0000
0000
0010
0100
0000
0000
1100
0000
0000
0000
0000
1000
0010
0000
0001
,  // measure 11
0100
0000
1000
0100
0000
0010
0001
0000
0100
0000
0000
0220
0000
0330
0000
2002
0000
3003
0000
0000
0000
1010
0000
0000
,  // measure 12
0100
0000
0100
0002
0000
0013
1000
0000
0000
0002
0000
0013
1000
0000
0000
0002
0000
0013
1000
0000
0000
0100
0000
0000
,  // measure 13
1100
0000
0010
0000
0000
0001
0010
0000
0000
0110
0000
0001
0100
0000
0010
0000
0000
0000
1010
0000
0000
0000
0000
1100
,  // measure 14
0000
0000
0001
0010
0000
0000
0110
0000
0000
0000
0000
1000
0010
0000
0000
0110
0000
0000
0000
0000
0001
0010
0000
1000
,  // measure 15
0100
0000
0001
0100
0000
0001
0010
0000
1000
0100
0000
0001
0100
0000
0010
0000
0000
1000
0010
0000
0001
0100
0000
0000
,  // measure 16
1000
0000
1000
0010
0000
0010
1000
0000
0000
0000
0000
0101
0000
0000
0100
0010
0000
2000
0000
0000
3020
0000
0030
0010
,  // measure 17
0100
0000
0110
0000
0000
0000
1100
0000
0001
0020
0000
0030
0001
0000
0000
0000
0000
1000
0000
0000
0000
1000
0000
0010
,  // measure 18
0100
0000
0000
0000
0000
0000
0000
0000
0000
0000
0000
0000
0000
0000
0000
0000
0100
0000
0000
0000
0000
0000
0000
0000
1010
0000
0000
0000
0000
0000
0000
0000
0000
0000
0000
0000
0000
0000
0000
0000
0000
0000
0000
0000
0000
0000
0000
0000
0010
0000
0000
0000
0000
0000
0000
0000
0000
0000
0000
0000
0000
0000
0000
0000
0010
0000
0000
0000
0000
0000
0000
0000
1001
0000
0000
0000
0000
0000
0000
0000
0000
0000
0000
0000
0000
0000
0000
0000
0000
0000
0000
0000
0000
0000
0000
0000
0000
0000
0000
0000
0000
0000
0000
0000
0000
0000
0000
0000
0000
0000
0000
0000
0000
0000
0000
0000
0000
0000
0000
0000
2000
0000
0000
0000
0000
0000
3000
0000
0000
0000
0000
0000
0000
0000
0000
0000
0000
0000
0000
0000
0000
0000
0000
0000
0000
0000
0000
0000
0000
0000
0000
0000
0000
0000
0000
0000
0000
0000
0000
0000
0000
0000
0000
0000
0000
0000
0000
0000
0001
0000
0000
0000
0000
0000
0000
0000
0000
0000
0000
0000
0000
0000
0000
0000
0001
0000
0000
0000
0000
0000
0000
0000
,  // measure 19
0110
0000
0000
0000
0000
0101
0000
0000
0000
1010
0000
0000
1100
0000
0000
1000
0010
0100
0010
0000
0000
0001
0000
0100
,  // measure 20
0020
0000
0030
0000
0000
1001
0000
0000
0100
0010
0000
0000
0110
0000
0000
0100
0000
0000
1010
0000
1000
0100
0000
0000
,  // measure 21
0011
0000
0000
0000
0001
0100
0000
0000
0000
1010
0000
0000
1100
0000
0000
0100
0001
0010
0001
0000
0000
0101
0000
0010
,  // measure 22
1000
0000
0000
1100
0000
1000
0010
0000
0000
0110
0000
0000
0101
0000
0000
0200
0000
0000
0301
0000
0100
0010
0000
0000
,  // measure 23
1100
0000
0000
0000
0100
0001
0000
0000
0000
1001
0000
0000
1010
0000
0000
0010
1000
0100
1000
0000
0000
0000
0000
0101
,  // measure 24
0000
0000
0000
0000
0000
0100
0010
0000
0000
1010
0000
0000
0011
0000
0000
0001
0000
0010
1100
0000
0000
1010
0000
0000
,  // measure 25
0110
0000
0000
0000
0100
0010
0000
0000
0000
1010
0000
0000
0101
0000
0000
0001
0100
0010
0100
0000
0001
0000
0000
0100
,  // measure 26
1010
0000
0000
0001
0000
1000
0010
0000
0000
0011
0000
0000
1010
0000
0000
2000
0000
0000
3001
0000
0100
0000
0000
0010
,  // measure 27
1001
0000
0000
0000
0100
0010
0000
0000
0000
0101
0000
0000
1010
0000
0000
1000
0001
0010
0001
0000
0000
0000
0000
1100
,  // measure 28
0000
0000
0000
0001
0000
1000
0010
0000
0000
1001
0000
0000
0101
0000
0000
1000
0000
0000
0101
0000
0000
0010
0000
0100
,  // measure 29
1001
0000
0000
0010
0000
0100
1001
0000
0000
0010
0000
0100
1001
0000
0000
0010
0000
0100
1000
0000
0000
0001
0000
0000
,  // measure 30
0110
0000
0000
0100
0000
0010
0100
0000
0000
0101
0000
0000
1010
0000
0000
2000
0000
0000
3100
0000
0011
0000
0000
0011
,  // measure 31
0000
0000
1100
0000
0000
1100
0000
0000
1000
0010
0000
0000
0110
0000
0000
0100
0010
1000
0010
0000
0000
0000
0000
0011
,  // measure 32
0000
0000
0000
1001
0000
1000
0010
0000
0000
1010
0000
0000
1001
0000
0000
0010
0000
0001
1100
0000
0000
0022
0000
0033
,  // measure 33
0101
0000
0000
0000
0000
0000
0100
0000
0000
0010
0000
0000
1000
0000
0000
0010
0000
0000
0100
0000
0000
0000
0100
0000
0001
0000
0000
0000
0011
0000
0000
0000
0000
0000
0011
0000
0000
0000
0000
0000
0110
0000
0000
0000
0000
0000
0100
0000
,  // measure 34
0001
0000
0000
0110
0000
0000
0202
0000
0303
0001
0000
0010
0001
0000
1100
0000
0000
0011
0000
0000
0001
0110
0000
1000
,  // measure 35
0010
0000
0000
0110
0000
0000
0100
0001
0100
0010
0000
0000
0000
0000
0100
1010
0000
1010
0000
0000
0001
0100
0000
0110
,  // measure 36
1010
0000
0000
0000
0000
0000
1100
0000
0011
1100
0000
1001
0000
0000
1001
0000
0000
1000
0010
0000
0110
1001
0000
0011
,  // measure 37
0000
0000
0011
0000
0000
0001
0100
0000
0110
0000
0000
0010
1100
0000
0000
0000
0000
0000
0000
0000
1001
0000
0000
1010
,  // measure 38
0000
0000
0000
0000
0000
0100
1001
0000
1100
0011
0000
1100
0011
0000
1100
0001
0000
0011
0000
0000
1010
0000
0000
1001
,  // measure 39
0110
0000
0000
0110
0000
0000
0000
0000
0011
0000
0000
0011
0000
0000
1100
0010
0000
0000
1001
0000
0000
0000
0000
0101
,  // measure 40
0000
0000
0000
0000
0000
0100
1010
0000
0101
1010
0000
0101
1010
0000
0001
0100
0000
0000
0100
0000
0001
0010
0000
0000
,  // measure 41
0000
0000
1000
0100
0000
0100
0011
0000
0000
0000
0000
1100
0000
0000
1100
0000
0000
0011
0000
0000
0011
0000
0000
1001
,  // measure 42
0000
0000
0000
0000
0000
0100
1001
0000
0011
0000
0000
0001
0110
0000
1100
0000
0000
1000
0110
0000
1001
0000
0000
0001
,  // measure 43
1100
0000
0000
0000
0000
0100
1000
0000
1000
0001
0000
0001
0110
0000
0000
0000
0000
1100
0000
0000
1100
0000
0000
0011
,  // measure 44
0000
0000
0001
0010
0000
1001
0110
0000
1001
0110
0000
1001
0110
0000
1000
0010
0000
0110
0000
0000
0100
0001
0000
0101
,  // measure 45
0000
0000
0100
0010
0000
0100
1010
0000
0000
0000
0000
0011
0000
0000
1100
0000
0000
0110
0000
0000
1001
0000
0000
0101
,  // measure 46
0000
0000
0100
0010
0000
0010
1100
0000
0001
0010
0000
0001
0110
0000
1000
0100
0000
0000
0011
0000
1000
0100
0000
0100
,  // measure 47
1010
0000
0000
0000
0000
0000
1001
0000
0010
0000
0000
0001
0110
0000
0000
0010
0000
0000
1000
0000
0000
0100
0000
0000
,  // measure 48
0010
0000
0001
0010
0000
0011
1100
0000
1010
0101
0000
0110
1001
0000
1100
0011
0000
1000
0010
0000
0100
0010
0000
0110
,  // measure 49
0000
0000
1010
0000
0000
0101
0000
0000
0011
0000
0000
0100
0011
0000
1000
0000
0000
0011
0000
0000
0011
0000
0000
1100
,  // measure 50
0000
0000
1100
0000
0000
1000
0110
0000
0001
0000
0000
0101
0000
0000
0101
0000
0000
1010
0000
0000
1010
0000
0000
1100
,  // measure 51
0000
0000
1000
0001
0000
0001
1100
0000
0010
0000
0000
0110
0000
0000
0100
1000
0000
1010
0000
0000
1010
0000
0000
0110
,  // measure 52
0000
0000
0110
0000
0000
0110
2002
0000
3003
0000
0000
0000
0000
0000
0000
0202
0000
0303
0000
0000
0000
0000
0000
0000
,  // measure 53
0000
0000
0000
0000
0000
0000
1000
0000
0000
0022
0000
0033
0000
0000
0000
0100
0000
0000
0000
0000
0000
0100
0000
0000
,  // measure 54
0000
0000
0000
0000
0000
0000
0110
0000
0000
0000
0000
0000
0000
0000
0000
2020
0000
3030
0000
0000
0000
0000
0000
0000
,  // measure 55
0000
0000
0000
0000
0000
0000
0000
0000
0000
0000
0000
0000
0000
0000
0000
0000
0000
0000
0011
0000
0000
0000
0000
0101
,  // measure 56
0000
0000
0000
0110
0000
0000
1001
0000
1000
0010
0000
0100
0001
0000
0010
0001
0000
0100
0010
0000
1000
0010
0000
0100
,  // measure 57
0010
0000
1000
0010
0000
0100
0001
0000
0010
0001
0000
0001
0110
0000
0010
1000
0000
0100
1000
0000
0010
0100
0000
0001
,  // measure 58
1000
0000
0001
1000
0000
0001
0100
0000
0010
0100
0000
0101
0000
0000
0020
0030
0000
0010
0100
0000
0010
0100
0000
0001
,  // measure 59
0100
0000
1000
0010
0000
0100
0000
0000
0000
0010
0000
0100
1000
0000
0010
0000
0000
0100
0001
0000
0100
0001
0000
0010
,  // measure 60
0001
0000
1000
0100
0000
0010
0101
0000
0001
0010
0000
0001
0100
0000
0010
1000
0000
0100
0010
0000
0001
0000
0000
0100
,  // measure 61
0010
0000
0100
0001
0000
1000
0010
0000
1000
0010
0000
1000
0100
0000
1000
0001
0000
0100
0010
0000
1000
0010
0000
0100
,  // measure 62
0010
0000
1000
0010
0000
0100
0001
0000
0010
0000
0000
0011
0000
0000
0001
0100
0000
0010
0100
0000
0010
1000
0000
0010
,  // measure 63
0100
0000
0001
0100
0000
0001
1000
0000
0100
0000
0000
0100
0010
0000
0001
1000
0000
0010
1000
0000
0100
1000
0000
0010
,  // measure 64
0100
0000
0001
0010
0000
0001
0110
0000
0010
1000
0000
0100
1000
0000
0010
0000
0000
0100
0001
0000
0010
0001
0000
1000
,  // measure 65
0100
0000
0001
0010
0000
0001
0000
0000
0001
0100
0000
0001
0010
0000
0100
0000
0000
0100
1000
0000
0010
0100
0000
0001
,  // measure 66
0010
0000
0001
0010
0000
0001
0100
0000
0010
1000
0000
1010
0000
0000
0110
0000
0000
0100
0001
0000
0010
0001
0000
1000
,  // measure 67
0100
0000
1000
0010
0000
0100
0001
0000
0000
0011
0000
0100
1000
0000
0010
0100
0000
0001
0010
0000
0001
0100
0000
0001
,  // measure 68
1000
0000
0100
1000
0000
0010
1100
0000
1010
0000
0000
1000
0010
0000
0000
0101
0000
0010
1100
0000
1000
0010
0000
0100
,  // measure 69
0011
0000
0000
0001
0000
0010
0001
0000
0010
0001
0000
0100
0010
0000
0100
0010
0000
1000
0101
0000
1000
0110
0000
0000
,  // measure 70
1001
0000
0000
0010
0000
0001
0110
0000
0011
0000
0000
1010
0000
0000
0101
0000
0000
0010
0001
0000
0100
0010
0000
0100
,  // measure 71
1010
0000
0000
1000
0000
0100
1000
0000
0001
1000
0000
0010
0100
0000
0010
1000
0000
0001
0010
0000
0001
0010
0000
0100
,  // measure 72
1010
0000
0000
1000
0000
0010
0101
0000
0011
0000
0000
0110
1001
0000
1000
0010
0000
0100
0011
0000
0100
0010
0000
1000
,  // measure 73
0101
0000
0000
0001
0000
0100
0010
0000
0100
0010
0000
1000
0010
0000
1100
0010
0000
1000
0101
0000
1000
0110
0000
0010
,  // measure 74
0101
0000
0010
0001
0000
0100
0010
0000
1000
0110
0000
1001
0000
0000
0011
0000
0000
0001
0100
0000
0010
0001
0000
0010
,  // measure 75
1100
0000
1000
0100
0000
0010
0001
0000
0010
0100
0000
0010
0001
0000
0010
1000
0000
0010
0100
0000
1000
0000
0000
0100
,  // measure 76
0010
0000
0001
0100
0000
0010
2002
0000
0000
3003
0000
0000
0000
0000
0000
0000
0000
0000
0000
0000
0000
0000
0000
0000
;
