#TITLE:Roller Coaster Ride;
#SUBTITLE:;
#ARTIST:sleeplessdragn;
#TITLETRANSLIT:;
#SUBTITLETRANSLIT:;
#ARTISTTRANSLIT:;
#CREDIT:;
#BANNER:Roller Coaster Ride.png;
#BACKGROUND:Roller Coaster Ride-bg.png;
#LYRICSPATH:;
#CDTITLE:!mm989cdtitle.png;
#MUSIC:RollercoasterRide-sleeplessdragn.mp3;
#OFFSET:-0.035;
#SAMPLESTART:19.860;
#SAMPLELENGTH:13.200;
#SELECTABLE:YES;
#BPMS:0.000=145.000;
#STOPS:;
#BGCHANGES:;
// cache tags:
#FIRSTBEAT:0.000;
#LASTBEAT:256.000;
#SONGFILENAME:Songs/IzzySM Keyboard Mega Pack/Roller Coaster Ride/Roller Coaster Ride.sm;
#HASMUSIC:1;
#HASBANNER:1;
#MUSICLENGTH:107.650;
// end cache tags

//---------------dance-single - ----------------
#NOTES:
     dance-single:
     :
     Hard:
     11:
     0.995,1.000,0.548,0.353,0.994,653.000,59.000,38.000,0.000,0.000:  // measure 1
1001
0000
0010
0100
0001
0010
0100
1000
0001
0100
0010
1000
0001
0010
0100
1000
,  // measure 2
0001
0100
0010
1000
0001
0100
0010
1000
0100
0010
0100
0010
0001
1000
0001
0010
,  // measure 3
0001
0010
0100
1000
0100
0010
0001
1000
0100
0010
0100
1000
0001
1000
0100
0010
,  // measure 4
0001
0010
0100
0010
0001
1000
0100
0010
0100
1000
0001
1000
0010
0100
0010
0100
,  // measure 5
1001
0000
0100
1000
0001
1000
0100
0010
0001
0010
0001
0100
0010
1000
0010
1000
,  // measure 6
0100
1000
0001
0010
0100
1000
0010
0100
0001
0100
0001
1000
0010
1000
0100
0010
,  // measure 7
0001
1000
0100
1000
0001
0100
0010
1000
0010
0100
0001
1000
0100
1000
0010
0100
,  // measure 8
0001
1000
0010
1000
0001
0100
0010
0100
0001
0010
0001
0010
0100
1000
0100
0010
,  // measure 9
1001
0000
0001
0010
0001
1000
0100
0010
0001
0100
0010
0100
0001
0010
0001
1000
,  // measure 10
0100
1000
0010
0100
0010
1000
0001
0010
0100
1000
0010
0100
0001
0100
0010
1000
,  // measure 11
0100
0010
0001
1000
0001
0100
0010
1000
0010
0100
0001
0010
0001
0100
0010
1000
,  // measure 12
0100
1000
0001
0100
0001
0010
0001
1000
0100
1000
0010
0100
0001
1000
0001
1000
,  // measure 13
0120
1000
0001
1000
0100
0100
1000
0001
,  // measure 14
2030
0001
0001
0100
3002
0010
0010
1003
,  // measure 15
0200
0001
0010
1000
0001
0010
0010
1300
,  // measure 16
0002
0100
1000
0010
0203
0001
1000
0001
,  // measure 17
0320
0001
0100
0100
2030
0100
0010
0010
,  // measure 18
3002
0100
1000
0100
0023
1000
0001
1000
,  // measure 19
0230
1000
0010
0001
0320
1000
0001
0100
,  // measure 20
2030
0000
0100
0000
0010
0000
3001
0000
0010
0010
0000
0100
1010
0000
0100
0000
,  // measure 21
2002
0000
0000
0000
0000
0000
0000
3003
,  // measure 22
0020
0000
2030
0000
,  // measure 23
3200
0000
0000
0000
,  // measure 24
2300
0000
3002
0000
,  // measure 25
1003
0100
1000
0100
0010
0001
0100
0001
,  // measure 26
1000
0010
0100
0001
1000
0010
0100
0001
,  // measure 27
1100
0010
0001
0100
0001
1000
0100
1000
,  // measure 28
0101
0010
1000
0100
0011
0100
1000
0010
,  // measure 29
2002
0000
0000
0000
0000
0000
0000
3003
,  // measure 30
0220
0000
0000
0330
0202
0000
0000
0303
,  // measure 31
2002
0000
0000
0000
0000
0000
0000
3003
,  // measure 32
2200
0000
0000
3300
0022
0000
0000
0033
,  // measure 33
1001
0000
0110
0000
0010
1000
0000
0100
0001
0000
0011
0000
0100
0010
0000
0001
,  // measure 34
1000
0000
1010
0000
0100
0001
0000
0001
0010
0000
0101
0000
0100
1000
0000
1000
,  // measure 35
0010
0000
0110
0000
0100
0001
0000
1000
0100
0000
0011
0000
0100
0010
0000
0001
,  // measure 36
0100
0001
0010
0100
1000
0100
0010
0001
1000
0001
0100
0010
1000
0100
1000
0001
,  // measure 37
1020
0000
0100
0000
0100
0000
0100
0100
,  // measure 38
2030
0000
0001
0001
3200
0000
0010
0010
,  // measure 39
0302
0000
1000
0000
1000
1000
1000
1000
,  // measure 40
0203
0010
0010
0010
0320
1000
1000
1030
,  // measure 41
1100
0000
0010
0001
1000
0100
1000
0010
0100
0001
0010
0001
1000
0001
0100
0010
,  // measure 42
1000
0100
0010
0100
1000
0100
0010
0001
0100
0010
0100
0010
1000
0001
0010
0100
,  // measure 43
1000
0001
0100
0001
0010
0100
1000
0010
0100
0010
1000
0001
0100
0001
1000
0010
,  // measure 44
0100
0001
1000
0100
0010
0001
1000
0010
0100
0010
1000
0001
0010
0001
0010
0100
,  // measure 45
1001
0000
0000
0100
0000
0010
1000
0100
,  // measure 46
1001
0001
0010
0000
1100
0010
0100
0000
,  // measure 47
0101
0000
0000
0010
0000
0001
1000
0010
,  // measure 48
1100
0010
0001
0010
1010
0001
0010
0100
,  // measure 49
1001
0000
0100
0010
1000
0001
1000
0100
0010
0001
1000
0010
0100
0001
1000
0100
,  // measure 50
0010
0100
1000
0001
0010
0100
1000
0001
1000
0010
1000
0001
0010
0001
0100
0010
,  // measure 51
1000
0001
0100
0001
1000
0100
0010
0001
0100
0010
1000
0001
0010
0001
1000
0000
,  // measure 52
1100
0000
0101
0000
1100
0000
0101
0000
0110
0000
0110
0000
1001
0110
1001
0110
,  // measure 53
1001
0010
1000
0010
0100
0001
0010
0001
,  // measure 54
1000
0100
0010
0001
0010
0100
0010
0001
,  // measure 55
0100
0010
1000
0001
0100
0001
1000
0100
,  // measure 56
0010
1000
0001
0100
0010
0001
1000
0100
,  // measure 57
1001
0000
1001
0000
0010
0000
0100
0010
0001
1000
0010
0100
0010
1000
0001
0010
,  // measure 58
1100
0000
1100
0000
0001
0000
0010
0001
0010
0100
1000
0100
0010
0001
0100
0010
,  // measure 59
0101
0000
0101
0000
1000
0000
0100
0010
0001
0010
0100
1000
0010
1000
0010
0100
,  // measure 60
1001
0000
1001
0000
0010
0100
0010
0100
0001
1000
0001
0000
0110
0000
0101
0000
,  // measure 61
1001
0000
1000
0010
0100
0001
1000
0100
0010
0100
1000
0001
0010
0100
1000
0100
,  // measure 62
1001
0000
0010
0001
1000
0100
1000
0001
0010
0100
1000
0001
0100
0010
0100
0010
,  // measure 63
1001
0000
0100
0010
0100
0001
0100
0010
1000
0100
0010
0001
0010
0100
1000
0010
,  // measure 64
1001
0000
0001
0010
0100
1000
0001
1000
0110
0000
0001
1000
0110
0000
0010
0100
,  // measure 65
1001
0000
0000
0000
;

//---------------dance-single - ----------------
#NOTES:
     dance-single:
     :
     Beginner:
     1:
     0.000,0.000,0.000,0.000,0.000,0.000,0.000,0.000,0.000,0.000:  // measure 1
0000
0000
0000
0000
;
