#TITLE:V;
#SUBTITLE:Beastiality Violation;
#ARTIST:Naoki feat. TaQ;
#TITLETRANSLIT:;
#SUBTITLETRANSLIT:;
#ARTISTTRANSLIT:;
#CREDIT:;
#BANNER:../BV - ban.png;
#BACKGROUND:../BV - bg.png;
#LYRICSPATH:;
#CDTITLE:;
#MUSIC:vheavybeatremix.ogg;
#OFFSET:-0.002;
#SAMPLESTART:97.430;
#SAMPLELENGTH:21.170;
#SELECTABLE:YES;
#DISPLAYBPM:170.000;
#BPMS:0.000=170.000;
#STOPS:;
#BGCHANGES:;
// cache tags:
#FIRSTBEAT:0.000;
#LASTBEAT:418.000;
#SONGFILENAME:Songs/Beastiality Violation/V (Heavy Beat Remix) - [Aoreo]/V (Heavy Beat Remix).sm;
#HASMUSIC:1;
#HASBANNER:1;
#MUSICLENGTH:148.588;
// end cache tags

//---------------dance-single - J. Nero----------------
#NOTES:
     dance-single:
     J. Nero:
     Challenge:
     19:
     1.000,1.000,0.545,0.942,1.000,1369.000,81.000,140.000,0.000,46.000:
1000
0000
0000
0100
0000
0000
1000
0000
0000
0001
0000
0000
0010
0000
0000
0100
0000
0000
1000
0000
0000
0001
0000
0000
0100
0000
0000
0010
0000
0000
0100
0000
0000
0001
0000
0000
1000
0000
0001
0000
1000
0000
0001
0000
0100
0000
0010
0000
,
0100
0101
0011
0110
,
1100
1001
0101
0110
,
0100
0001
1000
0000
0001
0010
0100
0000
1000
0010
0100
0000
0001
0100
0010
0000
,
1000
0001
1000
0000
0001
0100
0010
0000
1000
0001
1000
0000
0010
1000
0100
0000
,
1000
0100
1000
0000
0100
0010
0001
0000
0100
0010
1000
0000
0001
0100
0001
0000
,
0100
0001
0010
0000
0001
0010
0100
0000
1000
0100
1000
0000
0001
0100
0010
0000
,
1000
0010
0100
0000
0001
0100
0010
0000
0100
0001
0010
0000
0100
1000
0001
0000
,
0100
0001
0100
0000
0010
1000
0001
0000
0101
0000
0000
0100
0010
0000
0100
0000
,
0001
0100
0010
0000
1000
0100
0010
0000
0001
0100
0010
0000
1000
0100
0010
0000
,
0001
0100
0010
0000
1000
0100
0010
0000
0001
0100
0010
0000
1000
0100
0010
0000
,
0001
0010
0100
0000
1000
0010
0100
0000
0001
0010
0100
0000
1000
0010
0100
0000
,
0001
0010
0100
0000
1000
0010
0100
0000
0001
0010
0100
0000
1000
0010
0100
0000
,
0001
0100
0010
0000
1000
0100
0010
0000
0001
0100
0010
0000
1000
0100
0010
0000
,
0001
0010
0100
0000
1000
0010
0100
0000
0001
0010
0100
0000
1000
0010
0100
0000
,
0001
0100
0010
0000
1000
0100
0010
0000
0001
0100
0010
0000
1000
0100
0010
0000
,
0001
0000
0000
0100
0000
0000
0001
0000
0000
1000
0000
0000
0100
0000
0000
1000
0000
0000
0010
0000
0000
0100
0000
0000
0001
0000
0100
0000
0001
0000
0100
0000
0010
0000
1000
0000
0010
0000
0100
0000
0001
0000
1000
0000
0001
0000
1000
0000
,
0010
0100
0001
1000
0010
0100
0010
0100
,
0001
0100
0100
1000
0100
0100
0001
1000
0001
0010
0010
1000
0010
0010
0001
1000
,
0001
0100
0100
0010
0100
0100
0001
0010
0010
1000
0100
0100
0010
0100
0100
1000
,
0001
0000
0000
0000
0101
0000
0100
0010
1000
0000
0000
0000
1100
0000
1000
0100
,
0010
0000
0000
0000
0011
0000
0001
0010
0100
0000
0000
0000
1100
0000
1000
0010
,
0100
0001
0100
0001
1000
0010
0100
0001
,
1000
0100
0100
0010
1000
0001
0010
0100
1000
0100
0100
0001
0010
0100
1000
0001
,
1000
0100
0100
0010
1000
0100
0100
0010
1000
0100
0100
0010
1000
0100
0100
0010
,
1000
0100
0100
0010
0100
0100
1000
0010
0010
0100
0010
0010
0200
0300
0000
0000
,
0002
0003
0000
0000
0200
0300
0000
0000
0002
0003
0000
0000
2000
3000
0000
0000
,
0022
0000
2233
0000
3322
0000
2233
0000
3301
0100
0001
0100
0010
1000
0001
1000
,
0010
0100
0101
0001
0010
0100
1100
1000
,
0010
0100
0101
0001
0010
0100
1100
1000
,
0001
0100
0110
0010
1000
0001
0101
0100
,
0010
1000
1001
0001
0010
0100
1100
1000
,
0202
0000
0313
0000
0202
0000
1303
0000
0001
0100
0010
1000
0001
1000
0100
0010
,
0002
0000
1003
0100
0100
0001
0010
0010
0100
0000
0100
0000
0100
0000
0100
0000
,
2200
3310
2200
3301
2200
3310
2200
3301
,
2000
0000
3001
0100
0100
1000
0010
0010
0100
0000
0100
0000
0100
0000
0100
0000
,
0202
0313
0202
1303
0202
0313
0202
1303
,
0002
0000
1003
0100
0100
0010
0100
0100
0010
0000
0002
0000
0023
0000
0230
0000
,
2320
3031
2020
3130
2020
3031
2020
3130
,
2000
0000
3001
0010
0010
0100
0100
1000
0001
0000
0100
0001
0100
0000
0001
0000
,
2200
0000
3310
0000
2200
0000
3301
0000
1100
0011
1100
0011
1100
0011
1100
0011
,
1000
0001
1000
0001
0010
0100
1000
0001
1000
0010
0100
0010
1000
0100
0010
0001
,
0100
0001
0010
0100
1000
0001
1000
0010
1000
0001
0100
0010
0100
0001
1000
0001
,
2000
0000
0000
0000
0000
0000
3001
0000
0000
0100
0000
0000
0010
0000
0000
0100
0000
0000
0001
0000
1000
0000
0001
0000
1000
0000
0000
0000
0000
0000
0001
0000
0100
0000
0001
0000
0100
0000
0000
0000
0000
0000
0001
0000
0000
0100
0000
0000
,
0010
0010
0100
1000
0010
0010
0100
1000
0010
0010
0100
1000
0010
0010
0100
1000
,
0002
0000
1003
0100
0100
0010
0100
0100
2000
0000
3001
0100
0100
0010
0100
0100
,
0002
0000
0003
0000
1000
0001
1000
0001
0010
0010
0100
0001
0010
0010
0100
0001
,
0010
0010
0100
0001
0010
0010
0100
0001
0010
0010
0100
0001
0010
0010
0100
0001
,
1000
0100
0100
0010
0100
0100
1000
0001
0010
0010
0100
0010
0010
0001
1000
0001
,
2000
0000
3000
0000
0001
0100
0001
1000
0100
0100
0001
1000
0100
0100
0001
1000
,
0100
0100
0001
1000
0100
0100
0001
1000
0100
0100
0001
1000
0100
0100
0001
1000
,
0100
0100
0001
1000
0010
0010
0001
1000
0100
0100
0010
1000
0010
0010
0001
1000
,
0100
0100
0001
0100
0100
1000
0001
1000
0202
1303
0001
0100
0010
0100
0001
1000
,
0001
0010
0010
1000
0001
0010
0010
1000
0022
1033
0001
0100
0010
1000
0001
0010
,
0100
1000
0001
1000
0100
0010
0001
1000
0010
1000
0010
0100
0001
1000
0100
1000
,
0100
0100
0010
0100
0100
1000
0010
0010
0001
0000
0010
0000
0100
0000
1000
0000
,
0002
0000
0000
0000
0003
0000
0000
0000
1100
0011
1100
0011
1100
0011
1100
0011
,
1000
0100
0100
0001
0100
0100
1000
0010
0010
0001
0100
0100
0010
0100
0100
0001
,
2000
3001
0100
0010
0000
1000
0010
1000
,
0100
0100
0010
0100
0100
1000
0010
0010
0001
0100
0100
1000
0100
0100
0010
0010
,
0002
0103
0010
0100
0000
0001
1000
0001
,
0100
0100
0010
0100
0100
0001
0010
0010
1000
0100
0100
0001
0010
0010
0100
0100
,
2000
3010
0100
0010
0000
1000
0001
1000
,
0100
0100
0001
0100
0100
1000
0010
0010
0001
0100
0100
1000
0010
0010
0001
0100
,
0100
0010
0100
0100
0001
0010
0010
1000
0100
0100
0001
0010
0010
1000
0100
0100
,
0020
0030
2000
3000
2000
3000
0020
0030
0200
0300
0200
0300
0002
0003
0002
0003
,
2200
0000
3310
0000
2200
0000
3301
0000
1000
0001
0100
0001
0010
0100
1000
0001
,
2000
3000
0002
0003
0002
0003
0020
0030
0200
0300
0200
0300
2000
3000
2000
3000
,
0202
0000
0313
0000
0202
0000
1303
0000
0001
1000
0010
1000
0100
0010
0001
1000
,
0002
0003
2000
3000
2000
3000
0200
0300
0020
0030
0020
0030
0002
0003
0002
0003
,
2200
0000
3310
0000
2200
0000
3301
0000
1000
0001
1000
0010
0100
0001
0010
0100
,
1000
0001
0100
0010
1000
0001
1000
0010
0100
0001
1000
0010
1000
0001
0100
0010
1000
0010
1000
0001
0100
0001
0100
0010
,
1000
0010
0100
0001
1000
0010
1000
0001
0100
0001
1000
0010
0100
0001
1000
0010
1000
0010
0100
0001
0100
0001
1000
0010
,
1000
0001
0010
0100
1000
0001
1000
0100
0010
0001
1000
0100
1000
0001
0010
0100
1000
0100
1000
0001
0010
0001
0010
0100
,
1000
0100
0010
0001
1000
0100
1000
0001
0010
0001
1000
0100
0010
0001
1000
0100
1000
0100
0010
0001
0010
0001
1000
0100
,
1000
0001
0100
0010
1000
0001
1000
0010
0100
0001
1000
0010
1000
0001
0100
0001
0100
0010
1000
0010
1000
0001
0100
0010
,
1000
0010
0100
0001
1000
0010
1000
0001
0100
0010
1000
0001
0100
0010
1000
0010
1000
0001
0100
0001
0100
0010
1000
0001
,
1000
0001
0010
0100
1000
0001
0010
0001
1000
0100
0010
0001
0010
0100
1000
0100
1000
0001
0010
0001
0010
0100
1000
0001
,
0010
0001
1000
0100
0010
0001
1000
0100
1000
0001
0010
0100
1000
0001
0010
0001
0010
0100
1000
0100
1000
0001
0010
0100
,
1000
0001
1000
0001
0100
0010
0100
0001
1000
0001
0100
0001
0100
0010
1000
0010
0100
0001
0100
0010
1000
0001
1000
0010
,
0100
0001
1000
0001
1000
0010
0100
0001
0100
0010
1000
0001
0100
0001
1000
0010
0100
0010
1000
0001
1000
0001
0100
0010
,
1000
0000
0000
0100
0000
0000
1000
0000
0000
0001
0000
0000
0010
0000
0000
0100
0000
0000
1000
0000
0000
0001
0000
0000
1000
0000
0100
0000
1000
0000
0100
0000
0010
0000
0001
0000
1000
0000
0100
0000
1000
0000
0100
0000
0010
0000
0001
0000
,
1000
0100
1000
0001
0100
0001
1000
0010
0100
0001
0010
0100
1000
0001
0010
0100
,
1000
0010
0100
0001
0100
0010
1000
0001
1000
0100
0010
0100
1000
0001
0010
0100
,
1000
0001
0100
0010
1000
0010
0100
0010
1000
0001
0010
0100
1000
0001
0010
0001
,
1000
0100
0100
0001
1000
0000
0100
0000
1000
0000
0010
0000
0100
0000
0001
0000
,
0010
0100
1000
0010
0100
0001
1000
0010
,
0100
0001
0010
0100
1000
0010
0100
0001
1000
0100
1000
0010
0100
0001
0010
0001
,
0100
0001
0100
0010
1000
0001
1000
0010
0100
0001
0100
0001
1000
0001
0010
0100
1000
0001
0010
0001
1000
0100
0010
0001
,
1000
0000
0001
0100
0100
1000
0010
0010
0100
0000
0100
0000
0100
0000
0100
0000
,
0202
1303
0202
0313
0202
1303
0202
0313
,
0002
0000
1003
0100
0100
0001
0010
0010
0100
0000
0100
0000
0100
0000
0100
0000
,
2200
3310
2200
3301
2200
3310
2200
3301
,
2000
0000
3001
0100
0100
1000
0010
0010
0100
0000
0100
0000
0100
0000
0100
0000
,
0202
1303
0202
0313
0202
1303
0202
0313
,
0002
0000
1003
0100
0100
0010
0010
0001
1000
0000
0001
0100
0001
0000
1000
0000
,
0100
0100
0010
0100
0100
0010
0100
0100
0001
0010
0010
1000
0100
0100
0010
0010
,
0002
0000
1003
0100
0100
0001
0010
0010
0100
0000
0100
0000
0100
0000
0100
0000
,
2200
0000
3301
0100
0100
1000
0010
0010
0100
0000
0100
0000
0100
0000
0100
0000
,
0202
0000
1303
0100
0100
0001
0010
0010
0100
0000
0100
0000
0100
0000
0100
0000
,
2200
0000
3301
0100
0100
1000
0010
0010
0100
0000
0100
0000
0100
0000
0100
0000
,
0202
0000
1303
0100
0100
0001
0010
0010
0100
0000
0100
0000
0100
0000
0100
0000
,
2200
0000
3301
0010
0010
1000
0100
0100
0001
1000
0100
1000
0001
0010
0100
1000
,
0002
0000
0000
0000
,
0000
0000
0003
0000
;
