#TITLE:Suki!?Kirai!?Suki!!!;
#SUBTITLE:Stepped By TheNamesH;
#ARTIST:Rie Kugimiya;
#TITLETRANSLIT:;
#SUBTITLETRANSLIT:;
#ARTISTTRANSLIT:;
#CREDIT:;
#BANNER:Banner.png;
#BACKGROUND:Background.png;
#LYRICSPATH:;
#CDTITLE:TheNamesH.jpg;
#MUSIC:Zero_no_Tsukaima_Futatsuki_no_Kishi_-_Suki_Kirai_Suki.mp3;
#OFFSET:0.000;
#SAMPLESTART:99.960;
#SAMPLELENGTH:12.000;
#SELECTABLE:YES;
#BPMS:0.000=168.000;
#STOPS:;
#BGCHANGES:;
// cache tags:
#FIRSTBEAT:1.500;
#LASTBEAT:696.000;
#SONGFILENAME:Songs/new cedric/Suki!!Kirai!!Suki!!!/Zero_no_Tsukaima_Futatsuki_no_Kishi_-_Suki_Kirai_Suki.sm;
#HASMUSIC:1;
#HASBANNER:1;
#MUSICLENGTH:253.100;
// end cache tags

//---------------dance-single - ----------------
#NOTES:
     dance-single:
     :
     Challenge:
     11:
     0.926,1.000,1.000,0.166,0.211,1240.000,358.000,42.000,0.000,0.000:
0000
0000
0000
0000
0000
0000
0010
0001
0010
0000
0000
0000
1000
0000
0100
0000
,
0010
1000
0100
0010
0001
0010
0100
1000
,
0010
0100
1000
0001
0010
0100
1000
0100
,
0010
1000
0100
0010
1000
0100
0110
0000
,
0000
0000
0000
0000
0000
0000
0000
0000
0000
0000
0000
1100
0000
0000
0000
0011
,
0000
0000
0000
0110
0000
0000
0000
1100
0000
0000
0000
0110
0000
0000
0000
0011
,
0000
0000
0000
0110
0000
0000
0000
1100
0000
0000
0000
0110
0000
0000
0000
0110
,
0000
1001
1100
0110
0011
1001
0000
0001
,
0010
0001
0010
0100
1000
1001
0100
0010
,
1001
0010
0100
1000
0101
0010
0100
1000
,
1010
0100
0001
0010
1100
0010
0001
0010
,
1100
0010
0100
0010
1100
0010
0001
1000
,
1100
0010
1000
0100
0010
0001
2020
3030
,
0001
0010
2200
3300
0010
0100
2002
3003
,
0010
0000
0100
0000
1000
0000
0100
0000
0010
0000
0000
1001
0000
0000
0000
1001
,
0000
1001
0000
0001
0010
0000
0100
0000
0000
1001
0000
0000
0000
0000
1000
0000
,
0100
1000
0010
0001
0010
0100
1000
0100
,
0110
0100
1000
0100
0011
0100
1000
0100
,
1100
0010
0001
0010
1100
0010
0100
1000
,
0011
0100
0010
0001
1100
0001
0100
0010
,
1010
0100
0001
0100
0100
0010
0202
0303
,
0010
0100
2200
3300
0010
1000
0202
0303
,
0010
0100
1000
0100
0010
0001
0101
0000
,
0000
1001
0000
0000
1001
1001
0010
0100
0000
0000
1001
0000
0000
0000
0000
0000
,
1001
1001
0110
0110
1100
0011
1010
0000
,
0011
0000
0011
0000
0000
0011
0001
0010
,
0100
1000
0100
0010
0101
0000
1100
1100
,
0010
0000
0001
0000
0010
0000
0100
0000
1000
0000
0100
0000
0010
0000
0001
0010
,
0001
0010
0100
0010
1000
0100
1000
0100
0010
0100
0010
0001
0000
0000
0000
0000
,
1001
0000
1001
0000
0000
1100
0010
0001
,
0010
0100
1000
0100
0010
0001
0011
0000
,
0011
0000
0110
0110
0110
0000
1100
1100
,
1100
1100
0000
0110
0110
0000
1100
0100
,
0010
0001
1100
0010
0100
1000
0011
0100
,
0010
1000
1010
0010
0001
0010
0101
0000
,
0101
0000
0101
0010
0100
1000
0101
0010
,
0100
1000
0011
0010
0100
1000
0101
0000
,
0101
0000
1010
0100
0010
0001
1010
0100
,
0001
0100
1010
0100
0001
0010
2020
0000
,
0000
0000
3030
0000
0000
0000
1001
1001
,
1001
1001
0000
0110
0110
0000
1100
0100
,
0010
0001
1100
0010
0100
1000
0110
0100
,
1000
0100
0011
0100
0010
1000
0101
0010
,
0100
1000
0101
1000
0100
0010
1010
0100
,
0001
0100
1010
0100
0010
0001
1010
0100
,
0010
0100
1010
0100
0010
0001
1010
0100
,
0001
0100
1010
0100
0010
0001
2020
0000
,
0000
3030
0000
0000
,
1001
0000
1001
0110
0110
0000
0000
0000
,
0100
0010
1000
0001
0100
0010
1000
0001
,
0100
0010
1000
0001
0100
0010
1000
0001
,
0100
0010
1000
0001
0100
0010
1000
0001
,
0100
0010
1000
1001
1001
0000
1100
1000
,
1000
0000
1000
0000
1000
1000
0100
0000
0100
0000
0100
0000
0100
0000
0100
0000
,
0100
0010
0001
0000
0001
0000
0001
0000
0001
0000
0001
0000
0101
0000
0000
0000
,
1100
0100
0000
0011
0010
0000
0000
1001
,
1001
1001
1001
0000
1001
0000
1100
0100
,
0010
0001
1100
0010
0100
0010
1010
0100
,
0001
1000
0110
0010
0001
1000
1100
0000
,
1100
0000
0101
0100
0010
1010
0000
1000
,
0100
0000
0010
0000
0001
0000
0010
0100
0010
0000
0000
0000
1100
0000
0100
0000
,
0010
0001
1010
0100
0010
0001
1010
0100
,
0010
0100
1100
0010
0100
0001
1001
0100
,
0010
0100
1001
0100
0010
0100
1010
0010
,
0100
0001
0101
0100
0010
1000
2020
3030
,
0010
0001
2020
3030
0100
0010
2200
3300
,
0010
0000
0000
0001
0000
0000
0010
0000
0000
0100
0000
0000
1000
0000
0000
0000
0000
0000
1001
0000
1001
0000
0000
0000
,
1001
1001
0100
0010
0000
0000
1001
0000
0000
0000
1001
0000
0001
0000
0100
0000
,
0010
1000
0100
0010
0101
0010
0100
1000
,
0101
0010
0100
0010
1010
0100
0010
0001
,
1010
0100
0010
0001
1010
0100
0010
0100
,
1100
0100
0010
0100
0101
0010
0100
0010
,
1001
0100
0010
1000
0100
0010
2020
3030
,
0100
0010
2200
3300
0010
0100
2200
3300
,
0010
0001
0010
0100
1000
0000
1001
0000
,
1001
0000
1001
1001
0100
0010
0000
0000
0000
1001
0000
0000
0000
0000
0000
0000
,
1100
1100
0011
0011
0110
1001
0000
0000
,
0011
0000
0011
0000
0000
0100
0010
0001
,
0010
0100
1000
0100
0011
0000
1000
0100
,
0010
0000
0001
0000
0010
0000
0100
0000
1000
0000
0100
0000
0010
0000
0001
0010
,
0001
0010
0100
0010
1000
0100
1000
0100
0010
0001
0010
0100
0000
0000
0000
0000
,
1001
0000
1001
0000
0000
1000
0100
0010
,
0001
0010
0100
1000
0100
0000
1001
0000
,
1001
0000
0110
1010
0110
0000
1001
0110
,
1100
0011
0000
0110
1001
0000
1100
0100
,
0010
0001
1010
0100
0010
0100
1001
0100
,
0010
0001
0101
0100
0010
0100
1010
0100
,
0001
0100
0101
0010
1000
0100
0110
0001
,
0100
0001
1001
0100
0010
0001
1001
0100
,
0010
0100
1010
0100
0001
0100
0101
0100
,
0010
0100
1010
0100
0001
0010
0202
0000
,
0000
0303
0000
0000
0000
0000
1001
1001
,
1001
1001
0000
0110
1100
0000
1100
0100
,
0010
0001
1001
0100
0010
0100
1001
0100
,
0010
0001
1100
0100
1000
0010
0101
0100
,
0010
1000
1100
0100
0010
1000
0101
0010
,
0100
0001
1001
0100
0010
0100
1100
0100
,
0010
0001
0110
1000
0100
1000
0101
0100
,
0010
1000
1010
0100
0010
0001
2002
0000
,
0000
3003
0000
0000
0000
0000
0000
0000
,
1001
0000
1100
0110
0110
0000
1000
0001
,
1000
0001
1000
0001
1000
0001
1000
0001
,
1000
0001
1000
0001
1000
0001
1000
0001
,
1000
0001
1000
0001
1000
0001
1000
0001
,
1000
0000
0001
0000
1000
0000
1001
0000
1001
0000
0000
0000
1000
0100
0010
0001
,
0010
0100
0010
0100
0010
0001
0010
0100
0010
0100
0010
0100
1000
0100
0010
0001
,
0010
0100
1000
0100
0010
0001
0010
0100
1000
0100
1000
0000
1100
0000
0000
0000
,
0001
0011
0000
1000
1100
0000
0000
1001
,
1001
1001
1001
0000
1001
0000
1000
0100
,
0010
1000
0100
0010
0001
0010
0100
0001
,
0010
0100
0001
0010
0100
0001
0010
0100
,
0001
0010
0100
1000
0100
0010
1001
0000
,
1001
0000
0000
0000
1001
0110
1001
0110
1001
0110
0000
0000
1000
0000
0100
0000
,
0010
0000
0001
0000
0010
0000
0100
0000
1000
0000
0100
0000
0010
0000
0001
0010
,
0100
1000
0001
0010
0100
1000
0001
0010
0100
1000
1000
0100
0010
0001
0001
0000
,
0010
0000
0100
0000
1000
0000
0100
0000
0010
0000
0001
0000
0010
0000
1000
0100
,
0010
0001
1000
0100
0010
0001
1000
0100
0010
0001
1000
0100
0010
0001
0000
0000
,
0002
0000
0000
0000
0013
0000
0000
0000
0100
0000
0000
0000
1000
0000
0000
0100
0000
0000
0010
0000
0000
0001
0000
0000
0010
0000
0000
0100
0000
0000
1000
0000
0000
0100
0000
0000
1000
0000
0000
0000
0000
0000
1100
0000
0000
0000
0000
0000
,
1100
0100
0010
0001
0010
0100
1000
0100
0010
0001
0010
0100
1000
0100
0010
0100
,
1000
0100
0010
0100
1000
0100
0010
0001
0010
0100
0010
0001
0000
0001
0000
0000
,
1100
1100
0110
0110
0011
0110
0000
0000
,
1100
0000
1100
0000
0000
0100
0010
0001
,
0010
0100
1000
0100
0010
0001
0010
1100
,
1100
0000
0011
0000
0011
0000
0110
0000
0110
0000
1100
0000
0010
0001
0010
0100
,
0010
0100
0010
1000
0100
0010
0001
0010
0100
1000
0100
0010
0000
0000
0000
0000
,
1001
0000
1001
0000
0000
0100
1000
0100
,
0010
0001
0010
0100
1000
0000
0110
0000
,
1001
0000
0110
1100
0101
0000
1001
0110
,
1100
0011
0000
0110
1001
0000
1100
0100
,
0010
0001
0110
1000
0100
0010
1100
0010
,
0100
0001
0101
0100
0010
0100
1010
0100
,
0010
0001
0101
0001
0010
0100
1100
0100
,
0010
0001
0101
1000
0100
0010
1100
0010
,
0100
0001
1100
0010
0100
0001
0011
0001
,
0100
0010
0110
0100
0010
0100
2002
0000
,
0000
0000
0000
3003
0000
0000
1001
1001
,
1001
1001
0000
0110
1001
0000
1100
0100
,
0010
0001
1100
0100
0010
0100
1100
0100
,
0010
0100
1001
0100
0010
0100
0110
0100
,
1000
0100
1010
0100
1000
0001
0101
0010
,
0100
0010
1010
0100
0010
0001
1010
0100
,
0001
1000
0110
1000
0001
0010
1010
0100
,
0010
0001
0101
0100
1000
0100
2020
0000
,
0000
0000
0000
3030
0000
0000
1001
1001
,
1001
1001
0000
0110
1001
0000
1100
0100
,
0010
0001
0010
0100
1000
0100
0010
0100
,
0010
0100
1000
0100
0010
0001
0100
0000
,
0100
0000
0100
0010
1000
0100
0010
0001
,
0100
0010
0100
0001
1000
0100
0010
0000
,
0100
0000
1000
0000
0100
0010
1000
0100
,
0010
0001
0100
0010
1000
0100
1020
0000
,
0000
0030
0000
0000
0000
0000
1001
1001
,
1001
1001
0000
0110
1100
0000
1100
0100
,
0010
0001
1010
0100
0010
0100
1001
0100
,
0010
0100
1010
0100
0010
0100
0110
0100
,
1000
0100
0011
0100
0100
0010
1010
0100
,
0010
0100
1001
0100
1000
0100
1010
0001
,
0100
0001
1010
0100
0010
0100
1001
0010
,
0100
1000
0101
0100
0010
1000
2002
0000
,
0000
3003
0000
0000
0000
0000
0000
0000
,
1100
0000
0110
0011
0011
0000
0001
0010
,
0001
0010
0001
0010
0001
0010
0001
0010
,
0001
0010
0001
0010
0001
0010
0001
0010
,
0001
0010
0001
0010
0001
0010
0001
0010
,
0001
0010
0001
1001
1001
0000
1000
1000
,
1000
0000
1000
0100
0010
0000
0001
0000
0001
0000
0001
0000
0001
0000
0001
0010
,
0100
0100
0100
0100
0100
0100
1100
0000
,
0011
0001
0000
0110
0100
0000
0000
1001
,
1001
1001
1001
0000
0110
0000
1100
0000
,
0110
0011
0110
1100
,
0110
1100
0011
1001
,
1001
0000
1001
0110
1100
0011
0000
1000
,
0001
1001
0000
0001
1000
2002
0000
0000
,
0000
0000
0000
0000
,
3003
0000
0000
0000
;
