#TITLE:Dust. Mote.;
#SUBTITLE:;
#ARTIST:t+pazolite;
#TITLETRANSLIT:;
#SUBTITLETRANSLIT:;
#ARTISTTRANSLIT:;
#CREDIT:;
#BANNER:../BN.png;
#BACKGROUND:../BG.png;
#LYRICSPATH:;
#CDTITLE:../CDTitleBRAEDEN.png;
#MUSIC:Dust. Mote.ogg;
#OFFSET:0.012;
#SAMPLESTART:55.993;
#SAMPLELENGTH:12.000;
#SELECTABLE:YES;
#DISPLAYBPM:120.000:240.000;
#BPMS:0.000=240.000,160.000=120.000,176.000=240.000,400.000=120.000,416.000=240.000,472.000=20.000;
#STOPS:;
#BGCHANGES:;
// cache tags:
#FIRSTBEAT:4.000;
#LASTBEAT:402.000;
#SONGFILENAME:Songs/Index Gradation/Dust. Mote - [Braeden]/Dust.sm;
#HASMUSIC:1;
#HASBANNER:1;
#MUSICLENGTH:129.001;
// end cache tags

//---------------dance-single - ----------------
#NOTES:
     dance-single:
     :
     Challenge:
     18:
     1.000,1.000,0.395,0.225,1.000,882.000,51.000,29.000,13.000,10.000:

0000
0000
0000
0000
,
1000
0010
0100
0001
1000
0100
0010
0001
0010
0100
1000
0001
1000
0010
0100
0001
,
0010
0100
1000
0100
0010
0001
0010
0100
1000
0001
0100
0010
1000
0100
0010
0001
,
0010
0100
1000
0001
0100
0010
1000
0100
0010
0001
0010
0100
1000
0001
0100
0010
,
1000
0001
0010
0100
1000
0001
0100
0010
1000
0100
0010
0001
0010
0100
1000
0001
,
0100
0010
1000
0100
0010
0001
0010
0100
1000
0001
0100
0010
1000
0001
0010
0100
,
1000
0000
00M0
000M
00M0
0M00
M000
0M00
,
00M0
000M
00M0
0M00
M000
000M
M000
0000
,
0001
0010
0100
1000
0100
0010
0001
0010
0100
1000
0001
0100
0010
1000
0100
0010
,
0001
0010
0100
1000
0001
0100
0010
1000
0100
0010
0001
0010
0100
1000
0001
0100
,
0010
1000
0100
0010
0001
0010
0100
1000
0001
0100
0010
1000
0100
0010
0001
0010
,
0100
1000
0001
0100
0010
1000
0001
0010
0100
0000
0000
1000
0100
0000
0010
0000
,
0001
0010
0100
1000
0100
0010
0001
0100
0010
1000
0001
0010
0100
1000
0100
0010
,
0001
1000
0010
0100
0001
1000
0100
0010
0001
0010
0100
1000
0001
0100
0010
1000
,
0001
0010
0100
1000
0001
0100
0010
1000
0100
0010
0001
0010
0100
1000
0001
0100
,
0010
1000
0001
0010
0100
0000
0000
0000
1000
0010
1000
0010
1000
0000
0100
0000
,
0010
0001
0010
0100
1000
0001
0100
0010
1000
0100
0010
0001
0010
0100
1000
0001
,
0100
0010
1000
0100
0010
0001
0010
0100
1000
0001
0100
0010
1000
0100
0010
0001
,
0010
0100
1000
0001
0100
0010
1000
0100
0010
0001
0010
0100
1000
0001
0100
0010
,
1000
0100
0010
0001
1000
0010
0100
0001
0010
0000
0000
0010
0001
0000
0100
0000
,
0010
1000
0010
0100
0001
1000
0100
0010
0001
0010
0100
1000
0001
0100
0010
1000
,
0100
0010
0001
0010
0100
1000
0001
0100
0010
1000
0100
0010
0001
0010
0100
1000
,
0001
0100
0010
1000
0100
0010
0001
0010
0100
1000
0001
0100
0010
1000
0001
0010
,
0001
0100
0001
0100
0001
1000
0001
1000
0001
0000
0010
0000
0100
0000
1000
0000
,
2002
0000
0000
3003
,
1110
0000
0000
2202
0000
0000
3303
0000
,
2222
0000
0000
3333
,
0111
0000
0000
0111
0000
0000
1000
0000
,
2222
0000
0000
3333
,
0011
0000
0000
0022
0000
0000
0000
0033
,
2222
0000
0000
3333
,
0110
0000
0000
0110
0000
0000
0110
0000
,
1100
1100
1010
1010
,
0110
0000
0110
0000
0101
0000
0100
0001
,
1000
1001
0011
0011
,
0110
0000
0110
0000
1100
0000
0001
0010
,
0001
1000
0010
0100
0001
0100
0010
1000
,
0100
0000
0010
0000
0100
0000
1000
0000
0001
0000
1000
0100
1000
0000
0001
0000
,
0100
0000
0010
1000
0010
0000
1000
0001
1000
0000
0100
0010
0001
0000
1000
0100
,
0010
0001
0010
0100
1000
0010
0100
0001
1000
0000
0100
0000
0010
0000
0001
0000
,
1000
0010
0100
0001
0200
0000
0000
0000
0302
0000
0000
0000
0003
0000
1000
0100
,
1000
0000
0000
0000
0000
0000
0000
0000
0100
0000
0000
1000
0000
0000
0010
0000
0100
0000
0000
0000
0000
0000
0000
0000
0000
0000
0000
0000
0001
0000
0010
0000
,
0100
0000
0000
1000
0000
0000
0010
0000
0100
0000
0001
0000
1000
0100
0000
0020
,
0000
0000
0000
0000
0000
0000
0031
0100
,
0101
0001
0100
0001
,
1101
0000
0000
1110
0000
0000
1100
0000
,
1101
0000
0100
0000
0010
0000
0100
0010
,
0011
0000
0000
0011
0000
0000
1001
1000
,
0001
1000
0001
1000
0100
0010
0000
0001
,
0000
0010
0100
0010
0001
0100
0010
1000
,
0010
0100
0001
0100
0010
1000
0000
0010
,
0100
0000
0001
1000
0001
0000
0100
0010
0100
0010
1000
0000
0100
0000
0010
0000
,
0001
0010
0100
1000
0100
0010
0001
0010
0100
1000
0001
0100
0010
1000
0100
0010
,
0001
0010
0100
1000
0001
0100
0010
1000
0001
0010
0100
1000
0001
0010
0100
1000
,
0100
0010
0001
0010
0100
1000
0001
0100
0010
1000
0001
0010
0100
0000
0010
0000
,
0002
0000
0000
0000
0203
0000
0000
0000
0310
0000
0000
0010
1000
0000
0001
0000
,
1000
0100
0010
0001
0010
0100
1000
0001
0100
0010
1000
0100
0010
0001
0010
0100
,
1000
0001
0100
0010
1000
0100
0010
0001
1000
0010
0100
0001
1000
0100
0010
0001
,
1000
0010
0100
0001
1000
0100
0010
0001
0010
0100
1000
0001
0100
0010
1000
0100
,
0010
0001
1000
0010
0100
0001
1000
0010
1000
0000
0000
0100
0010
0000
0001
0000
,
0100
0010
0001
0010
0100
1000
0100
0001
,
0020
0000
0230
0000
2300
0000
3100
0010
,
0001
0100
0010
1000
0000
0100
0000
0010
,
0001
0000
0000
0000
0010
0000
0000
0000
0001
0000
0000
0100
0001
0000
0010
0000
,
0001
0010
0100
0010
0100
0010
0001
0010
,
0000
0001
0010
0100
0010
0100
0010
0001
,
0010
0001
0010
0000
0010
0001
0100
0001
,
0100
0010
1000
0010
0100
0001
0100
0001
1000
0000
0001
0000
1000
0000
0001
0000
,
1001
1000
0010
1000
0001
0100
0001
1000
,
0011
0110
1100
1010
,
0110
0010
1000
0100
0010
0001
0100
0001
,
0101
0000
0110
0000
0010
1000
0001
0000
,
1001
0001
0010
0100
1000
0100
0010
0001
,
0011
0110
1100
1010
,
0110
0010
1000
0100
0010
0001
0101
0000
,
0001
0000
1000
0010
1000
0000
0001
0100
0001
0000
0010
0000
0100
0000
1000
0000
,
0001
0000
1000
0100
1000
0000
0001
0000
0100
0010
1000
0000
0001
0010
0001
0010
,
0001
0000
1000
0010
1000
0000
0100
0000
0010
0001
0010
0000
0100
1000
0100
1000
,
0100
0000
0010
0001
0010
0000
0001
0000
0100
0010
1000
0000
0001
0010
0001
0010
,
0001
0000
1000
0010
0100
0000
0001
0000
0100
0010
0100
0000
0001
0100
0010
1000
,
0001
0001
0100
0100
0010
0010
1000
1000
,
0010
0000
0010
0000
0100
0000
0100
0000
0001
0000
1000
0010
1000
0000
0100
0000
,
0010
0000
0001
0010
0100
0000
1000
0010
0100
0000
0001
0100
0010
0000
1000
0100
,
1000
0100
0010
0001
1000
0010
0100
0001
1000
0000
0010
0000
0100
0000
0001
0000
,
1000
0000
0000
1000
0000
0000
0001
0000
0000
1000
0000
0000
0001
0000
0010
0000
,
0100
0000
0000
1000
0000
0000
0100
0000
0000
1000
0000
0000
0100
0000
0010
0000
,
0001
0000
0000
1000
0000
0000
0001
0000
0000
0100
0000
0000
0001
0000
0010
0000
,
0100
0000
0000
1000
0000
0000
0010
0000
0000
0100
0000
0000
0010
0000
1000
0000
,
0100
0000
0000
0010
0000
0000
0001
0000
0000
0100
0000
0000
0010
0000
1000
0000
,
0001
0000
0000
0100
0000
0000
0010
0000
0000
1000
0000
0000
0001
0000
0100
0000
,
0010
0000
0000
1000
0000
0000
0010
0000
0000
0100
0000
0000
0001
0000
1000
0000
,
0100
0000
0000
0010
0000
0000
0001
0000
0000
0010
0000
0000
0100
0000
0010
0000
,
0110
0000
0000
0100
0000
0000
1000
0000
0000
0100
0000
0000
0010
0000
0001
0000
,
1000
0000
0000
0100
0000
0000
0001
0000
0000
0100
0000
0000
1000
0000
0010
0000
,
0100
0000
0000
0001
0000
0000
0100
0000
0000
1000
0000
0000
0100
0000
0001
0000
,
1000
0000
0000
0010
0000
0000
0100
0000
0000
0001
0000
0000
1000
0000
0001
0000
,
1000
0000
0000
0100
0000
0000
0010
0000
0000
0001
0000
0000
0100
0000
0010
0000
,
1000
0000
0000
0010
0000
0000
0100
0000
0000
0001
0000
0000
1000
0000
0010
0000
,
0100
0000
0000
0001
0000
0000
0100
0000
0000
0001
0000
0000
1000
0000
0100
0000
,
0010
0001
0100
0001
0010
0100
1000
0000
0010
0000
1000
0000
0001
0000
1000
0000
,
2002
0000
3003
0000
;

//---------------dance-single - ----------------
#NOTES:
     dance-single:
     :
     Medium:
     10:
     0.691,0.701,0.512,0.411,0.159,505.000,66.000,53.000,0.000,0.000:
0000
0000
0000
0000
,
0002
0103
0010
1000
,
0002
0103
0010
1000
,
0002
0103
0010
1000
,
0020
0130
0001
1000
,
0020
0000
0130
0000
0001
0000
0010
0100
,
1000
0000
0000
0000
,
0000
0000
0000
0000
,
1100
1000
0100
0001
,
0100
0000
0010
0000
0001
0000
1000
0010
,
0100
0001
0100
1000
,
0100
0000
0010
0000
1000
0000
0100
0010
,
0001
1000
0010
0001
,
0010
0000
1000
0000
0010
0000
0100
0001
,
0100
0010
1000
0001
,
0100
0000
0001
0000
1000
0001
0010
0000
,
0010
0100
1000
0000
1100
0000
1000
0100
,
0000
0010
0001
0000
0011
0000
0001
0100
,
0010
1000
0001
0000
1010
0000
1000
0100
,
0000
0100
0010
0000
0110
0000
0010
0001
,
0100
0010
0200
0000
0302
0000
0013
0100
,
0000
0100
2000
0000
3002
0000
1003
0010
,
0100
0001
0020
0000
0130
0000
1000
0000
,
0002
0000
0000
0000
1003
0010
1000
0001
,
2002
0000
0000
3003
,
1100
0000
0000
2200
0000
0000
3300
0000
,
0220
0000
0000
0330
,
0011
0000
0000
0011
0000
0000
1000
0000
,
2002
0000
0000
3003
,
0011
0000
0000
0022
0000
0000
0000
0033
,
0220
0000
0000
0330
,
0110
0000
0000
0110
0000
0000
0110
0000
,
1100
1100
1010
1010
,
0110
0000
0110
0000
0101
0000
0100
0001
,
1000
1001
0011
0011
,
0110
0000
0110
0000
1100
0000
0001
0010
,
0001
1000
0010
0100
0001
0100
0010
1000
,
0100
0010
0100
1000
0001
0100
0001
1000
,
0010
0100
0010
1000
0010
0100
0001
0010
,
0100
1000
0100
0010
0001
0100
0010
1000
,
0100
0010
0100
1000
0002
0000
0000
0000
0203
0000
0000
0000
0000
0000
0310
1000
,
0100
0000
0000
0000
0000
0000
0000
0000
0100
0000
0000
1000
0000
0000
0010
0000
0100
0000
0000
0000
0000
0000
0000
0000
0000
0000
0000
0000
0001
0000
0010
0000
,
0100
0000
0000
1000
0000
0000
0010
0000
0100
0000
0001
0000
1000
0100
0000
0020
,
0000
0000
0000
0000
0000
0000
0031
0100
,
0101
0001
0100
0001
,
1001
0000
0000
1100
0000
0000
1100
0000
,
0110
0100
0010
0100
,
0110
0000
0000
0011
0000
0000
1001
0000
,
1001
1000
0001
1000
0100
0010
0000
0001
,
0000
0010
0100
0010
0001
0100
0010
1000
,
0010
0100
0001
0100
0010
1000
0000
0010
,
0100
0001
0200
0320
,
1030
0100
0010
0001
1000
0100
0010
0100
,
2000
0000
3020
0000
0230
0000
0301
0010
,
0100
1000
0010
0100
0001
1000
0010
0100
,
0002
0000
0203
0000
0310
0000
1000
0010
,
1000
0100
0010
0001
0000
0000
0011
0000
,
0110
0000
1100
0000
1010
0000
0110
0100
,
0001
1000
0010
0100
0000
0000
0011
0000
,
0110
0000
1100
0000
1010
0000
0010
1000
,
0100
0010
0001
0010
0100
1000
0010
1000
,
0020
0000
0230
0000
0320
0000
1030
0100
,
0010
0100
0010
0001
0000
0100
0000
0001
,
1000
0000
0010
0000
0100
0000
0001
0010
,
0001
0010
0100
0010
0100
0010
1000
0010
,
0000
1000
0010
0100
0010
0100
0010
0001
,
0010
0001
0100
0010
1000
0010
0100
0001
,
0200
0000
0000
0000
0310
1000
0001
1000
,
1001
0000
0000
1000
0000
0000
0001
0000
,
0011
0110
1100
1010
,
0110
0000
0000
0100
0000
0000
0001
0000
,
0101
0000
0110
0000
0010
1000
0001
0000
,
1001
0000
0000
0001
0000
0000
0010
0000
,
0011
0110
1100
1010
,
0110
0000
0000
0100
0000
0000
0101
0000
,
0001
0000
0100
0000
0010
1000
0010
1000
,
0020
0230
0302
0203
,
2300
0000
3200
0000
0320
0000
1030
0100
,
0020
0032
2003
3020
,
0032
0000
0023
0000
0230
0000
0301
0100
,
0010
1000
0100
0010
0001
1000
0100
0010
,
0001
0010
0100
1000
0010
1000
0010
0100
,
0001
0100
0001
0010
0100
0010
0100
1000
,
0010
1000
0001
0100
0010
1000
0001
0100
,
0001
0000
0000
1000
0000
0000
0001
0000
0000
1000
0000
0000
0001
0000
0010
0000
,
0100
0000
0000
1000
0000
0000
0100
0000
0000
1000
0000
0000
0100
0000
0010
0000
,
0001
0000
0000
1000
0000
0000
0001
0000
0000
0100
0000
0000
0001
0000
0010
0000
,
0100
0000
0000
1000
0000
0000
0010
0000
0000
0100
0000
0000
0010
0000
1000
0000
,
0100
0000
0000
0010
0000
0000
0001
0000
0000
0100
0000
0000
0010
0000
1000
0000
,
0001
0000
0000
0100
0000
0000
0010
0000
0000
1000
0000
0000
0001
0000
0100
0000
,
0010
0000
0000
1000
0000
0000
0010
0000
0000
0100
0000
0000
0001
0000
1000
0000
,
0100
0000
0000
0010
0000
0000
0001
0000
0000
0010
0000
0000
0100
0000
0010
0000
,
0110
0000
0000
0100
0000
0000
1000
0000
0000
0100
0000
0000
0010
0000
0001
0000
,
1000
0000
0000
0100
0000
0000
0001
0000
0000
0100
0000
0000
1000
0000
0010
0000
,
0100
0000
0000
0001
0000
0000
0100
0000
0000
1000
0000
0000
0100
0000
0001
0000
,
1000
0000
0000
0010
0000
0000
0100
0000
0000
0001
0000
0000
1000
0000
0001
0000
,
1000
0000
0000
0100
0000
0000
0010
0000
0000
0001
0000
0000
0100
0000
0010
0000
,
1000
0000
0000
0010
0000
0000
0100
0000
0000
0001
0000
0000
1000
0000
0010
0000
,
0100
0000
0000
0001
0000
0000
0100
0000
0000
0001
0000
0000
1000
0000
0100
0000
,
0010
0000
0000
0001
0000
0000
1000
0000
0000
0010
0000
0000
1000
0000
0001
0000
,
2002
0000
3003
0000
;

//---------------dance-single - ----------------
#NOTES:
     dance-single:
     :
     Hard:
     13:
     0.816,0.974,0.667,0.194,0.376,626.000,86.000,25.000,0.000,0.000:

0000
0000
0000
0000
,
1001
0000
1000
0000
0100
0000
0010
0001
,
0011
0100
0010
1000
,
1010
0000
0000
0000
0100
0000
0000
0000
0001
0000
0000
1000
0100
0000
1000
0000
,
1100
0100
0010
0001
,
0011
0000
0001
0000
0100
0000
0010
1000
,
0001
0000
0000
0000
,
0000
0000
0000
0000
,
0011
0011
0110
0110
,
1100
0000
1100
0000
1010
0000
1000
0010
,
0100
0101
0101
0011
,
0011
0000
0000
0000
0110
0000
0000
0000
0110
0000
0000
0010
1000
0000
0010
0000
,
1000
1010
0110
0101
,
1001
0000
0011
0000
0110
0000
0010
1000
,
0010
1010
0110
0101
,
0011
0000
0000
0000
1010
0000
0000
0000
1000
0010
1000
0010
1000
0000
0100
0000
,
0010
0001
0010
0000
0011
0000
1000
0100
,
0000
0010
0001
0000
0011
0000
0001
0100
,
0010
1000
0001
0000
1010
0000
1000
0100
,
0000
0000
0100
0000
0010
0000
0000
0000
0110
0000
0000
0010
0001
0000
0100
0000
,
0010
1000
0100
0000
0010
0000
0010
0100
,
0000
0100
2000
0000
3002
0000
1003
0010
,
0100
0001
0020
0000
0130
0000
1000
0000
,
0001
0100
0001
0100
0001
1000
0001
1000
0001
0000
0010
0000
0100
0000
1000
0000
,
2002
0000
0000
3003
,
1100
0000
0000
2200
0000
0000
3300
0000
,
0220
0000
0000
0330
,
0011
0000
0000
0011
0000
0000
1000
0000
,
2002
0000
0000
3003
,
0011
0000
0000
0022
0000
0000
0000
0033
,
0220
0000
0000
0330
,
0110
0000
0000
0110
0000
0000
0110
0000
,
1100
1100
1010
1010
,
0110
0000
0110
0000
0101
0000
0100
0001
,
1000
1001
0011
0011
,
0110
0000
0110
0000
1100
0000
0001
0010
,
0001
1000
0010
0100
0001
0100
0010
1000
,
0100
0000
0010
0000
0100
0000
1000
0000
0001
0000
1000
0100
1000
0000
0001
0000
,
0100
0000
0010
1000
0010
0000
1000
0001
1000
0000
0100
0010
0001
0000
1000
0100
,
0010
0001
0010
0100
1000
0010
0100
0001
1000
0000
0100
0000
0010
0000
0001
0000
,
1000
0010
0100
0001
0200
0000
0000
0000
0302
0000
0000
0000
0003
0000
1000
0100
,
1000
0000
0000
0000
0000
0000
0000
0000
0100
0000
0000
1000
0000
0000
0010
0000
0100
0000
0000
0000
0000
0000
0000
0000
0000
0000
0000
0000
0001
0000
0010
0000
,
0100
0000
0000
1000
0000
0000
0010
0000
0100
0000
0001
0000
1000
0100
0000
0020
,
0000
0000
0000
0000
0000
0000
0031
0100
,
0101
0001
0100
0001
,
1001
0000
0000
1100
0000
0000
1100
0000
,
0110
0000
0100
0000
0010
0000
0100
0010
,
0001
0000
0000
0011
0000
0000
1001
1000
,
0001
1000
0001
1000
0100
0010
0000
0001
,
0000
0010
0100
0010
0001
0100
0010
1000
,
0010
0100
0001
0100
0010
1000
0000
0010
,
0100
0000
0001
1000
0001
0000
0100
0010
0100
0010
1000
0000
0100
0000
0010
0000
,
0001
0100
1000
0100
0001
0010
0100
1000
,
1100
0000
0110
0000
0011
0000
0001
0010
,
0100
1000
0010
0100
0001
1000
0010
0100
,
0002
0000
0000
0000
0203
0000
0000
0000
0310
0000
0000
0010
1000
0000
0001
0000
,
1000
0010
0100
0001
1000
0100
0010
0001
,
0100
0010
1000
0010
0100
0001
0100
0010
,
1000
0010
0100
0001
0100
0010
1000
0100
,
0010
0000
0001
0000
0100
0000
0010
0000
1000
0000
0000
0100
0010
0000
0001
0000
,
0100
0010
1000
0010
0001
0100
0010
1000
,
0020
0000
0230
0000
0320
0000
1030
0100
,
0010
0100
0010
0001
0000
0100
0000
0001
,
1000
0000
0000
0000
0010
0000
0000
0000
0100
0000
0000
0100
0001
0000
0010
0000
,
0001
0010
0100
0010
0100
0010
1000
0010
,
0000
1000
0010
0100
0010
0100
0010
0001
,
0010
0001
0010
1000
0010
0001
0100
0001
,
0100
0010
1000
0010
0100
0001
0100
0001
1000
0000
0001
0000
1000
0000
0001
0000
,
1001
1000
0010
1000
0001
0100
0001
1000
,
0011
0110
1100
1010
,
0110
0010
1000
0100
0010
0001
0100
0001
,
0101
0000
0110
0000
0010
1000
0001
0000
,
1001
0001
0010
0100
1000
0100
0010
0001
,
0011
0110
1100
1010
,
0110
0010
1000
0100
0010
0001
0101
0000
,
0001
0000
1000
0010
1000
0000
0001
0100
0001
0000
0010
0000
0100
0000
1000
0000
,
0001
0000
1000
0100
1000
0000
0001
0000
0100
0010
1000
0000
0001
0010
0001
0010
,
0001
0000
1000
0010
1000
0000
0100
0000
0010
0001
0010
0000
0100
1000
0100
1000
,
0100
0000
0010
0001
0010
0000
0001
0000
0100
0010
1000
0000
0001
0010
0001
0010
,
0001
0000
1000
0010
0100
0000
0001
0000
0100
0010
0100
0000
0001
0100
0010
1000
,
0001
0001
0100
0100
0010
0010
1000
1000
,
0010
0000
0010
0000
0100
0000
0100
0000
0001
0000
1000
0010
1000
0000
0100
0000
,
0010
0000
0001
0010
0100
0000
1000
0010
0100
0000
0001
0100
0010
0000
1000
0100
,
1000
0100
0010
0001
1000
0010
0100
0001
1000
0000
0010
0000
0100
0000
0001
0000
,
1000
0000
0000
1000
0000
0000
0001
0000
0000
1000
0000
0000
0001
0000
0010
0000
,
0100
0000
0000
1000
0000
0000
0100
0000
0000
1000
0000
0000
0100
0000
0010
0000
,
0001
0000
0000
1000
0000
0000
0001
0000
0000
0100
0000
0000
0001
0000
0010
0000
,
0100
0000
0000
1000
0000
0000
0010
0000
0000
0100
0000
0000
0010
0000
1000
0000
,
0100
0000
0000
0010
0000
0000
0001
0000
0000
0100
0000
0000
0010
0000
1000
0000
,
0001
0000
0000
0100
0000
0000
0010
0000
0000
1000
0000
0000
0001
0000
0100
0000
,
0010
0000
0000
1000
0000
0000
0010
0000
0000
0100
0000
0000
0001
0000
1000
0000
,
0100
0000
0000
0010
0000
0000
0001
0000
0000
0010
0000
0000
0100
0000
0010
0000
,
0110
0000
0000
0100
0000
0000
1000
0000
0000
0100
0000
0000
0010
0000
0001
0000
,
1000
0000
0000
0100
0000
0000
0001
0000
0000
0100
0000
0000
1000
0000
0010
0000
,
0100
0000
0000
0001
0000
0000
0100
0000
0000
1000
0000
0000
0100
0000
0001
0000
,
1000
0000
0000
0010
0000
0000
0100
0000
0000
0001
0000
0000
1000
0000
0001
0000
,
1000
0000
0000
0100
0000
0000
0010
0000
0000
0001
0000
0000
0100
0000
0010
0000
,
1000
0000
0000
0010
0000
0000
0100
0000
0000
0001
0000
0000
1000
0000
0010
0000
,
0100
0000
0000
0001
0000
0000
0100
0000
0000
0001
0000
0000
1000
0000
0100
0000
,
0010
0001
0100
0001
0010
0100
1000
0000
0010
0000
1000
0000
0001
0000
1000
0000
,
2002
0000
3003
0000
;
