#TITLE:Spyro the Dragon Theme;
#SUBTITLE:;
#ARTIST:Stewart Copeland;
#TITLETRANSLIT:;
#SUBTITLETRANSLIT:;
#ARTISTTRANSLIT:;
#CREDIT:Dancing Monkeys v1.04;
#BANNER:Spyro the Dragon Theme.png;
#BACKGROUND:Spyro the Dragon Theme-BG.png;
#LYRICSPATH:;
#CDTITLE:;
#MUSIC:Spyro the Dragon Theme.mp3;
#OFFSET:-1.041;
#SAMPLESTART:55.041;
#SAMPLELENGTH:12.000;
#SELECTABLE:YES;
#BPMS:0.000=120.000;
#STOPS:43.000=2.000
,55.000=2.000
,147.000=2.000
,159.000=2.000
;
#BGCHANGES:;
// cache tags:
#FIRSTBEAT:1.500;
#LASTBEAT:184.000;
#SONGFILENAME:Songs/keyboard/Spyro the Dragon Theme/Spyro the Dragon Theme.sm;
#HASMUSIC:1;
#HASBANNER:1;
#MUSICLENGTH:105.132;
// end cache tags

//---------------dance-single - Basic----------------
#NOTES:
     dance-single:
     Basic:
     Easy:
     3:
     0.120,0.127,0.038,0.000,0.000,84.000,4.000,0.000,0.000,0.000:
0000
0000
0000
0000
1000
0000
0010
0000
,
1000
0000
0000
0000
0000
0000
0000
0000
,
0000
0000
0000
0000
1000
0000
0001
0000
,
1000
0000
0000
0000
0000
0000
0000
0000
,
0000
0000
0000
0000
0001
0000
0001
0000
,
1000
0000
0000
0000
0000
0000
0000
0000
,
0000
0000
0000
0000
1000
0000
0100
0000
,
1000
0000
0000
0000
0000
0000
0000
0000
,
0000
0000
0000
0000
0001
0000
1000
0000
,
0000
0000
0000
0000
1000
0000
0001
0000
,
1000
0000
0010
0000
0110
0000
0000
0000
,
0000
0000
0000
0000
1000
0000
0000
0000
,
0000
0000
0000
0000
0001
0000
1000
0000
,
1000
0000
0010
0000
0110
0000
0000
0000
,
0000
0000
0000
0000
1000
0000
0000
0000
,
0000
0000
0000
0000
1000
0000
0001
0000
,
0000
0000
0000
0000
1000
0000
0001
0000
,
0000
0000
0000
0000
1000
0000
0001
0000
,
0000
0000
0000
0000
1000
0000
0001
0000
,
0000
0000
0000
0000
0001
0000
1000
0000
,
0000
0000
0000
0000
1000
0000
0001
0000
,
0000
0000
0000
0000
1000
0000
0001
0000
,
0000
0000
0000
0000
1000
0000
0001
0000
,
0000
0000
0000
0000
1000
0000
0001
0000
,
0000
0000
0000
0000
0001
0000
1000
0000
,
0000
0000
0000
0000
1000
0000
0001
0000
,
0000
0000
0000
0000
1000
0000
0001
0000
,
1000
0000
0000
0000
0001
0000
0000
0000
,
0000
0000
0000
0000
0001
0000
1000
0000
,
1000
0000
0000
0000
0010
0000
0000
0000
,
0000
0000
0001
0000
0000
0000
0010
0000
,
1000
0000
0000
0000
0010
0000
0000
0000
,
0000
0000
0000
0000
0001
0000
1000
0000
,
1000
0000
0000
0000
0010
0000
0000
0000
,
0001
0000
0000
0000
0100
0000
0000
0000
,
0000
0000
0000
0000
0001
0000
1000
0000
,
1000
0000
0010
0000
0110
0000
0000
0000
,
0000
0000
0000
0000
1000
0000
0000
0000
,
0000
0000
0000
0000
0001
0000
1000
0000
,
1000
0000
0010
0000
0110
0000
0000
0000
,
0000
0000
0000
0000
1000
0000
0100
0000
,
1000
0000
0000
0000
0000
0000
0000
0000
,
0000
0000
0000
0000
1000
0000
0100
0000
,
1000
0000
0000
0000
0000
0000
0000
0000
,
0000
0000
0000
0000
0001
0000
0000
0000
,
0000
0000
0000
0000
0000
0000
0000
0000
,
0000
0000
0000
0000
0000
0000
0000
0000
,;

//---------------dance-single - Standard----------------
#NOTES:
     dance-single:
     Standard:
     Medium:
     5:
     0.149,0.153,0.057,0.000,0.000,104.000,6.000,0.000,0.000,0.000:
0000
0000
0000
0001
0010
0000
0100
0000
,
1000
0000
0000
0000
0000
0000
0000
0000
,
0000
0000
0000
0000
1100
0000
0001
0000
,
1000
0000
0000
0000
0000
0000
0000
0000
,
0000
0000
0000
0000
1100
0000
0001
0000
,
1000
0000
0000
0000
0000
0000
0000
0000
,
0000
0000
0000
0000
0001
0000
0100
0000
,
1000
0000
0000
0000
0000
0000
0000
0000
,
0000
0000
0000
0000
0001
0000
0100
0000
,
0000
0000
0000
0000
0001
0000
0010
0000
,
0001
0000
0100
0000
1001
0000
0000
0000
,
0000
0000
0000
0000
1000
0000
0000
0000
,
0000
0000
0000
0000
0001
0000
0100
0000
,
0001
0000
0100
0000
1001
0000
0000
0000
,
0000
0000
0000
0000
1000
0000
0000
0000
,
0000
0000
0001
0000
1000
0000
0100
0000
,
0000
0000
1000
0000
0001
0000
0100
0000
,
0000
0000
0000
0000
1000
0000
0100
0000
,
0000
0000
0001
0000
1000
0000
0100
0000
,
0000
0000
0001
0000
1000
0000
0010
0000
,
0000
0000
1000
0000
0001
0000
0010
0000
,
0000
0000
0000
0000
1000
0000
0100
0000
,
0000
0000
0000
0000
1000
0000
0010
0000
,
0000
0000
0001
0000
1000
0000
0100
0000
,
0000
0000
0001
0000
1000
0000
0100
0000
,
0000
0000
1000
0000
0001
0000
0010
0000
,
0000
0000
0001
0000
1000
0000
0010
0000
,
0001
0000
0010
0000
0001
0000
0000
0000
,
0001
0000
0000
0000
1000
0000
0010
0000
,
1000
0000
0100
0000
0010
0000
0000
0000
,
0000
0000
0001
0000
0100
0000
0010
0000
,
1000
0000
0100
0000
0010
0000
0000
0000
,
0001
0000
0000
0000
1000
0000
0010
0000
,
1000
0000
0100
0000
0010
0000
0000
0000
,
0001
0000
0010
0000
0100
0000
0000
0000
,
0000
0000
0000
0000
0001
0000
0100
0000
,
0001
0000
0100
0000
1001
0000
0000
0000
,
0000
0000
0000
0000
1000
0000
0000
0000
,
0000
0000
0000
0000
0001
0000
0100
0000
,
0001
0000
0100
0000
1001
0000
0000
0000
,
0000
0000
0000
0000
0001
0000
0100
0000
,
1000
0000
0000
0000
0000
0000
0000
0000
,
0000
0000
0000
0000
0001
0000
0100
0000
,
1000
0000
0000
0000
0000
0000
0000
0000
,
0000
0000
0000
0000
1000
0000
0000
0000
,
1000
0000
0000
0000
0000
0000
0000
0000
,
1000
0000
0000
0000
0000
0000
0000
0000
,;

//---------------dance-single - Heavy----------------
#NOTES:
     dance-single:
     Heavy:
     Hard:
     8:
     0.227,0.241,0.095,0.000,0.000,157.000,10.000,0.000,0.000,0.000:
0000
0000
0000
0000
0011
0000
0100
0000
,
0001
1000
0000
0000
0000
0000
0000
0000
,
0000
0000
0000
0000
0110
0000
0100
0000
,
0001
1000
0000
0000
0000
0000
0000
0000
,
0000
0000
0000
0000
0101
0000
1000
0100
,
0001
1000
0000
0000
0000
0000
0000
0000
,
0000
0000
0000
0000
1010
0000
0100
0010
,
0001
1000
0000
0000
0000
0000
0000
0000
,
0000
0000
0000
0000
1000
0010
0100
0000
,
0000
0000
0000
0000
1000
0100
0010
0000
,
1000
0100
0010
0000
1100
0000
0000
0000
,
0000
0000
0000
0000
0001
0000
0100
0000
,
0000
0000
0000
0000
1000
0010
0100
0000
,
1000
0100
0010
0000
1100
0000
0000
0000
,
0000
0000
0000
0000
0001
0000
0100
0000
,
0000
1000
0100
0000
0010
0000
0100
0000
,
0000
0001
0010
0000
0100
0000
0010
0000
,
0000
1000
0100
0000
0010
0000
0100
0000
,
0000
1000
0100
0000
0010
0000
0100
0000
,
0000
1000
0010
0000
0100
0000
0010
0000
,
0000
1000
0100
0000
0010
0000
0100
0000
,
0000
1000
0100
0000
0010
0000
0100
0000
,
0000
1000
0100
0000
0010
0000
0100
0000
,
0000
1000
0100
0000
0010
0000
0100
0000
,
0000
0001
0010
0000
0100
0000
0010
0000
,
0000
0001
0100
0000
0010
0000
0100
0000
,
0000
1000
0010
0000
0100
0000
0010
0000
,
0001
0100
0010
0000
0100
0000
0000
0010
,
0001
0000
0010
0100
1000
0000
0100
0000
,
0001
0000
0100
0000
0010
0000
0010
0100
,
0000
0000
0001
0100
0000
0010
1000
0100
,
0001
0000
0100
0000
0010
0000
0010
0100
,
0001
0000
0010
0100
1000
0000
0100
0000
,
0001
0000
0100
0000
0010
0000
0010
0100
,
1000
0000
0010
1000
0100
0000
0010
0000
,
0000
0000
0000
0000
1000
0010
0100
0000
,
1000
0100
0010
0000
1100
0000
0000
0000
,
0000
0000
0000
0000
0001
0000
0100
0000
,
0000
0000
0000
0000
1000
0010
0100
0000
,
1000
0100
0010
0000
1100
0000
0000
0000
,
0000
0000
0000
0000
1010
0000
0100
0010
,
0001
1000
0000
0000
0000
0000
0000
0000
,
0000
0000
0000
0000
1010
0000
0100
0010
,
0001
1000
0000
0000
0000
0000
0000
0000
,
0000
0000
0000
0000
1000
0000
0100
0000
,
1000
0000
0000
0000
0000
0000
0000
0000
,
0001
0000
0000
0000
0000
0000
0000
0000
,
;
