#TITLE:The Art Of Partying;
#SUBTITLE:;
#ARTIST:Municipal Waste;
#TITLETRANSLIT:;
#SUBTITLETRANSLIT:;
#ARTISTTRANSLIT:;
#CREDIT:;
#BANNER:muwas.banner.jpg;
#BACKGROUND:muwas.bg.jpg;
#LYRICSPATH:;
#CDTITLE:CDTITLE.jpg;
#MUSIC:02-municipal_waste-the_art_of_partying(2).mp3;
#OFFSET:0.000;
#SAMPLESTART:100.000;
#SAMPLELENGTH:12.000;
#SELECTABLE:YES;
#BPMS:0.000=199.520;
#STOPS:;
#BGCHANGES:;
// cache tags:
#FIRSTBEAT:1.000;
#LASTBEAT:406.000;
#SONGFILENAME:Songs/Definitive Keyboard Megapack/The Art Of Partying - Municipal Waste(Leone510)/02-municipal_waste-the_art_of_partying(2).sm;
#HASMUSIC:1;
#HASBANNER:1;
#MUSICLENGTH:124.081;
// end cache tags

//---------------dance-single - ----------------
#NOTES:
     dance-single:
     :
     Hard:
     12:
     1.000,1.000,1.000,0.443,1.000,901.000,277.000,55.000,0.000,24.000:
0000
0000
0101
1100
0000
1001
0000
1010
,
0000
2000
0000
3101
0000
0000
0001
0010
0100
0000
0100
0000
0001
0000
0001
0000
,
0100
0000
1000
0000
0100
0000
0100
0000
1000
0010
0100
0010
2000
0000
0100
0000
,
3010
0000
0100
0010
0001
0000
0100
0001
0100
0001
1000
0010
1001
0000
0101
0000
,
0000
0000
0101
0000
0000
0000
1010
0000
0000
2000
0000
3101
0010
0001
0100
0000
,
0001
0000
0100
0010
1100
0000
0001
0000
1010
0000
0001
0010
1100
0000
1000
0000
,
0101
0000
1000
0100
0011
0100
0010
0001
1010
0000
0100
0000
0100
0000
0001
0000
,
1010
0000
0001
0000
1100
0000
0010
0000
0101
0000
1001
0000
0000
1100
0000
0000
,
1001
0000
0000
0000
0002
0000
1103
0010
0100
0001
0100
0000
0010
0001
1100
0000
,
1000
0000
0110
0000
0001
1000
0101
0000
0100
0000
0011
0000
1000
0010
0101
0010
,
1000
0010
0101
0000
0100
0000
0011
0000
1000
0000
0011
1000
0100
0000
1001
0000
,
0000
0101
0000
1100
0000
0000
1001
0000
0000
0000
1001
0000
0000
0000
0002
0000
,
1103
0010
0001
0100
0000
0001
0000
0100
0010
1100
0000
0001
0000
1010
0000
0001
,
0010
1100
0000
1000
0000
0101
0000
1000
0100
0011
0100
0010
0001
1010
0100
0000
,
0100
0000
0001
0010
1000
0010
0001
0010
1000
0100
0000
0101
0000
1001
0000
0000
,
1001
0000
0000
1100
0000
0000
0002
0000
1103
0000
0010
0000
0110
0000
0100
0010
,
0101
1000
0010
0000
1100
0010
0001
0010
1000
0010
0001
0010
1100
0000
1001
0000
,
0101
0000
0101
0000
1001
0010
0100
1000
0100
0010
0001
0010
1100
0010
1000
0010
,
0101
0000
0010
0000
1100
0000
0000
0000
0101
0000
0000
0000
1001
0000
0000
0002
,
0000
1103
0000
0010
0000
0110
0000
0100
0010
0101
1000
0010
0000
1100
0010
0001
,
0010
1000
0010
0001
0010
1100
0000
1001
0000
0101
0000
0101
0000
1001
0010
0100
,
1000
0100
0010
0001
0010
1100
0010
1000
0010
0101
0000
0010
0000
1100
0000
0000
,
0101
0000
0000
0000
1001
0000
0000
0000
0101
0000
1000
0000
0011
0000
0100
1000
,
0011
1000
0100
0001
0010
1100
0000
0010
0000
0101
0010
1000
0001
0100
0001
0100
,
1000
0100
0010
0001
1000
0000
0100
0000
0010
0000
0100
0001
0100
0000
0000
0001
,
1000
0001
0000
0000
0000
1000
0001
1000
0000
0002
0000
0000
1103
0000
0100
0000
,
0101
0000
0010
0100
1001
0010
0001
0010
1100
0000
1000
0000
0101
0000
0010
0100
,
1010
0001
0010
0001
1100
0000
0000
0101
0000
1000
0000
0110
0000
0001
1000
0110
,
0001
0010
0100
1000
0011
0000
0010
0000
1100
0000
0100
0000
0101
0000
1000
0000
,
0101
0000
0000
0000
0000
0000
0000
0000
0000
1010
0000
0000
0000
0000
0000
0000
1001
0000
0000
0000
0000
0000
0101
0000
0000
0000
0000
0000
0000
0000
1001
0000
0000
0000
0000
0000
0000
0000
0000
1100
0000
0000
0000
0000
0000
0001
0000
0000
,
0000
0000
0100
0000
0000
1100
0000
0000
0010
0000
0000
0000
0100
0000
0000
0001
0000
0000
1010
0000
0000
0100
0000
0000
,
0010
0000
0000
0000
0000
0000
0100
0000
0000
0000
0000
0000
1001
0000
0000
0000
0000
0000
0010
0000
0000
0000
0000
0000
0001
0000
0000
0000
0000
0000
0000
0000
0010
0000
0000
0000
0000
0000
0000
0101
0000
0000
0000
0000
0000
0000
0000
0000
,
1000
0001
1000
0110
0001
0020
0000
1130
,
0000
0000
0000
0000
0000
0000
1000
0000
0000
0000
0000
0000
0001
0000
0000
0000
0000
0000
1000
0000
0000
0000
0000
0000
0001
0000
0000
0000
0000
0000
0000
0000
0000
0100
0000
0000
0000
0000
0000
0000
1100
0000
0000
0000
0000
0000
0000
0000
,
0101
1000
0001
0010
0101
1000
0010
0100
,
0000
1010
0000
0100
0000
0010
0000
0001
0000
1100
0000
0001
0000
0100
0000
0000
,
0000
0000
0101
0000
0100
0000
0001
0000
0010
0000
1000
0100
0010
0000
0010
0100
,
1000
0000
0001
0010
1000
0000
0100
0010
0001
0000
0001
1000
0001
0000
0010
0000
,
1100
0000
0000
0000
0000
0000
0101
0000
0000
0000
0000
0000
1001
0000
0000
0000
0000
0000
0000
0000
0000
0000
0000
0000
0001
0000
0000
0000
0000
0000
0000
0000
0100
0000
0000
0000
0000
0000
0000
1001
0000
0000
0000
0000
0000
0000
0010
0000
,
0000
0100
0001
1010
0100
0010
0100
1100
,
0010
0000
0000
0001
0000
0000
0010
0000
0000
0101
0000
0000
0000
1000
0000
0000
0001
0000
0000
1000
0000
0000
0010
0000
,
0000
0000
0001
0000
0000
0000
0000
0000
0020
0000
0000
0000
0000
0000
0000
0000
0000
0000
0000
0000
0131
0000
0000
0000
0000
0000
0000
0000
0000
0000
0000
0000
0000
1000
0000
0000
0000
0000
0000
0001
0000
0000
0000
0000
0000
1000
0000
0000
,
0000
0000
0000
0001
0000
0000
0000
0000
0000
0000
0100
0000
0000
0000
0000
0000
0000
0000
1100
0000
0000
0000
0000
0000
0101
0000
0000
0000
0000
0000
1000
0000
0000
0000
0000
0000
0001
0000
0000
0000
0000
0000
0010
0000
0000
0000
0000
0000
,
0101
1000
0010
0100
0110
1000
0100
0010
,
0101
0000
1000
0000
0001
0000
0100
0000
1010
0000
0000
0101
0000
0100
0000
0001
,
0000
0010
0000
1000
0100
0010
0000
0010
0100
1000
0000
0001
0010
1000
0000
0100
,
0010
0001
0000
0001
1000
0001
0000
0011
0000
1100
0000
0000
0000
1001
0000
0001
,
0000
0110
0000
1000
0000
0020
0000
0000
0030
1001
0000
0100
0000
0001
0000
1000
,
0000
0000
0000
0010
0000
0000
0000
0000
0000
0101
0000
0000
0000
0000
0000
0000
1100
0000
0000
0000
0000
0000
0000
0000
0000
0000
0000
0000
0101
0000
0000
0000
0000
0000
0000
0010
0000
0000
0000
0000
0000
0000
0101
0000
0000
0000
0000
0000
,
0000
0000
0000
0000
0000
0000
1000
0000
0000
0000
0000
0000
0000
0000
0000
0000
0000
0000
0000
0000
0000
0000
0000
0000
0000
0000
0000
0000
0000
0000
0000
0000
0001
0000
0000
0000
0000
0000
0000
0000
0000
0000
0000
0000
0000
0000
0000
0000
0000
0000
0000
0000
0000
0000
0000
0000
1000
0000
0000
0000
0000
0000
0000
0000
0000
0000
0000
0000
0000
0000
0000
0000
0000
0000
0000
0000
0000
0000
0000
0000
0020
0000
0000
0000
0000
0000
0000
0000
0000
0000
0000
0000
0000
0000
0000
0000
0000
0000
0000
0000
0000
0000
0000
0000
0000
0000
0000
0000
0000
0000
0000
0000
0000
0000
0000
0000
0000
0000
0000
0000
1130
0000
0000
0000
0000
0000
0000
0000
0000
0000
0000
0000
0000
0000
0000
0000
0000
0000
0000
0000
0000
0000
0000
0000
0000
0000
0000
0000
0000
0000
0000
0000
0000
0000
0000
0000
0000
0000
0000
0000
0000
0000
0000
0000
0000
0000
0000
0000
0000
0000
0000
0000
0000
0000
0000
0000
0000
0000
0000
0000
0100
0000
0000
0000
0000
0000
0000
0000
0000
0000
0000
0000
,
0000
0000
0000
0001
0000
0000
0000
0000
0000
1000
0000
0000
0000
0000
0000
0001
0000
0000
0000
0000
0000
1000
0000
0000
0000
0000
0000
1001
0000
0000
0000
0000
0000
1100
0000
0000
0000
0000
0000
0000
1000
0000
0000
0000
0000
0000
0001
0000
,
0000
0000
0000
0000
0100
0000
0000
0000
0000
0000
1010
0000
0000
0000
0000
0000
0001
0000
0000
0000
0000
0000
0010
0000
0000
0000
0000
0000
0000
0000
0000
0000
0000
1100
0000
0000
0000
0000
0000
0010
0000
0000
0000
0000
0000
0100
0000
0000
,
0000
0000
0000
0010
0000
0000
0000
0000
0000
1001
0000
0000
0000
0000
0000
0100
0000
0000
0000
0000
0000
1010
0000
0000
0000
0000
0000
0000
0000
0000
0000
0000
0000
0000
1001
0000
0000
0000
0000
0000
0000
0000
0000
0000
0000
0000
0000
0000
,
0010
0000
1000
0000
0011
0000
0100
0000
0001
0000
0010
0000
1100
0000
0000
0010
,
0100
1000
0000
0001
0010
1000
0000
0100
0010
0000
0101
0000
1001
0000
0000
0001
,
0000
1100
0010
0001
0010
1000
0010
0001
0100
1000
0200
0000
0000
0000
0300
2000
,
0000
0002
3103
0010
0100
1000
0010
0001
0010
0100
1000
0020
0000
0000
0000
0230
,
0000
0302
1003
0010
0100
0010
0001
0010
0100
1000
0001
0010
1000
0000
0100
0000
,
0011
0000
0100
0001
1010
0001
0100
0000
0002
0000
2003
0000
3101
0010
0100
1000
,
0010
0001
0100
0010
0001
0100
1000
0100
0020
0000
0000
0000
2030
0000
3002
0000
,
0103
1000
0010
0001
0010
0001
0100
0010
0002
0000
0000
0000
0203
0000
0320
0000
,
0130
1000
0100
0010
0001
0010
0100
1000
0001
0010
0000
1000
0000
0001
0000
0000
,
0101
0000
0000
0000
1010
0000
0000
2000
0000
3101
0010
0001
0100
0000
0001
0000
,
0100
0010
1100
0000
0001
0000
1010
0000
0001
0010
1100
0000
1000
0000
0101
0000
,
1000
0100
0011
0100
0010
0001
1010
0000
0100
0000
0100
0000
0001
0000
1010
0000
,
0001
1100
0010
0101
1001
0000
1100
0000
,
1001
0000
0000
0002
0000
1103
0010
0100
0001
0100
0000
0010
0001
1100
0000
1000
,
0000
0110
0000
0001
1000
0101
0000
0100
0000
0011
0000
1000
0010
0101
0010
1000
,
0010
0101
0000
0100
0000
0011
0000
1000
0000
0011
1000
0100
0000
1001
0000
0000
,
0000
0101
0000
1100
0000
0000
1001
0000
0000
0000
1001
0000
0000
0002
0000
1103
,
0000
0010
0000
0110
0000
0100
0010
0101
1000
0010
0000
1100
0010
0001
0010
1000
,
0010
0001
0010
1000
0100
1001
0000
0101
0000
0101
0000
1001
0000
0011
0000
0010
,
1000
0010
0001
0010
1100
0010
0001
0010
0101
0010
1000
0100
0011
0000
0101
0000
,
0000
0000
1001
0000
0000
0000
0011
0000
0000
0002
0000
1103
0000
0010
0000
0110
,
0000
0100
0010
0101
1000
0010
0000
1100
0010
0001
0010
1000
0010
0001
0010
1100
,
0000
1001
0000
0101
0000
0101
0000
1001
0010
0100
1000
0100
0010
0001
0010
1100
,
0010
1000
0010
0101
0000
0010
0000
1100
0000
0101
0000
0000
1001
0000
0000
0000
,
1001
0000
0020
0131
0100
1000
0100
0100
,
0001
0202
0303
1001
0202
1303
1000
0010
,
1000
2020
3030
1001
0202
0313
0010
0100
,
0010
0010
0001
1010
0101
1001
0101
1010
,
1001
2200
3300
0202
0313
0010
1000
0010
,
0010
0202
0303
1001
2020
3130
0100
1000
,
0100
0000
0000
0202
0000
0303
1001
0000
2020
0000
3031
0000
0001
0000
0010
0000
,
0001
0001
0100
0101
1100
1001
0101
1001
,
0101
2002
3003
0001
0100
1100
0010
0100
,
0001
1010
0100
0010
0100
1001
0010
0001
,
0010
0101
1000
0001
1000
0110
0001
0020
,
0000
1130
0000
1000
0001
1000
0001
1000
,
0000
1100
0000
0000
0101
0000
0000
0000
0001
0000
0000
1000
0000
0000
0001
0000
0000
1010
0000
0000
0001
0000
0000
1000
,
0000
0000
0000
0000
0010
0000
0000
0000
0000
0000
0101
0000
0000
0000
0000
0000
1000
0000
0000
0000
0000
0000
0010
0000
0000
0000
0000
0000
0100
0000
0000
0000
0000
0011
0000
0000
0000
0000
0000
0010
0000
0000
0000
0000
0000
0001
0000
0000
,
0000
0100
0000
1010
0000
0000
0000
0101
0000
1000
0000
0011
0000
0100
0000
0001
,
0000
1000
0000
0110
0000
0010
0000
1000
0100
0001
0010
1000
0001
0010
0000
1100
,
0000
0101
0000
1001
0000
0000
0000
1000
0000
0001
0000
1100
0000
0010
0000
0001
,
0000
0100
0000
1010
0000
0010
0000
0100
0000
0001
0000
1100
0000
0010
0000
0100
,
0000
0010
0000
0101
0000
1000
0000
0010
0000
0001
0000
1010
0000
0001
0000
0020
,
0000
0000
0000
0131
0000
0000
0000
1000
0000
0001
0000
1000
0000
0001
0000
0100
,
0000
1100
0000
0101
0000
1000
0000
0001
0000
0010
0000
0101
0000
1000
0000
0010
,
0000
0100
0000
0110
0000
1000
0000
0100
0000
0010
0000
0101
0000
1000
0000
0001
,
0000
0100
0000
1010
0000
0000
0000
0101
0000
0100
0000
1001
0000
0010
0000
1000
,
0100
0010
0000
0010
0100
1000
0000
0101
0000
1001
0000
0000
0000
0011
0000
0000
,
0000
1001
0000
0000
1100
0000
0101
0000
1010
0000
0000
0000
0000
0000
0000
0000
;
