#TITLE:Pleasant Farmer;
#SUBTITLE:;
#ARTIST:Jea;
#TITLETRANSLIT:;
#SUBTITLETRANSLIT:;
#ARTISTTRANSLIT:;
#CREDIT:;
#BANNER:pleasant farmer-bn.png;
#BACKGROUND:pleasant farmer-bg.png;
#LYRICSPATH:;
#CDTITLE:!Necros.png;
#MUSIC:Pleasant Farmer.mp3;
#OFFSET:-0.080;
#SAMPLESTART:100.000;
#SAMPLELENGTH:12.000;
#SELECTABLE:YES;
#BPMS:0.000=205.320;
#STOPS:;
#BGCHANGES:;
// cache tags:
#FIRSTBEAT:0.000;
#LASTBEAT:513.000;
#SONGFILENAME:Songs/hard shit/Pleasant Farmer (Necros)/pleasant farmer.sm;
#HASMUSIC:1;
#HASBANNER:1;
#MUSICLENGTH:149.968;
// end cache tags

//---------------dance-single - ----------------
#NOTES:
     dance-single:
     :
     Challenge:
     14:
     1.000,1.000,1.000,0.113,1.000,1363.000,666.000,17.000,49.000,88.000:





1001
0000
0100
0000
1001
0000
0010
0100
1001
0100
0010
0000
1001
0000
0100
0000
,
1010
0000
0100
0000
1010
0000
1000
0100
1010
0100
1000
0000
1010
0000
0101
0000
,
0011
0000
1000
0000
0011
0000
0100
1000
0011
1000
0100
0000
0011
0000
1000
0000
,
0101
0000
0010
0000
0101
0000
0001
0010
0101
0000
1000
0110
1M01
0000
1M01
0000
,
11M1
0000
0010
0000
1100
0000
0001
0010
1100
0001
0010
0000
1100
0000
0001
0000
,
0110
0000
1000
0000
0110
0000
0001
1000
0110
0001
1000
0000
0110
0000
0101
0000
,
0011
0000
0100
0000
0011
0000
1000
0100
0011
1000
0100
0000
0011
0000
1000
0000
,
0101
0000
0010
0000
0101
0000
1000
0010
0101
0000
0001
1010
01M1
0000
011M
0000
,
1M11
0000
0100
0000
1001
0000
0010
0100
1001
0100
0010
0000
1001
0000
0100
0000
,
1010
0000
0100
0000
1010
0000
1000
0100
1010
0100
1000
0000
1010
0000
0101
0000
,
0011
0000
1000
0000
0011
0000
0100
1000
0011
1000
0100
0000
0011
0000
1000
0000
,
0101
0000
0010
0000
0101
0000
0001
0010
0101
0000
1000
0110
1M01
0000
1M01
0000
,
11M1
0000
0010
0000
1100
0000
0001
0010
1100
0001
0010
0000
1100
0000
0001
0000
,
0110
0000
1000
0000
0110
0000
0001
1000
0110
0001
1000
0000
0110
0000
0101
0000
,
0011
0000
0100
0000
0011
0000
1000
0100
0011
1000
0100
0000
0011
0000
1000
0000
,
0101
0000
MMMM
0000
1100
0000
0001
0100
0010
0001
0010
0000
0101
0000
0210
0000
,
1310
0100
1010
0100
1010
0100
1010
0100
,
1010
0100
1010
0100
1010
0100
1010
0110
,
0011
1000
0011
1000
0101
0010
0101
0010
,
0101
0000
0010
0000
0101
0000
0010
0000
0101
0000
0010
0101
1010
0000
0110
0110
,
1011
0100
1010
0100
1010
0100
1010
0100
,
1010
0100
1010
0100
1010
0100
1010
0110
,
0011
1000
0011
1000
0101
0010
0101
0010
,
0101
0000
0010
0000
0101
0000
0010
0000
0101
0000
1000
0101
1010
0000
0110
0110
,
1011
0100
1010
0100
1010
0100
1010
0100
,
1010
0100
1010
0100
1010
0100
1010
0110
,
0011
1000
0011
1000
0101
0010
0101
0010
,
0101
0000
0010
0000
0101
0000
0010
0000
0101
0000
0010
1100
0011
0000
0110
0110
,
1011
0100
1010
0100
1010
0100
1010
0100
,
1010
0100
1010
0100
1010
0100
1010
0100
,
0011
0100
1000
0010
0100
0011
1000
0010
0100
0011
1000
0010
0100
0011
1000
0010
,
1101
0000
MM0M
0000
1100
0000
M0MM
0000
1100
0000
00MM
1100
0011
0000
0101
0000
,
1010
0000
0010
0M00
0010
0000
1010
0000
0101
0000
0100
00M0
0100
0000
1100
0000
,
1010
0101
0011
0110
1100
0010
1001
0011
,
0101
0110
1010
0101
0110
1010
1100
0110
,
1100
0000
0100
0000
1010
0000
0010
0000
1001
0000
0100
0011
1100
0000
0101
0000
,
1011
0000
0010
000M
0010
0000
1010
0000
0101
0000
0100
M000
0100
0000
1100
0000
,
1010
0101
0011
0110
1100
0010
1001
0011
,
0101
0110
1010
0101
0110
1010
1100
0110
,
1100
0000
0100
0000
1010
0000
0010
0000
1001
0000
1000
0101
1010
0000
0011
0000
,
1011
0000
0010
M000
0010
0000
1010
0000
0101
0000
0100
000M
0100
0000
1100
0000
,
1010
0101
0011
0110
1100
0010
1001
0011
,
0101
0110
1010
0101
0110
1010
1100
0110
,
1100
0000
0100
0000
1010
0000
0010
0000
1001
0000
1000
0110
1001
0000
1010
0000
,
1011
0000
0010
0M00
0010
0000
1010
0000
0101
0000
0100
00M0
0100
0000
1100
0000
,
1010
0101
0011
0110
1100
0010
1001
0011
,
0101
0110
1010
0101
0110
1010
1100
0110
,
1100
0100
1010
0M10
1001
MMMM
0200
1310
,
1101
0001
0001
0110
1010
0010
0010
1100
,
1101
0111
1011
1110
0011
0100
1001
1010
,
0101
0001
0001
0110
1010
0010
0010
1100
,
1101
0000
0111
0000
1011
0000
1110
0000
0011
0000
0010
1100
0011
0000
1010
0000
,
1101
0001
0001
0110
1010
0010
0010
1100
,
1101
0111
1011
1110
0011
0100
1001
1010
,
0101
0001
0001
0110
1010
0010
0010
1100
,
1101
0000
0111
0000
1011
0000
1110
0000
0011
0000
1000
0110
1001
0000
0101
0000
,
1101
0001
0001
0110
1010
0010
0010
1100
,
1101
0111
1011
1110
0011
0100
1001
1010
,
0101
0001
0001
0110
1010
0010
0010
1100
,
1101
0000
0111
0000
1011
0000
1110
0000
0011
0000
0010
0101
1010
0000
0011
0000
,
1101
0001
0001
0110
1010
0010
0010
1100
,
1101
0111
1011
1110
0011
0010
1100
1000
,
0012
0003
0100
0000
0010
0000
0100
0000
1000
0000
0100
0000
0010
0000
0100
0000
0012
0003
0100
0000
0010
0000
0100
0000
1000
0000
0100
0000
0010
0000
0100
0000
,
0012
0003
1000
0000
0100
0000
1000
0000
0012
0003
0100
0000
1000
0000
0100
0000
0012
1003
0100
0010
0001
1000
0100
0010
0001
1000
0100
0010
1001
0000
0000
0000
,
1010
0010
0010
1010
0101
0100
0100
1100
,
1010
0101
0011
0110
1100
0010
1001
0011
,
0101
0110
1010
0101
0110
1010
1100
0110
,
1100
0000
0100
0000
1010
0000
0010
0000
1001
0000
0100
1010
0101
0000
1100
0000
,
1011
0010
0010
1010
0101
0100
0100
1100
,
1010
0101
0011
0110
1100
0010
1001
0011
,
0101
0110
1010
0101
0110
1010
1100
0110
,
1100
0000
0100
0000
1010
0000
0010
0000
1001
0000
0100
1001
0110
0000
1100
0000
,
1011
0010
0010
1010
0101
0100
0100
1100
,
1010
0101
0011
0110
1100
0010
1001
0011
,
0101
0110
1010
0101
0110
1010
1100
0110
,
1100
0000
0100
0000
1010
0000
0010
0000
1001
0000
1000
0011
1100
0000
1001
0000
,
1011
0010
0010
1010
0101
0100
0100
1100
,
1010
0101
0011
0110
1100
0010
1001
0011
,
0101
0110
1010
0101
0110
1010
1100
0110
,
1100
0000
0100
0000
1010
0000
0010
0000
1001
0M00
00M0
000M
M200
0000
1310
0000
,
1101
0001
0001
0110
1010
0010
0010
1100
,
1101
0111
1011
1110
0011
0100
1001
1010
,
0101
0001
0001
0110
1010
0010
0010
1100
,
1101
0000
0111
0000
1011
0000
1110
0000
0011
0000
0001
1100
0011
0000
1010
0000
,
1101
0001
0001
0110
1010
0010
0010
1100
,
1101
0111
1011
1110
0011
0100
1001
1010
,
0101
0001
0001
0110
1010
0010
0010
1100
,
1101
0000
0111
0000
1011
0000
1110
0000
0011
0000
0001
0110
1001
0000
0101
0000
,
1101
0001
0001
0110
1010
0010
0010
1100
,
1101
0111
1011
1110
0011
0100
1001
1010
,
0101
0001
0001
0110
1010
0010
0010
1100
,
1101
0000
0111
0000
1011
0000
1110
0000
0011
0000
0100
1010
0101
0000
0110
0000
,
1101
0001
0001
0110
1010
0010
0010
1100
,
1101
0111
1011
1110
0011
0010
0101
0010
,
2100
3000
0010
0000
0100
0000
0010
0000
0001
0000
0010
0000
0100
0000
0010
0000
2100
3000
0010
0000
0100
0000
0010
0000
0001
0000
0010
0000
0100
0000
0010
0000
,
2100
3000
0001
0000
0010
0000
0001
0000
2100
3000
0010
0000
0001
0000
0010
0000
2100
3001
0010
0100
1000
0001
0010
0100
1000
0001
0010
0100
1001
0000
0000
0000
,
1010
0100
0010
0001
1010
0001
0100
0010
0101
0010
0001
0010
0101
0010
0100
0010
,
1100
0001
0010
0100
0011
0100
0001
0010
1100
0010
1000
0100
0011
0100
1010
0001
,
0110
1000
0100
0010
0101
0010
0001
0100
1010
0001
0100
0010
1001
0010
0100
1000
,
0110
1000
0100
0010
1100
0010
0001
0010
0101
0010
1000
0101
1010
0100
1010
0100
,
1011
0100
0010
0001
1010
0100
0010
0100
1010
0100
1000
0010
0101
0010
1000
0010
,
0101
0010
0001
0010
1100
0010
0100
1000
0011
1000
0100
0010
1100
0010
1001
0100
,
0011
1000
0001
1000
0110
0001
1000
0010
0101
0010
0001
0100
1010
0001
0100
0010
,
1001
0100
0010
0001
0110
0001
0100
0010
1100
0010
0100
1001
0110
1000
0110
0001
,
1110
0001
0010
0100
1010
0100
1000
0010
0101
0010
1000
0010
0101
0010
0001
0010
,
1100
0001
0010
0100
0011
1000
0100
0010
1100
0010
1000
0100
0011
0100
0011
1000
,
0110
0001
1000
0010
0101
0010
1000
0100
1010
0100
0001
0010
1001
0100
1000
0001
,
0110
0001
1000
0010
1100
0010
0100
1000
0101
1000
0010
1100
0011
0100
0011
1000
,
0111
1000
0001
0100
1010
0100
1000
0010
0101
0010
1000
0010
0101
0010
0001
0010
,
1100
0010
1000
0100
0011
1000
0100
0010
1100
0001
1000
0100
0011
1000
0101
1000
,
0110
0001
1000
0010
0101
0010
0100
0001
1010
0100
0001
0010
1001
0100
1000
0010
,
1100
0010
0100
1000
0101
0010
0100
0010
1001
0M00
00M0
0M00
0020
0000
0000
0000
,
1131
0010
0001
0100
1010
0001
1000
0010
0101
0010
0001
0010
0101
0010
0100
0010
,
1100
0010
0100
1000
0011
0100
0001
0010
1100
0001
1000
0100
0011
0100
1010
0001
,
0110
1000
0100
0010
0101
0010
1000
0001
1010
0100
0010
0100
1001
0010
1000
0001
,
0110
1000
0001
0010
1100
0010
0001
0010
0101
0010
0100
0011
1100
0010
1001
0100
,
1011
0100
0010
0001
1010
0100
1000
0010
0101
0010
1000
0010
0101
0010
0001
0010
,
1100
0010
0001
0100
0011
0100
0001
0010
1100
0010
1000
0100
0011
1000
0110
1000
,
0110
0001
1000
0010
0101
0010
0001
0100
1010
0100
0010
0100
1001
0100
1000
0001
,
0110
0001
0100
0010
1100
0010
0001
0100
1010
0001
0100
1010
0101
0010
1100
0001
,
1110
0001
0010
0100
1010
0100
1000
0010
0101
0010
0100
1000
0101
1000
0100
0010
,
1100
0010
0100
1000
0011
0100
0010
0001
1100
0010
0100
1000
0011
0100
1010
0001
,
0110
1000
0100
0010
0101
0010
0100
0001
1010
0001
0100
0010
1001
0100
0010
0001
,
0110
0001
0010
0100
1010
0100
0001
0010
1100
0010
0100
0011
1100
0010
0101
1000
,
0111
1000
0001
0100
1010
0100
1000
0010
0101
0010
1000
0010
0101
0010
0001
0010
,
1100
0010
1000
0100
0011
0100
0010
0001
1100
0010
1000
0100
0011
0100
1010
0001
,
0110
0001
1000
0010
0101
0010
0100
0010
1001
0100
0010
0100
0011
0100
0010
0001
,
1010
0000
010M
0000
1010
0000
010M
0000
1010
0000
010M
0000
1010
0000
0001
0010
,
2202
0000
0000
0000
0000
0000
0000
0000
3303
MM0M
0000
0000
00M0
0000
0000
0000
0M00
0000
0000
0000
0000
0000
0000
0000
0000
0000
0000
0000
0000
0000
0000
0000
0000
0000
0000
0000
0000
0000
0000
0000
0000
0000
0000
0000
0000
0000
0000
0000
0000
0000
0000
0000
0000
0000
0000
0000
0000
0000
0000
0000
0000
0000
0000
0000
;

//---------------dance-single - ----------------
#NOTES:
     dance-single:
     :
     Hard:
     13:
     1.000,1.000,1.000,1.000,1.000,1339.000,430.000,358.000,51.000,214.000:

0110
0000
0100
0000
1010
0000
0001
0010
0100
1000
0100
0000
1010
0000
0100
0000
,
1001
0000
0010
0000
0101
0000
1000
0100
0010
0001
0010
0000
1010
0000
1010
0000
,
1010
0000
0100
0000
0011
0000
1000
0001
0100
0010
1000
0000
0011
0000
1000
0000
,
0101
0000
0010
0000
1100
0000
0001
0000
1010
0000
1000
0100
0011
0000
0011
0000
,
2002
3003
0100
0000
1001
0000
1000
0001
0100
0010
1000
0000
0101
0000
0010
0000
,
0101
0000
0010
0000
1100
0000
0001
0010
0100
0010
1000
0000
0101
0000
0101
0000
,
0101
0000
0010
0000
1100
0000
0001
1000
0001
0100
0010
0000
1100
0000
0010
0000
,
1100
0000
0010
0000
1001
0000
0010
0000
1010
0000
1000
0001
0110
0000
0110
0000
,
0202
0303
0010
0000
1100
0000
0001
0100
0010
1000
0100
0000
1010
0000
0001
0000
,
1010
0000
0001
0000
0110
0000
0001
0010
0100
1000
0010
0000
1100
0000
1100
0000
,
1100
0000
0010
0000
1001
0000
0100
0010
0001
1000
0100
0000
0011
0000
0100
0000
,
0011
0000
0100
0000
1010
0000
0100
0000
0011
0000
1000
0010
1100
0000
1100
0000
,
0022
0033
0100
0000
1001
0000
0100
0010
1000
0001
0010
0000
1100
0000
0001
0000
,
1100
0000
0001
0000
0110
0000
1000
0100
0010
0001
0010
0000
1001
0000
1001
0000
,
1001
0000
0100
0000
0011
0000
0100
0010
1000
0001
0010
0000
1001
0000
0010
0000
,
1001
0000
0000
0000
0100
0000
0100
1000
0001
0010
0100
0000
0010
0000
1020
0000
,
1130
0010
1100
0010
1100
0010
1100
0010
,
1100
0010
1100
0010
1100
0010
1100
0011
,
1010
0100
1010
0100
0011
1000
0011
1000
,
0011
0000
1000
0000
0011
0000
1000
0000
1010
0000
0100
0010
1001
0000
0101
0000
,
1100
0010
1100
0010
1100
0010
1100
0010
,
1100
0010
1100
0010
1100
0010
1100
0011
,
1010
0100
1010
0100
0011
1000
0011
1000
,
0011
0000
1000
0000
0011
0000
1000
0000
1010
0000
1000
0100
0011
0000
0110
0000
,
1100
0010
1100
0010
1100
0010
1100
0010
,
1100
0010
1100
0010
1100
0010
1100
0011
,
1010
0100
1010
0100
0011
0100
0011
0100
,
0011
0000
0100
0000
0011
0000
0100
0000
0011
0000
0100
0010
0101
0000
1010
0000
,
1100
0010
1100
0010
1100
0010
1100
0010
,
1100
0010
1100
0010
1100
0010
1100
0010
,
1100
0010
0100
0001
1000
0010
0100
0001
1000
0010
0100
0001
1000
0010
0100
0001
,
2020
3030
0000
0000
2020
3030
0000
0000
2020
3030
0000
0100
0011
0000
2010
0000
,
3201
0301
1010
0020
1032
1003
0110
2000
,
3201
0320
0132
0023
0231
1300
0110
0201
,
0321
2030
3102
0023
1230
0302
2013
3200
,
0321
0000
0100
0000
2031
0000
0010
0000
3201
0000
0001
1000
0311
0000
2010
0000
,
3201
0310
0101
0020
1032
0103
0011
2000
,
3201
0320
0132
0023
0231
0310
1100
0201
,
0321
2030
3012
0023
0231
0302
2103
3200
,
1320
0000
0001
0000
2130
0000
0001
0000
3210
0000
0010
0001
1310
0000
2010
0000
,
3201
1300
0101
0020
1032
0013
0101
2000
,
3201
0320
0132
0023
0231
0310
1001
0210
,
1320
2030
3102
0023
0231
0302
2013
3200
,
1320
0000
0100
0000
2031
0000
0001
0000
3210
0000
0001
0010
1301
0000
2010
0000
,
3201
0301
1010
0020
1032
1003
0110
2000
,
3201
0320
0132
0023
0231
1300
0110
0201
,
0321
2030
3102
0023
1230
0302
2013
3200
,
0321
0000
0000
0000
0000
0000
0000
0000
0100
0000
0000
0000
0000
0000
0000
0000
2031
0000
0000
0000
0000
0000
0000
0000
0010
0000
0000
0000
0000
0000
0000
0000
3201
0000
0000
0000
0000
0000
0000
0000
0300
0000
0000
0000
0000
MM0M
MM0M
MM0M
MM2M
MM0M
MM0M
MM0M
0030
0000
0000
0000
2000
0000
0000
0000
0000
0000
0000
0000
,
3202
0003
0000
0000
0310
0000
0000
0000
1001
0000
0000
0000
0002
0000
0000
0000
0123
0000
0000
0000
1030
0000
0000
0000
0101
0000
0000
0000
2000
0000
0000
0000
,
3201
1302
0123
1230
0321
0100
2031
0010
,
3201
1300
0110
0002
1023
0031
0110
2000
,
3201
0000
0312
0000
1023
0000
1230
0000
0321
0000
0031
0100
0011
0000
2100
0000
,
3202
0003
0000
0000
0310
0000
0000
0000
1001
0000
0000
0000
0002
0000
0000
0000
0123
0000
0000
0000
1030
0000
0000
0000
0101
0000
0000
0000
2000
0000
0000
0000
,
3201
1302
0123
1230
0321
0100
2031
0010
,
3201
1300
0110
0002
1023
0031
0110
2000
,
3201
0000
0312
0000
1023
0000
1230
0000
0321
0000
0031
0100
0011
0000
2100
0000
,
3022
0003
0000
0000
0130
0000
0000
0000
1010
0000
0000
0000
0002
0000
0000
0000
1023
0000
0000
0000
0031
0000
0000
0000
0110
0000
0000
0000
2000
0000
0000
0000
,
3210
0312
1023
0231
1320
0001
2130
0001
,
3210
0301
1100
0002
0123
0031
0101
2000
,
3210
0000
0312
0000
1023
0000
0231
0000
1320
0000
0031
0010
1100
0000
2100
0000
,
3220
0030
0000
0000
0301
0000
0000
0000
0101
0000
0000
0000
0002
0000
0000
0000
1023
0000
0000
0000
1030
0000
0000
0000
0011
0000
0000
0000
2000
0000
0000
0000
,
3210
1302
0123
1230
0321
0100
2031
0010
,
3202
0003
1000
0000
0310
0000
1000
0000
0010
0000
1000
0000
0010
0000
1000
0000
0002
0003
1000
0000
0010
0000
1000
0000
0010
0000
1000
0000
0010
0000
1000
0000
,
0002
0003
1000
0000
0010
0000
1000
0000
0002
0003
1000
0000
0010
0000
1000
0000
0202
0003
0000
0000
0010
0000
0000
0000
0002
0003
0000
0000
2010
0000
0000
0000
,
3322
0003
0000
0000
0130
0000
0000
0000
1010
0000
0000
0000
0002
0000
0000
0000
1203
0000
0000
0000
0301
0000
0000
0000
0110
0000
0000
0000
2000
0000
0000
0000
,
3201
0320
0132
0023
0231
1300
0110
0201
,
0321
2030
3102
0023
1230
0302
2013
3200
,
0321
0000
0100
0000
2031
0000
0010
0000
3201
0000
0001
1000
0311
0000
2010
0000
,
3201
0310
0101
0020
1032
0103
0011
2000
,
3201
0320
0132
0023
0231
0310
1100
0201
,
0321
2030
3012
0023
0231
0302
2103
3200
,
1320
0000
0001
0000
2130
0000
0001
0000
3210
0000
0010
0001
1310
0000
2010
0000
,
3201
1300
0101
0020
1032
0013
0101
2000
,
3201
0320
0132
0023
0231
0310
1001
0210
,
1320
2030
3102
0023
0231
0302
2013
3200
,
1320
0000
0100
0000
2031
0000
0001
0000
3210
0000
0001
0010
1301
0000
2010
0000
,
3201
0301
1010
0020
1032
1003
0110
2000
,
3201
0320
0132
0023
0231
1300
0110
0201
,
0321
2030
3102
0023
1230
0302
2013
3200
,
0321
0000
0000
0000
0000
0000
0000
0000
0000
0000
0000
0000
0000
0000
0000
0000
0000
0000
0000
0000
0000
0000
0000
0000
0100
0000
0000
0000
0000
0000
0000
0000
0000
0000
0000
0000
0000
0000
0000
0000
0000
0000
0000
0000
0000
0000
0000
0000
2031
0000
0000
0000
0000
0000
0000
0000
0000
0000
0000
0000
0000
0000
0000
0000
0000
0000
0000
0000
0000
0000
0000
0000
0010
0000
0000
0000
0000
0000
0000
0000
0000
0000
0000
0000
0000
0000
0000
0000
0000
0000
0000
0000
0000
0000
0000
0000
3011
0000
0000
M000
0000
0000
0000
0000
0M00
0000
0000
0000
00M0
0000
0000
0000
000M
0000
M000
0000
0000
0M00
0000
0000
00M0
0000
0000
000M
0000
0000
M000
0000
0000
0M00
0000
0000
00M0
0000
0000
000M
0000
0000
0000
0000
0000
0000
0000
0000
0200
0000
0000
0000
0000
0000
0000
0000
0000
0000
0000
0000
0300
0000
0000
0000
0000
0000
0000
0000
0000
0000
0000
0000
2000
0000
0000
0000
0000
0000
0000
0000
0000
0000
0000
0000
0000
0000
0000
0000
0000
0000
0000
0000
0000
0000
0000
0000
,
3202
0003
0000
0000
0310
0000
0000
0000
1001
0000
0000
0000
0002
0000
0000
0000
0123
0000
0000
0000
1030
0000
0000
0000
0101
0000
0000
0000
2000
0000
0000
0000
,
3201
1302
0123
1230
0321
0100
2031
0010
,
3201
1300
0110
0002
1023
0031
0110
2000
,
3201
0000
0312
0000
1023
0000
1230
0000
0321
0000
0031
0100
0011
0000
2100
0000
,
3202
0003
0000
0000
0310
0000
0000
0000
1001
0000
0000
0000
0002
0000
0000
0000
0123
0000
0000
0000
1030
0000
0000
0000
0101
0000
0000
0000
2000
0000
0000
0000
,
3201
1302
0123
1230
0321
0100
2031
0010
,
3201
1300
0110
0002
1023
0031
0110
2000
,
3201
0000
0312
0000
1023
0000
1230
0000
0321
0000
0031
0100
0011
0000
2100
0000
,
3022
0003
0000
0000
0130
0000
0000
0000
1010
0000
0000
0000
0002
0000
0000
0000
1023
0000
0000
0000
0031
0000
0000
0000
0110
0000
0000
0000
2000
0000
0000
0000
,
3210
0312
1023
0231
1320
0001
2130
0001
,
3210
0301
1100
0002
0123
0031
0101
2000
,
3210
0000
0312
0000
1023
0000
0231
0000
1320
0000
0031
0010
1100
0000
2100
0000
,
3220
0030
0000
0000
0301
0000
0000
0000
0101
0000
0000
0000
0002
0000
0000
0000
1023
0000
0000
0000
1030
0000
0000
0000
0011
0000
0000
0000
2000
0000
0000
0000
,
3210
1302
0123
1230
0321
0100
2031
0010
,
3202
0003
1000
0000
0310
0000
1000
0000
0010
0000
1000
0000
0010
0000
1000
0000
0002
0003
1000
0000
0010
0000
1000
0000
0010
0000
1000
0000
0010
0000
1000
0000
,
0002
0003
1000
0000
0010
0000
1000
0000
0002
0003
1000
0000
0010
0000
1000
0000
0022
0003
0000
0000
0000
0000
0100
0000
1001
0000
0000
0000
1100
0000
0030
0000
,
0011
1000
0100
0010
0001
0010
0100
0010
0001
1000
0100
0010
0001
0010
0100
0010
,
0001
0010
0100
1000
0010
0100
0010
1000
0100
0010
0001
0100
0010
0100
0001
0010
,
0100
1000
0001
1000
0100
0010
0100
1000
0001
0010
0100
0010
0001
0100
0010
0100
,
1000
0001
0010
0100
0010
1000
0100
1000
0001
0010
0100
1000
0001
0010
0001
1000
,
0101
1000
0001
0010
0100
1000
0010
0100
0010
1000
0100
0010
0001
0100
0001
0010
,
0100
0010
1000
0100
0010
0100
0001
1000
0001
0010
0100
0001
1000
0100
0010
0001
,
1000
0010
0100
1000
0001
1000
0010
0100
0001
1000
0100
0010
0001
0100
0010
1000
,
0001
0010
0100
1000
0100
0010
0001
0100
0010
1000
0100
0010
0001
0100
0010
0100
,
1001
0010
0100
0010
0001
0010
0100
0010
0001
1000
0100
0010
0001
0010
0100
0010
,
0001
0010
0100
1000
0010
0100
0010
1000
0100
0010
0001
0100
0010
0100
0001
0010
,
0100
1000
0001
1000
0100
0010
0100
1000
0001
0010
0100
0010
0001
0100
0010
0100
,
1000
0001
0010
0100
0010
1000
0100
1000
0001
0010
0100
1000
0001
0010
0001
1000
,
0101
1000
0001
0010
0100
1000
0010
0100
0010
1000
0100
0010
0001
0100
0001
0010
,
0100
0010
1000
0100
0010
0100
0001
1000
0001
0010
0100
0001
1000
0100
0010
0001
,
1000
0010
0100
1000
0001
1000
0010
0100
0001
1000
0100
0010
0001
0100
0010
1000
,
0001
0010
0100
1000
0100
0010
0001
0100
0010
0000
0000
0000
0020
0030
0000
0000
,
1000
0100
0010
0001
0010
0100
0010
0001
1000
0100
0010
0001
0010
0100
0010
0001
,
0010
0100
1000
0010
0100
0010
1000
0100
0010
0001
0100
0010
0100
0001
0010
0100
,
1000
0001
1000
0100
0010
0100
1000
0001
0010
0100
0010
0001
0100
0010
0100
1000
,
0001
0010
0100
0010
1000
0100
1000
0001
0010
0100
1000
0001
0010
0001
1000
0101
,
1000
0001
0010
0100
1000
0010
0100
0010
1000
0100
0010
0001
0100
0001
0010
0100
,
0010
1000
0100
0010
0100
0001
1000
0001
0010
0100
0001
1000
0100
0010
0001
1000
,
0010
0100
1000
0001
1000
0010
0100
0001
1000
0100
0010
0001
0100
0010
1000
0001
,
0010
0100
1000
0100
0010
0001
0100
0010
1000
0100
0010
0001
0100
0001
0010
0100
,
1001
0010
0100
0010
0001
0010
0100
0010
0001
1000
0100
0010
0001
0010
0100
0010
,
0001
0010
0100
1000
0010
0100
0010
1000
0100
0010
0001
0100
0010
0100
0001
0010
,
0100
1000
0001
1000
0100
0010
0100
1000
0001
0010
0100
0010
0001
0100
0010
0100
,
1000
0001
0010
0100
0010
1000
0100
1000
0001
0010
0100
1000
0001
0010
0001
1000
,
0101
1000
0001
0010
0100
1000
0010
0100
0010
1000
0100
0010
0001
0100
0001
0010
,
0100
0010
1000
0100
0010
0100
0001
1000
0001
0010
0100
0001
1000
0100
0010
0001
,
1000
0010
0100
1000
0001
1000
0010
0100
0001
1000
0100
0010
0001
0100
0010
1000
,
0101
0000
0100
M000
0101
0000
0100
M000
0101
0000
0100
M000
0101
0000
0100
1000
,
0102
MMM3
MMMM
MMMM
MMMM
0000
0000
0000
0000
0000
0000
0000
0000
0000
0000
0000
;
