#TITLE:Hollow;
#SUBTITLE:Death Unlimited (2004);
#ARTIST:Norther;
#TITLETRANSLIT:;
#SUBTITLETRANSLIT:;
#ARTISTTRANSLIT:;
#CREDIT:SulferDragon;
#BANNER:Hollow-banner.png;
#BACKGROUND:Hollow-bg.png;
#LYRICSPATH:;
#CDTITLE:!Sulfer.png;
#MUSIC:10 - hollow.mp3;
#OFFSET:0.501;
#SAMPLESTART:79.180;
#SAMPLELENGTH:11.340;
#SELECTABLE:YES;
#BPMS:0.000=170.000;
#STOPS:;
#BGCHANGES:;
// cache tags:
#FIRSTBEAT:2.000;
#LASTBEAT:627.000;
#SONGFILENAME:Songs/Astronomic Metal Collection 2/(SulferDragon) Hollow/10 - hollow.sm;
#HASMUSIC:1;
#HASBANNER:1;
#MUSICLENGTH:226.272;
// end cache tags

//---------------dance-single - ----------------
#NOTES:
     dance-single:
     :
     Hard:
     11:
     1.000,1.000,0.933,1.000,0.946,1423.000,211.000,244.000,0.000,21.000:
0000
0000
0000
0000
0110
0010
1100
0001
,
1010
0001
1100
0001
0110
0001
1010
0001
,
0110
1000
0202
0303
0110
0100
1010
0001
,
0110
0001
1010
0100
1001
0010
0101
0010
,
1001
0000
0100
0000
0022
0000
0133
0001
0110
0000
0010
0000
1100
0000
0001
0000
,
1010
0001
1100
0001
0110
0001
1010
0001
,
0110
0000
1000
0010
0202
0000
0303
0000
0001
0000
0010
0000
1100
0000
0010
0000
,
1000
0000
0110
1000
0101
0000
0010
0000
0100
0000
0010
0000
1001
0000
0100
0000
,
0001
0000
1000
0000
0011
0000
0100
0001
0110
0000
0010
0000
1100
0000
0001
0000
,
1010
0001
1100
0001
0110
0001
1010
0001
,
0110
1000
0202
0303
0110
0100
1010
0001
,
0110
0001
1010
0100
1001
0010
0101
0010
,
1001
0000
0100
0000
0022
0000
0133
0001
0110
0000
0010
0000
1100
0000
0001
0000
,
1010
0001
1100
0001
0110
0001
1010
0001
,
0110
0000
1000
0010
0202
0000
0303
0000
0001
0000
0010
0000
1100
0000
0010
0000
,
1000
0000
0110
1000
0101
0000
0010
0000
0100
0000
1010
0100
1001
0000
0100
0000
,
0001
0000
0000
0000
0010
0000
0000
0000
0001
0000
0000
0000
1100
0000
0000
0000
0010
0000
0000
0000
0100
0000
0000
0000
2001
0000
0000
3000
0000
0000
0100
0000
0000
0010
0000
0000
0100
0000
0000
0010
0000
0000
2000
0000
0000
3000
0000
0000
,
0100
0010
0100
0010
2000
3000
0100
0010
0200
0300
0001
1000
0001
1000
0020
0030
,
1000
0100
1000
0100
0002
0003
0000
0000
2000
3000
0100
0010
0100
0010
2000
3000
,
0100
0010
0100
0010
2000
3000
0000
0000
0001
1000
0100
1000
0001
1000
0010
1000
,
0001
1000
0100
1000
0020
0030
0000
0000
2000
3000
0100
0010
0100
0010
2000
3000
,
0100
0010
0100
0010
2000
3000
0100
0010
0200
0300
0001
1000
0001
1000
0020
0030
,
1000
0100
1000
0100
0002
0003
0000
0000
2000
3000
0100
0010
0100
0010
2000
3000
,
0100
0010
0100
0010
2000
3000
0000
0000
0100
0010
0100
0010
1000
0100
0001
1000
,
0100
0010
0100
0010
1000
0100
0001
0100
2000
3000
0010
0001
0010
0001
2000
3000
,
0010
0001
0010
0001
2000
3000
0100
0001
0200
0300
1000
0001
1000
0001
0020
0030
,
1000
0100
1000
0100
0002
0003
0000
0000
2000
3000
0010
0001
0010
0001
2000
3000
,
0010
0001
0010
0001
2000
3000
0000
0000
0001
1000
0100
1000
0001
1000
0010
1000
,
0001
1000
0100
1000
0020
0030
0000
0000
2000
3000
0010
0001
0010
0001
2000
3000
,
0010
0001
0010
0001
2000
3000
0100
0001
0200
0300
1000
0001
1000
0001
0020
0030
,
1000
0100
1000
0100
0002
0003
0000
0000
2000
3000
0010
0001
0010
0001
2000
3000
,
0010
0001
0010
0001
2000
3000
0000
0000
0002
0000
0000
0000
0000
0000
0000
0000
,
0023
0000
0230
0000
2310
0001
0000
0001
,
0000
0001
0000
0001
3200
0001
0000
0001
,
0320
1000
0000
1000
0032
1000
0000
1000
,
0000
1000
0000
1000
0000
1000
0000
1000
,
0000
1000
0000
1000
0123
1000
0000
1000
,
0000
1000
0000
1000
0230
0001
0000
0001
,
0000
0001
0000
0001
0320
0001
0000
0001
,
0000
0000
0001
0000
0000
0000
1031
0000
0010
0000
0010
0000
0010
0010
0000
1000
,
0010
0000
0010
0100
0010
0100
0010
0100
0012
0000
0103
0000
0000
0000
0011
0000
,
0100
0011
1000
0101
0012
1103
0001
1010
,
0200
0001
2300
0001
3200
0001
0000
0312
,
2003
0001
3200
0001
0320
1000
0000
1000
,
0032
0000
1000
0000
0000
0000
1000
0003
0012
0000
0103
0000
0000
0000
0011
0000
,
0100
0011
1000
0101
0012
1103
0001
1010
,
0200
0001
2300
0001
3200
0001
0000
0312
,
2003
0000
0001
0000
3200
0000
0001
0000
0310
0000
0010
0000
0010
0010
0000
1000
,
0010
0000
0010
0100
0010
0100
0010
0100
0012
0000
0103
0000
0000
0000
0011
0000
,
0100
0011
1000
0101
0012
1103
0001
1010
,
0200
0001
2300
0001
3200
0001
0000
0312
,
2003
0001
3200
0001
0320
1000
0000
1000
,
0032
0000
1000
0000
0000
0000
1000
0003
0012
0000
0103
0000
0000
0000
0011
0000
,
0100
0011
1000
0101
0012
1103
0001
1010
,
0200
0001
2300
0001
3200
0001
0000
0312
,
2003
0001
3200
0001
0320
0001
0000
0001
,
0130
0000
0001
1000
0001
1000
0001
1000
0201
0300
0010
0001
0010
0001
0200
0300
,
0010
0001
0010
0001
0200
0300
1000
0001
2000
3000
0100
0001
0100
0001
0020
0030
,
1000
0010
1000
0010
0002
0003
0000
0000
0200
0300
0010
0001
0010
0001
0200
0300
,
0010
0001
0010
0001
0200
0300
0000
0000
0010
0100
0001
0100
1000
0100
0010
0100
,
0001
0100
0010
0100
2000
3000
0000
0000
0200
0300
0010
0001
0010
0001
0200
0300
,
0010
0001
0010
0001
0200
0300
1000
0001
2000
3000
0100
0001
0100
0001
0020
0030
,
1000
0010
1000
0010
0002
0003
0000
0000
0200
0300
0010
0001
0010
0001
0200
0300
,
0010
0001
0010
0001
0200
0300
0000
0000
1000
0001
1000
0001
0010
1000
0100
0010
,
1000
0001
1000
0001
0010
1000
0001
1000
0200
0300
0001
1000
0001
1000
0200
0300
,
0001
1000
0001
1000
0200
0300
1000
0010
2000
3000
0001
0100
0001
0100
0020
0030
,
1000
0100
1000
0100
0002
0003
0000
0000
0200
0300
0001
1000
0001
1000
0200
0300
,
0001
1000
0001
1000
0200
0300
0000
0000
0010
0100
0001
0100
1000
0100
0010
0100
,
0001
0100
0010
0100
2000
3000
0000
0000
0200
0300
0001
1000
0001
1000
0200
0300
,
0001
1000
0001
1000
0200
0300
1000
0010
2000
3000
0001
0100
0001
0100
0020
0030
,
1000
0100
1000
0100
0002
0003
0000
0000
0200
0300
0001
1000
0001
1000
0200
0300
,
0001
1000
0001
1000
0200
0300
0000
0000
0020
0000
0000
0000
0032
0000
0000
0000
,
0013
0000
0001
0010
0100
0001
0010
0100
2001
0000
0000
0000
0000
0000
0000
0000
,
0000
0000
3000
0002
0000
0000
0000
0000
0000
0000
0000
0000
0000
0000
0000
0000
0000
0000
0000
0000
0000
0000
0000
0000
0000
0000
0000
0000
0000
0000
0000
0000
0000
0000
0000
0000
0000
0000
0000
0000
0000
0000
0000
0000
0000
0003
0000
0000
,
1100
1000
0110
1000
0101
1000
0011
1000
,
1100
0000
1010
0000
1000
0000
1002
0003
1010
0000
0102
0003
1001
0000
1000
0000
,
0110
1000
0101
1000
0011
1000
1100
1010
,
1000
0000
1002
0003
1010
0000
0102
0003
1001
0000
1000
0000
0110
0000
1000
0000
,
0101
1000
0011
1000
1100
1010
1000
1001
,
1010
0000
0101
0000
1001
0000
1000
0000
0020
0030
0000
0000
0201
0300
0000
0000
,
0120
0030
2000
3000
0011
0000
0000
0000
0200
0300
0000
0000
2001
3000
0000
0000
,
0210
0300
0021
0030
1100
0000
1000
0000
0110
0000
1000
0000
0101
0000
1000
0000
,
0011
0000
1000
0000
1100
0000
1010
0000
1000
0000
1002
0003
1010
0000
0102
0003
,
1001
1000
0110
1000
0101
1000
0011
1000
,
1100
0000
1010
0000
1000
0000
1002
0003
1010
0000
0102
0003
1001
0000
1000
0000
,
0110
1000
0101
1000
0011
1000
1100
1010
,
1000
0000
1001
0000
1010
0000
0101
0000
1001
0000
1000
0000
0020
0030
0000
0000
,
0201
0300
0000
0000
0120
0030
2000
3000
0011
0000
0000
0000
0200
0300
0000
0000
,
2001
3000
0000
0000
0210
0300
0021
0030
1100
0000
0000
0000
0100
0000
0000
0000
,
0110
0000
0001
0000
1000
0100
0000
0010
,
0100
0001
0011
1000
0101
0000
0010
0000
,
0101
0000
1000
0100
0000
0010
0000
0001
,
0011
1000
0101
0000
0110
0000
0001
0000
,
1010
0100
0000
0010
0000
0001
1000
0000
,
0020
0030
0000
0000
0201
0300
0000
0000
0020
0030
2000
3000
0011
0000
0000
0000
,
0200
0300
0000
0000
2001
3000
0000
0000
0210
0300
0021
0030
1100
0000
0000
0000
,
0100
0000
0110
0000
0001
0000
1000
0100
,
0000
0010
0100
0001
0011
1000
0101
0000
,
0010
0000
0101
0000
1000
0100
0000
0010
,
0000
0001
0011
1000
0101
0000
0110
0000
,
0001
0000
1010
0100
0000
0010
0000
0001
,
1000
0000
0000
0000
0020
0030
0000
0000
0201
0300
0000
0000
0020
0030
2000
3000
,
0011
0000
0000
0000
0200
0300
0000
0000
2001
3000
0000
0000
0210
0300
0021
0030
,
1000
0100
0010
0001
0100
1000
0010
0100
0001
0100
0010
0100
2000
0000
3000
0000
,
1000
0100
0010
0001
0100
1000
0010
0100
0001
0100
1000
0100
0020
0000
0030
0000
,
1000
0100
0001
1000
0100
0001
1000
0100
0010
1000
0001
0010
0100
0001
0100
0010
,
1000
0100
0010
0001
1000
0001
0100
0010
1000
0100
0010
1000
0010
0001
0100
1000
,
0010
1000
0100
0001
0100
1000
0010
1000
0100
0001
0010
1000
0100
0010
0100
1000
,
0002
0000
0000
0000
0000
0003
0002
0003
0002
0000
0000
0000
0003
0000
0010
0100
,
1000
0100
0010
0001
0100
0010
1000
0100
1000
0010
0100
0010
0002
0000
0003
0000
,
1000
0100
0010
0001
0010
0100
0010
0001
0100
0001
0010
0100
2000
0000
3000
0000
,
1000
0100
0010
1000
0001
0010
0100
0001
1000
0100
0010
1000
0001
0100
0010
0001
,
1000
0100
0010
1000
0001
0010
0100
1000
0100
0001
1000
0100
0010
0001
1000
0010
0100
0010
0002
0000
0000
0003
0000
0000
,
0200
0000
0000
0000
0000
0000
0000
0000
0000
0000
0000
0000
0000
0000
0000
0000
0000
0000
0000
0000
0000
0000
0000
0000
0000
0000
0000
0000
0000
0000
0000
0000
0000
0000
0000
0000
0000
0000
0000
0000
0000
0000
0000
0000
0000
0000
0000
0000
0000
0000
0000
0000
0000
0000
0000
0000
0000
0000
0000
0000
0000
0000
0000
0000
0000
0000
0000
0000
0000
0000
0000
0000
0000
0000
0000
0000
0000
0000
0000
0000
0000
0000
0000
0000
0000
0000
0000
0000
0000
0000
0000
0000
0000
0000
0000
0000
0000
0000
0000
0000
0000
0000
0000
0000
0000
0000
0000
0000
0000
0000
0000
0000
0000
0000
0000
0000
0000
0000
0000
0000
0000
0000
0000
0000
0000
0000
0000
0000
0000
0000
0000
0000
0000
0000
0000
0000
0000
0000
0000
0000
0000
0000
0000
0000
0000
0000
0000
0000
0000
0000
0000
0000
0000
0000
0000
0000
0000
0000
0000
0000
0000
0000
0000
0000
0000
0000
0000
0000
0000
0000
0000
0000
0000
0000
0000
0000
0000
0000
0000
0000
0000
0000
0000
0000
0000
0000
0000
0000
0300
1000
0000
0000
,
0100
0000
0000
0002
0000
0000
0000
0000
0000
0000
0000
0000
0000
0000
0000
0000
0000
0000
0000
0000
0000
0000
0000
0000
0000
0000
0000
0000
0003
0000
0000
0000
1000
0000
0000
0000
0000
0000
0000
0000
0001
0000
0000
0000
0000
0000
0000
0000
0200
0000
0000
0000
0000
0000
0000
0000
0000
0000
0000
0000
0000
0000
0000
0000
0000
0000
0000
0000
0000
0300
0000
0000
2000
0000
0000
0000
0000
0000
0000
0000
0000
0000
0000
0000
0000
0000
0000
0000
0000
0000
0000
0000
0000
0000
0000
0000
0000
0000
0000
0000
0000
0000
0000
0000
0000
0000
0000
0000
0000
0000
0000
0000
0000
0000
0000
0000
0000
0000
0000
0000
0000
0000
0000
0000
0000
0000
0000
0000
0000
0000
0000
0000
0000
0000
0000
0000
0000
0000
0000
0000
0000
0000
0000
0000
3002
0000
0000
0000
0000
0000
0000
0000
0000
0000
0000
0000
0000
0000
0000
0000
0000
0000
0000
0000
0000
0000
0000
0000
0000
0000
0000
0000
0000
0000
0000
0000
0000
0000
0000
0000
0000
0000
0000
0000
0000
0000
0000
0000
0000
0000
0000
0000
,
0203
0000
0000
0000
0000
0000
0000
0000
0000
0000
0000
0000
0000
0000
0000
0000
0000
0000
0000
0000
0000
0000
0000
0000
0000
0000
0000
0000
0000
0000
0000
0000
0000
0000
0000
0000
0000
0000
0000
0000
0000
0000
0000
0000
0000
0000
0000
0000
0000
0000
0000
0300
0200
0000
0000
0000
0000
0000
0000
0300
0010
0000
0000
0000
,
0001
0000
0000
2000
0000
0000
0000
0000
0000
0000
0000
0000
0000
0000
0000
0000
0000
0000
0000
0000
0000
3000
1000
0000
0200
0000
0000
0000
0000
0000
0000
0000
0000
0320
0000
0000
0000
0000
0000
0000
0000
0000
0032
0000
0000
0000
0000
0000
,
0023
0000
0000
0000
,
0000
0000
0230
2300
0000
0000
3200
0000
,
0320
0000
0000
0000
0130
0010
2000
0000
0000
0000
0000
0000
0000
0000
0000
0000
,
3200
0000
0000
0302
0000
0000
0000
0000
,
0013
0001
0010
0100
1000
0100
0010
1000
0010
0100
0001
1000
0010
0001
0010
0100
,
1000
0100
0010
1000
0010
0100
0001
1000
0100
0010
0100
1000
0010
0001
0010
0100
,
0001
1000
0100
0001
1000
0100
0001
1000
0100
0001
0100
0010
0001
1000
0100
0010
,
1000
0100
0010
1000
0100
0010
1000
0100
0010
1000
0100
0010
1000
0001
0100
0001
,
0010
0100
0001
0010
0100
0001
0010
0100
0001
0010
1000
0100
0010
1000
0100
1000
,
0010
1000
0010
0100
1000
0010
0100
1000
0010
0100
1000
0010
0100
0010
0001
0100
,
0010
0000
0000
0000
0000
0000
0100
0000
0000
0000
0000
0000
1000
0000
0000
0000
0000
0000
0100
0000
0000
0000
0000
0000
0010
0000
0000
0000
0000
0000
0000
0000
0000
0000
0000
0000
0100
0000
0000
0000
0000
0000
0000
0000
0000
0000
0000
0000
0010
0000
0000
0000
0000
0000
0000
0000
0000
0000
0000
0000
0001
0000
0000
0000
0000
0000
0000
0000
0000
0000
0000
0000
0010
0000
0000
0000
0000
0000
0001
0000
0000
0000
0000
0000
0010
0000
0000
0000
0000
0000
0100
0000
0000
0000
0000
0000
1000
0000
0000
0000
0000
0000
0000
0000
0000
0000
0000
0000
0100
0000
0000
0000
0000
0000
0000
0000
0000
0000
0000
0000
0010
0000
0000
0000
0000
0000
0000
0000
0100
0000
0000
0000
0000
0000
0000
0001
0000
0000
0000
0000
0000
1000
0000
0000
0000
0000
0000
0000
0000
0000
0100
0000
0000
0000
0000
0000
0010
0000
0000
0000
0000
0000
0001
0000
0000
0000
0000
0000
0010
0000
0000
0000
0000
0000
0000
0000
0000
0000
0000
0000
0001
0000
0000
0000
0000
0000
0000
0000
0000
0000
0000
0000
,
0100
0000
0000
0000
0000
0000
0000
0000
0000
0000
0000
0000
0010
0000
0000
0000
0000
0000
0000
0000
0000
0000
0000
0000
0100
0000
0000
0000
0000
0000
0001
0000
0000
0000
0000
0000
0010
0000
0000
0000
0000
0000
0100
0000
0000
0000
0000
0000
1000
0000
0000
0000
0000
0000
0000
0000
0000
0000
0000
0000
0001
0000
0000
0000
0000
0000
0000
0000
0000
0000
0000
0000
0100
0000
0000
0000
0000
0000
0000
0000
0010
0000
0000
0000
0000
0000
0000
0000
0100
0000
0000
0000
0000
0000
0000
0000
1000
0000
0000
0000
0000
0000
0000
0000
0000
0000
0000
0000
0100
0000
0000
0000
0000
0000
0000
0000
0000
0010
0000
0000
0000
0000
0000
0000
0001
0000
0000
0000
0000
0000
0000
0000
0010
0000
0000
0000
0000
0000
0100
0000
0000
0000
0000
0000
1000
0000
0000
0000
0000
0000
0000
0000
0000
0000
0000
0000
0000
0000
0000
0000
0000
0000
0000
0000
0000
0000
0000
0000
0000
0000
0000
0000
0000
0000
0000
0000
0000
0000
0000
0000
0000
0000
0000
0000
0000
0000
0000
0000
0000
0000
0000
0000
,
2100
0010
0100
0010
,
3201
0001
1320
0100
,
1032
0100
1000
0100
,
1000
0100
1000
0100
,
1023
0100
1000
0100
,
0232
0003
0000
0000
0000
0000
0000
0000
0010
0000
0000
0000
0000
0000
0000
0000
0002
0003
0000
0000
0000
0000
0000
0000
0010
0000
0000
0000
0000
0000
0000
0000
,
0322
0003
0000
0000
0000
0000
0000
0000
0100
0000
0000
0000
0000
0000
0000
0000
1000
0000
0000
0000
0000
0000
0000
0000
0130
0000
0000
0000
1000
0000
0100
0000
,
0011
0000
0010
0000
0010
0010
0000
1000
0101
0000
0010
0100
0010
0100
0010
0100
,
0012
0003
0100
1000
0100
1000
0100
1000
0100
1000
0100
1000
0100
1000
0100
1000
,
0012
0003
1000
0001
1000
0001
1000
0001
0020
0030
0100
0001
0100
0001
0100
0001
,
2000
3000
0010
1000
0010
1000
0010
1000
0010
1000
0010
1000
0010
1000
0010
1000
,
0200
2300
3200
0320
,
0132
0003
0010
1000
0010
1000
0010
1000
0010
1000
0010
1000
0010
1000
0010
1000
,
0102
0003
1000
0100
1000
0100
1000
0100
0020
0030
0001
0010
0001
0010
0001
0010
,
2000
3000
0001
1000
0001
1000
0001
1000
0001
1000
0001
1000
0001
1000
0001
1000
,
0200
0300
0001
0100
0001
0100
0001
0100
0001
0100
0001
0100
0001
0100
0001
0100
,
0012
0003
0100
1000
0100
1000
0100
1000
0100
1000
0100
1000
0100
1000
0100
1000
,
0012
0003
0100
0001
0100
0001
0100
0001
0020
0030
0100
0010
0100
0010
0100
0010
,
2000
3000
0001
1000
0001
1000
0001
1000
0001
1000
0001
1000
0001
1000
0001
1000
,
0200
2300
3200
0320
,
0132
0003
1000
0010
1000
0010
1000
0010
1000
0010
1000
0010
1000
0010
1000
0010
,
0102
0003
1000
0001
1000
0001
1000
0001
0020
0030
0100
0001
0100
0001
0100
0001
,
2000
3000
0010
0001
0010
0001
0010
0001
0010
0001
0010
0001
0010
0001
0010
0001
,
2000
3000
0100
0010
0100
0010
0100
0010
0100
0010
0001
1000
0001
1000
0001
1000
,
0202
0000
0000
0000
,
0000
0000
0000
0300
,
0000
0000
0000
0000
,
0000
0000
0000
0003
;
