#TITLE:DJ Santa;
#SUBTITLE:;
#ARTIST:Crispy;
#TITLETRANSLIT:;
#SUBTITLETRANSLIT:;
#ARTISTTRANSLIT:;
#CREDIT:Jen - BerroldMix;
#BANNER:djsanta.png;
#BACKGROUND:djsanta-bg.png;
#LYRICSPATH:djsanta.lrc;
#CDTITLE:berrold-small-snow.png;
#MUSIC:djsanta.mp3;
#OFFSET:-1.120;
#SAMPLESTART:25.550;
#SAMPLELENGTH:12.000;
#SELECTABLE:YES;
#BPMS:0.000=137.000;
#STOPS:;
#BGCHANGES:;
// cache tags:
#FIRSTBEAT:0.000;
#LASTBEAT:270.000;
#SONGFILENAME:Songs/DDRExtreme.co.uk presents ChristmasMix/DJ Santa/djsanta.sm;
#HASMUSIC:1;
#HASBANNER:1;
#MUSICLENGTH:120.587;
// end cache tags

//---------------dance-single - BEGINNER----------------
#NOTES:
     dance-single:
     BEGINNER:
     Beginner:
     2:
     0.214,0.280,0.224,0.000,0.000,154.000,27.000,0.000,0.000,0.000:
0000
0000
0000
0000
,
0000
0000
0000
0000
,
0000
0000
0000
0000
,
0000
0000
0000
0000
,
1001
0000
0000
0000
,
0010
0000
0000
0000
,
1000
0000
0000
0000
,
0100
0000
0000
0000
,
1000
0000
0001
0000
,
1000
0000
0001
0000
,
0010
0000
0100
0000
,
0010
0000
0100
0000
,
1001
0000
1001
0000
,
1000
0001
1001
0000
,
1001
0000
1001
0000
,
0001
1000
1001
0000
,
0010
0010
0100
0100
,
1000
0001
1001
0000
,
1000
0000
1000
0010
,
0100
0000
1000
0000
,
0001
0000
0001
0010
,
0100
0000
1001
0000
,
0010
0000
0001
0000
,
0001
0000
1000
0000
,
1000
0000
0000
0000
,
1001
0000
0001
1000
,
0100
0000
1001
0000
,
1001
0000
1000
0000
,
0001
0000
1001
0000
,
1000
0001
1000
0000
,
0010
0000
0100
0000
,
0010
0000
0001
0000
,
1000
0000
0001
0000
,
1000
0010
1001
0000
,
1000
0000
0001
0000
,
1000
0000
0001
0000
,
1001
0000
0100
0000
,
0010
0100
1001
0000
,
0010
0010
0100
0100
,
1000
0001
1001
0000
,
1000
0000
1000
0010
,
0100
0000
1000
0000
,
0001
0000
0001
0010
,
0100
0000
1001
0000
,
0010
0000
0001
0000
,
0001
0000
1000
0000
,
1000
0000
0000
0000
,
1001
0000
0001
1000
,
0100
0000
1001
0000
,
1001
0000
1000
0000
,
0001
0000
1001
0000
,
1000
0001
1000
0000
,
0010
0000
0100
0000
,
0010
0000
0001
0000
,
1000
0000
0001
0000
,
1000
0010
1001
0000
,
1000
0000
0001
0000
,
1000
0000
0001
0000
,
1001
0000
0100
0000
,
0010
0100
1001
0000
,
1000
1000
0001
0001
,
0100
1000
0001
0100
,
1000
1000
1000
1000
,
0010
0010
0010
0010
,
0100
0100
0100
0100
,
0001
0001
0001
0001
,
1000
0000
0001
0000
,
1001
0000
0110
0000
;

//---------------dance-single - BASIC----------------
#NOTES:
     dance-single:
     BASIC:
     Easy:
     4:
     0.271,0.364,0.257,0.000,0.000,198.000,31.000,0.000,0.000,0.000:
0000
0000
0000
0000
,
0000
0000
0000
0000
,
1000
0000
0000
0000
,
0001
0000
0000
0000
,
1001
0000
0000
0000
,
0110
0000
0000
0000
,
1001
0000
0000
0000
,
0110
0000
0000
0000
,
1000
0000
0001
0000
,
1000
0000
0001
0000
,
0010
0000
0100
0000
,
0010
0000
0100
0000
,
1000
1000
0001
0001
,
1000
0001
1001
0000
,
1000
0100
0010
0001
,
0001
0010
0100
0000
1001
0000
0000
0000
,
1000
1000
0001
0001
,
1000
0000
0001
0000
1000
0001
1000
0000
,
1000
0000
1000
0010
,
0100
0000
1000
0000
,
0001
0000
0001
0010
,
0100
0000
1001
0100
,
0010
0000
0001
0000
,
0001
0000
0100
1000
,
0010
0001
0010
0100
,
1001
0000
0001
1000
,
0110
0000
1100
0000
,
0011
0000
0000
0000
1000
0010
1010
0000
,
1001
0000
0011
0000
,
1000
0001
1000
0000
,
0010
0000
0100
0000
,
0010
0000
0000
0000
0100
0010
0100
0000
,
1000
0000
0001
0000
,
1000
0010
1010
0000
,
1000
0000
0001
0000
,
1000
0000
0000
0000
0001
1000
0001
0000
,
1001
0000
0100
0000
,
0010
0100
0101
0000
,
1000
1000
0001
0001
,
1000
0000
0001
0000
1000
0001
1000
0000
,
0001
0000
0001
0100
,
0010
0000
0001
0000
,
1000
0000
1000
0100
,
0010
0000
1001
0010
,
0100
0000
1000
0000
,
1000
0000
0010
0001
,
0010
1000
0010
0100
,
1001
0000
1000
0100
,
1001
0000
0101
0000
,
1010
0000
0000
0000
0001
0010
0011
0000
,
1001
0000
1100
0000
,
1000
0001
1000
0000
,
0001
0000
0010
0000
,
0001
0000
0000
0000
0010
0001
0010
0000
,
0100
0000
1000
0000
,
0100
0001
0101
0000
,
0100
0000
1000
0000
,
0100
0000
0000
0000
1000
0100
1000
0000
,
1100
0000
0010
0000
,
0001
0010
1010
0000
,
1000
1000
0001
0001
,
0100
0010
1000
0000
0001
0010
0100
0000
,
1000
0100
0010
0001
,
0010
0001
0010
0000
0010
1000
0010
0000
,
0100
1000
0100
0000
0100
0001
0100
0000
,
1000
0001
0100
0000
0010
1000
0100
0000
,
1000
0001
0100
0010
,
1001
0110
1001
0000
;

//---------------dance-single - TRICK----------------
#NOTES:
     dance-single:
     TRICK:
     Medium:
     6:
     0.402,0.504,0.257,0.083,0.000,298.000,31.000,10.000,0.000,0.000:
0000
0000
0000
0000
,
0000
0000
0000
0000
,
2000
0000
3002
0000
,
2003
0010
3002
0100
,
1003
0000
1001
0000
,
0201
0300
1020
0030
,
1000
1000
0001
0001
,
0100
1000
0010
0001
,
1000
0000
0010
0000
0100
0001
1000
0000
,
0001
0000
0100
0000
0010
1000
0001
0000
,
1001
0000
1010
0000
,
1001
0000
0101
0000
,
1000
0010
0100
0000
0001
0100
0010
0000
,
1000
0100
0010
0000
1001
0000
1001
0000
,
1000
0010
0100
0000
0001
0100
0010
0000
,
1000
0100
0010
0000
1001
0000
0000
0000
,
1000
0000
0100
0000
1000
0001
1000
0100
,
0010
0001
1000
0001
1000
0000
0100
0000
,
1000
0000
1000
0010
,
0100
0000
0000
0000
1000
0100
0100
0000
,
0010
0001
0100
1000
,
0000
0010
0001
0000
0010
1000
0100
0000
,
1001
0000
0001
0000
,
1000
0000
0100
1000
,
0010
0001
0010
0100
,
0001
1000
0010
0100
0001
1000
1001
0000
,
2000
0000
0010
0000
0001
0000
0100
3000
,
0002
0000
0010
0000
1000
0000
0100
0003
,
1100
0000
0011
0000
,
0100
0001
0010
0000
,
0010
0010
1000
0100
0001
0001
0100
1000
,
0010
0000
0000
0000
0100
0010
0100
0000
,
1000
1000
0100
0010
0100
0100
0010
0001
,
1000
0010
0101
0000
,
1000
1000
0001
0001
0100
0100
0010
0010
,
1000
0000
0000
0000
0001
1000
0001
0000
,
1001
1000
0001
0001
0100
0100
0010
0010
,
1000
0100
1010
0000
,
1000
0000
1000
0000
0001
1000
0001
0100
,
0010
1000
0001
0010
1000
0001
1000
0000
,
0001
0000
0001
0100
,
0010
0000
0000
0000
0001
0010
0010
0000
,
0100
1000
0010
0001
,
0000
0100
1000
0000
0100
0001
0010
0000
,
0110
0000
1000
0000
,
0001
0000
0010
0001
,
0100
1000
0100
0010
,
1000
0001
0100
0010
1000
0001
1001
0000
,
0200
0000
1000
0000
0010
0000
0001
0300
,
0020
0000
0001
0000
0100
0000
1000
0030
,
0101
0000
1010
0000
,
0010
1000
0100
0000
,
0001
0001
0010
0100
1000
1000
0010
0100
,
0001
0000
0000
0000
1000
0100
0010
0000
,
1000
1000
0010
0100
0010
0010
0001
0100
,
0001
1000
1100
0000
,
0100
0100
0001
0001
0010
0010
1000
1000
,
0100
0000
0000
0000
1000
0001
1000
0000
,
1000
0100
1000
0100
0010
0001
0010
0001
,
0100
1000
0011
0000
,
0001
0010
1010
0000
,
1000
0100
0101
0000
,
1000
0100
0010
0001
0010
0100
1000
0100
,
1001
0110
1001
0000
,
1000
0100
0010
0001
0010
0100
1000
0100
,
0010
0001
0010
0100
1000
0100
0010
0001
,
1001
0000
1001
0000
,
1000
0001
0110
0000
;

//---------------dance-single - MANIAC----------------
#NOTES:
     dance-single:
     MANIAC:
     Hard:
     8:
     0.500,0.504,0.381,0.083,0.100,366.000,46.000,10.000,0.000,0.000:
1000
1000
0001
0001
,
1000
0001
1000
0001
,
2000
0000
0100
0000
0010
0000
0100
3000
,
0002
0000
0010
0000
0100
0000
0010
0003
,
1000
0000
1001
0000
,
0101
0100
1010
0010
,
1000
1000
0001
0001
,
0100
1000
0010
0001
,
1000
0100
0010
0000
0100
0001
1000
0000
,
0001
0010
0100
0000
0010
1000
0001
0000
,
1001
0000
1010
0000
,
1001
0000
0101
0000
,
1000
0010
0100
0001
0001
0100
0010
1000
,
1000
0100
0010
0001
0001
0100
0010
1000
,
1000
0010
0100
0001
0001
0100
0010
1000
,
1000
0100
0010
0000
1001
0000
0000
0000
,
1000
0000
0000
1000
1000
0000
0010
0000
0100
0000
0001
0000
0001
0000
0100
0000
,
0001
1000
0010
1000
0001
0000
0000
1000
1000
0000
0100
0000
1000
0000
0000
0000
,
1000
0000
1000
0010
,
0100
0000
0000
0001
1000
0100
0100
0000
,
0010
0100
0000
0000
,
0010
0000
0001
0000
0010
1000
0100
0000
,
1001
0011
0001
1100
,
1000
1001
0100
1000
,
0010
0100
0001
0000
0010
0001
0100
0000
,
0001
1000
0010
0100
0001
1000
1001
0000
,
2000
0000
0000
0000
0000
0000
0000
0000
0000
0000
0000
0000
0000
0000
0000
0000
0000
0000
0000
0000
0000
0000
0000
0000
0000
0000
0000
0010
0000
0000
0000
0000
0000
0000
0000
0000
0000
0000
0000
0000
0000
0000
0000
0000
0000
0000
0000
0000
3000
0000
0000
0000
0000
0000
0000
0000
0000
0000
0000
0000
0000
0000
0000
0000
0001
0000
0000
0000
0000
0000
0000
0000
0000
0000
0000
0000
0000
0000
0000
0000
0000
0000
0000
0000
0000
0000
0000
0000
0000
0000
0000
0000
0000
0000
0000
0000
0002
0000
0000
0000
0000
0000
0000
0000
0000
0000
0000
0000
0000
0000
0000
0000
0000
0000
0000
0000
0000
0000
0000
0000
0000
0000
0000
0000
0000
0000
0000
0000
0000
0100
0000
0000
0000
0000
0000
0000
0000
0000
0000
0000
0000
0000
0000
0000
0003
0000
0000
0000
0000
0000
0000
0000
0000
0000
0000
0000
0000
0000
0000
0000
1000
0000
0000
0000
0000
0000
0000
0000
0000
0000
0000
0000
0000
0000
0000
0000
0000
0000
0000
0000
0000
0000
0000
0000
0000
0000
0000
0000
0000
0000
0000
0000
,
0200
0000
0000
0000
0000
0000
0000
0000
0000
0000
0000
0000
0000
0000
0000
0000
0000
0000
0000
0000
0000
0000
0000
0000
0000
0000
0000
0000
0000
0000
0000
0000
0000
1000
0000
0000
0000
0000
0000
0000
0000
0000
0000
0000
0000
0000
0000
0000
0300
0000
0000
0000
0000
0000
0000
0000
0000
0000
0000
0000
0000
0000
0000
0000
0001
0000
0000
0000
0000
0000
0000
0000
0000
0000
0000
0000
0000
0000
0000
0000
0000
0000
0000
0000
0000
0000
0000
0000
0000
0000
0000
0000
0000
0000
0000
0000
0020
0000
0000
0000
0000
0000
0000
0000
0000
0000
0000
0000
0000
0000
0000
0000
0000
0000
0000
0000
0000
0000
0000
0000
0000
0000
0000
0000
0000
0000
0000
0000
0000
0000
0000
0000
0000
0000
0000
0100
0000
0000
0000
0000
0000
0000
0000
0000
0000
0000
0000
0000
0030
0000
0000
0000
0000
0000
0000
0000
0000
0000
0000
0000
1000
0000
0000
0000
0000
0000
0000
0000
0000
0000
0000
0000
0000
0000
0000
0000
0000
0000
0000
0000
0000
0000
0000
0000
0000
0000
0000
0000
0000
0000
0000
0000
,
1001
0000
0101
0000
1010
0000
0100
0100
,
0001
0000
0110
0000
,
1010
0010
1000
1000
0101
0100
0001
0001
,
0010
0100
0010
0000
0100
0010
0100
0000
,
1100
1000
0100
0010
0011
0001
0010
0100
,
1000
0010
0101
0000
,
1010
0010
1000
1000
0101
0100
0001
0001
,
0010
0100
0010
0000
0100
0010
0100
0000
,
0101
0100
0010
0100
1010
0010
0100
0010
,
1000
0100
1010
0000
,
0001
0000
0000
0001
0001
0000
0100
0000
0010
0000
1000
0000
1000
0000
0010
0000
,
1000
0001
0100
0001
1000
0000
0000
0001
0001
0000
1000
0000
0100
0000
0000
0000
,
0001
0000
0001
0100
,
1000
0000
0000
0010
0001
1000
1000
0000
,
0100
1000
0000
0000
,
0100
0000
0010
0000
0100
0001
1000
0000
,
1001
0110
0010
1001
,
0001
1001
1000
0001
,
0100
1000
0010
0000
0100
0010
1000
0000
,
0010
0001
0100
1000
0010
0001
1001
0000
,
2000
0000
0000
0000
0000
0000
0000
0000
0000
0000
0000
0000
0000
0000
0000
0000
0000
0000
0000
0000
0000
0000
0000
0000
0000
0000
0000
0010
0000
0000
0000
0000
0000
0000
0000
0000
0000
0000
0000
0000
0000
0000
0000
0000
0000
0000
0000
0000
3000
0000
0000
0000
0000
0000
0000
0000
0000
0000
0000
0000
0000
0000
0000
0000
0001
0000
0000
0000
0000
0000
0000
0000
0000
0000
0000
0000
0000
0000
0000
0000
0000
0000
0000
0000
0000
0000
0000
0000
0000
0000
0000
0000
0000
0000
0000
0000
0002
0000
0000
0000
0000
0000
0000
0000
0000
0000
0000
0000
0000
0000
0000
0000
0000
0000
0000
0000
0000
0000
0000
0000
0000
0000
0000
0000
0000
0000
0000
0000
0000
0100
0000
0000
0000
0000
0000
0000
0000
0000
0000
0000
0000
0000
0000
0000
0003
0000
0000
0000
0000
0000
0000
0000
0000
0000
0000
0000
0000
0000
0000
0000
1000
0000
0000
0000
0000
0000
0000
0000
0000
0000
0000
0000
0000
0000
0000
0000
0000
0000
0000
0000
0000
0000
0000
0000
0000
0000
0000
0000
0000
0000
0000
0000
,
0200
0000
0000
0000
0000
0000
0000
0000
0000
0000
0000
0000
0000
0000
0000
0000
0000
0000
0000
0000
0000
0000
0000
0000
0000
0000
0000
0000
0000
0000
0000
0000
0000
1000
0000
0000
0000
0000
0000
0000
0000
0000
0000
0000
0000
0000
0000
0000
0300
0000
0000
0000
0000
0000
0000
0000
0000
0000
0000
0000
0000
0000
0000
0000
0001
0000
0000
0000
0000
0000
0000
0000
0000
0000
0000
0000
0000
0000
0000
0000
0000
0000
0000
0000
0000
0000
0000
0000
0000
0000
0000
0000
0000
0000
0000
0000
0020
0000
0000
0000
0000
0000
0000
0000
0000
0000
0000
0000
0000
0000
0000
0000
0000
0000
0000
0000
0000
0000
0000
0000
0000
0000
0000
0000
0000
0000
0000
0000
0000
0000
0000
0000
0000
0000
0000
0100
0000
0000
0000
0000
0000
0000
0000
0000
0000
0000
0000
0000
0030
0000
0000
0000
0000
0000
0000
0000
0000
0000
0000
0000
1000
0000
0000
0000
0000
0000
0000
0000
0000
0000
0000
0000
0000
0000
0000
0000
0000
0000
0000
0000
0000
0000
0000
0000
0000
0000
0000
0000
0000
0000
0000
0000
,
1010
0000
0010
1000
,
0100
0000
1001
0000
,
1010
0010
1000
1000
0101
0100
0001
0001
,
0010
0100
0010
0000
0100
0010
0100
0000
,
0110
0100
0010
0001
1001
1000
0001
0010
,
0100
0001
1010
0000
,
0101
0001
0100
0100
1010
0010
1000
1000
,
0001
0010
0001
0000
0010
0001
0010
0000
,
1010
0010
0001
0010
0101
0001
0010
0001
,
0100
0110
0101
0000
,
1000
0010
0000
0100
1000
0010
0000
0000
,
1000
0010
0001
0100
1000
0010
0001
0100
,
1000
0010
0000
0100
1000
0010
0000
0100
,
1000
0010
0001
0100
1000
0010
0001
0100
,
1000
0100
0000
0001
0100
1000
0000
0001
,
0100
1000
0010
0001
0100
1000
0010
0001
,
0100
1000
0000
0001
0100
1000
0000
0001
,
0100
1000
1001
0000
;
