#TITLE:Are You Ready;
#SUBTITLE:;
#ARTIST:DJ Sharpnel;
#TITLETRANSLIT:;
#SUBTITLETRANSLIT:;
#ARTISTTRANSLIT:;
#CREDIT:;
#BANNER:are you ready bn.png;
#BACKGROUND:are you ready bg.png;
#LYRICSPATH:;
#CDTITLE:;
#MUSIC:Are You Ready.ogg;
#OFFSET:-0.413;
#SAMPLESTART:59.791;
#SAMPLELENGTH:20.209;
#SELECTABLE:YES;
#BPMS:0.000=190.000;
#STOPS:;
#BGCHANGES:;
// cache tags:
#FIRSTBEAT:32.000;
#LASTBEAT:1058.000;
#SONGFILENAME:Songs/SHARPNELSTREAMZ v2/Are You Ready/are_you_ready.sm;
#HASMUSIC:1;
#HASBANNER:1;
#MUSICLENGTH:335.203;
// end cache tags

//---------------dance-single - 17- (WasTYLR)----------------
#NOTES:
     dance-single:
     17- (WasTYLR):
     Challenge:
     17:
     1.000,1.000,0.236,0.018,1.000,3260.000,79.000,6.000,37.000,0.000:
0000
0000
0000
0000
,
0000
0000
0000
0000
,
0000
0000
0000
0000
,
0000
0000
0000
0000
,
0000
0000
0000
0000
,
0000
0000
0000
0000
,
0000
0000
0000
0000
,
0000
0000
0000
0000
,
0001
0100
1010
0001
0100
1010
0001
0100
,
0001
0000
1000
0000
1010
0000
1010
0000
1000
0001
1000
0100
1000
0000
0010
0000
,
1000
0100
0011
1000
0100
0011
1000
0100
,
1000
0000
0001
0000
0011
0000
0011
0000
0001
1000
0010
1000
0001
0000
0010
0000
,
0100
1000
0101
0001
1000
0101
0001
1000
,
0100
0000
1000
0000
0101
0000
0101
0000
0001
0010
0100
0010
0001
0000
1000
0000
,
0001
0100
0001
1000
0001
0100
0010
1000
0001
1000
0010
0100
0001
1000
0100
1000
,
0010
0100
0001
1000
0100
0010
0100
1000
0001
0100
0010
1000
0100
1000
0010
0100
,
0001
1000
0010
0100
0010
1000
0001
0100
0001
1000
0100
0000
1000
0001
1000
0000
,
0100
1000
0001
1000
0100
0010
0001
1000
0001
0100
0001
0000
0100
0010
0100
0000
,
0001
1000
0010
1000
0001
1000
0010
0100
0001
1000
0010
0000
1000
0001
1000
0000
,
0001
0100
0001
1000
0100
0010
0001
0010
0100
1000
0001
0000
0100
0010
0100
0000
,
0001
0100
0010
1000
0001
1000
0100
0010
0001
1000
0001
0000
0100
0010
0100
0000
,
0001
1000
0100
0010
0001
1000
0001
0100
0001
1000
0010
0000
0100
0010
0100
0000
,
0010
1000
0001
1000
0010
1000
0001
0010
0100
0010
0001
0000
1000
0001
1000
0000
,
0001
0010
0100
0010
0001
1000
0001
0100
0001
1000
0100
0000
0010
0100
0010
0000
,
0001
1000
0100
0010
0100
1000
0001
0010
0001
1000
0010
0000
1000
0001
1000
0000
,
0010
1000
0001
1000
0010
0100
0001
1000
0001
0010
0001
0000
0010
0100
0010
0000
,
0001
1000
0100
1000
0001
1000
0100
0010
0001
1000
0100
0000
1000
0001
1000
0000
,
0001
0010
0001
1000
0010
0100
0001
0100
0010
1000
0001
0000
0010
0100
0010
0000
,
0001
0010
0100
1000
0001
1000
0010
0100
0001
1000
0001
0000
0010
0100
0010
0000
,
0001
1000
0010
0100
0001
1000
0001
0010
0001
1000
0100
0000
0010
0100
0010
0000
,
0001
0010
0001
1000
0001
0010
0100
1000
0001
0010
0001
1000
0100
0010
0100
1000
,
0010
0100
0001
1000
0001
0010
0100
1000
0010
0100
0010
1000
0100
1000
0010
0100
,
0001
1000
0010
1000
0001
0100
0001
1000
0001
0010
0100
0000
0010
0001
1000
0000
,
0001
1000
0010
1000
0001
1000
0010
0100
0001
1000
0010
0000
1000
0001
1000
0000
,
0001
0100
0001
1000
0100
0010
0001
0010
0100
1000
0001
0000
0100
0010
0100
0000
,
0001
0100
0010
1000
0001
1000
0100
0010
0001
1000
0001
0000
0100
0010
0100
0000
,
0001
1000
0100
0010
0001
1000
0001
0100
0001
1000
0010
0000
0100
0010
0100
0000
,
0010
1000
0001
1000
0010
1000
0001
0010
0100
0010
0001
0000
1000
0001
1000
0000
,
0001
0010
0100
1000
0100
0010
0001
1000
0001
0100
0010
0000
1000
0001
1000
0000
,
0001
1000
0010
0100
0010
1000
0001
0100
0001
1000
0100
0000
1000
0001
1000
0000
,
0100
1000
0001
1000
0010
0100
0001
1000
0001
0010
0001
0000
0010
0100
0010
0000
,
0001
1000
0100
1000
0001
1000
0100
0010
0001
1000
0100
0000
1000
0001
1000
0000
,
0001
0010
0001
1000
0010
0100
0001
0100
0010
1000
0001
0000
0010
0100
0010
0000
,
0001
0010
0100
1000
0001
1000
0010
0100
0001
1000
0001
0000
0010
0100
0010
0000
,
0001
1000
0010
0100
0001
1000
0001
0010
0001
1000
0100
0000
0010
0100
0010
0000
,
0100
1000
0001
1000
0100
1000
0001
0100
0010
0100
0001
0000
1000
0001
1000
0000
,
0001
0100
0010
1000
0010
0100
0001
1000
0001
0010
0100
1000
0001
1000
0100
0010
,
0001
0100
0001
1000
0001
0010
0100
1000
0001
0010
0001
1000
0001
0100
0010
1000
,
0100
0010
0100
1000
0010
0100
0001
1000
0100
0000
0010
0000
0001
0000
0000
0000
,
1000
0100
1000
0001
0100
0001
1000
0100
0010
0100
1000
0010
1000
0100
0010
0001
,
0100
0001
1000
0100
1000
0001
0100
0001
0010
0100
1000
0010
0100
0001
0010
0001
,
1000
0010
1000
0001
0010
0001
1000
0010
0100
0010
1000
0100
1000
0010
0100
0001
,
0010
0001
1000
0010
1000
0001
0010
0001
0100
0010
1000
0100
0010
0001
0100
0001
,
1000
0100
1000
0001
0100
0001
1000
0100
0010
0100
1000
0010
1000
0100
0010
0001
,
0100
0001
1000
0100
1000
0001
0100
0001
0010
0100
1000
0010
0100
0001
0010
0001
,
1000
0010
1000
0001
0010
0001
1000
0010
0100
0010
1000
0100
1000
0010
0100
0001
,
0010
0001
1000
0010
1000
0001
0010
0001
0100
0010
1000
0100
0010
0001
0100
0010
,
1000
0100
1000
0001
0100
0001
1000
0100
0010
0100
1000
0010
1000
0100
0010
0001
,
0100
0001
1000
0100
1000
0001
0100
0001
0010
0100
1000
0010
0100
0001
0010
0001
,
1000
0010
1000
0001
0010
0001
1000
0010
0100
0010
1000
0100
1000
0010
0100
0001
,
0010
0001
1000
0010
1000
0001
0010
0001
0100
0010
1000
0100
0010
0001
0100
0001
,
1000
0100
1000
0001
0100
0001
1000
0100
0010
0100
1000
0010
1000
0100
0010
0001
,
0100
0001
1000
0100
1000
0001
0100
0001
0010
0100
1000
0010
0100
0001
0010
0001
,
1000
0010
1000
0001
0010
0001
1000
0010
0100
0010
1000
0100
1000
0010
0100
0001
,
0010
0001
1000
0010
1000
0001
0010
0001
0100
0010
1000
0100
0010
0001
0100
0010
,
1000
0100
1000
0001
0100
0001
1000
0100
0010
0100
1000
0010
1000
0100
0010
0001
,
0100
0001
1000
0100
1000
0001
0100
0001
0010
0100
1000
0010
0100
0001
0010
0001
,
1000
0010
1000
0001
0010
0001
1000
0010
0100
0010
1000
0100
1000
0010
0100
0001
,
0010
0001
1000
0010
1000
0001
0010
0001
0100
0010
1000
0100
0010
0001
0100
0001
,
1000
0100
1000
0001
0100
0001
1000
0100
0010
0100
1000
0010
1000
0100
0010
0001
,
0100
0001
1000
0100
1000
0001
0100
0001
0010
0100
1000
0010
0100
0001
0010
0001
,
1000
0010
1000
0001
0010
0001
1000
0010
0100
0010
1000
0100
1000
0010
0100
0001
,
0010
0001
1000
0010
1000
0001
0010
0001
0100
0010
1000
0100
0010
0001
0100
0010
,
1000
0100
1000
0001
0100
0001
1000
0100
0010
0100
1000
0010
1000
0100
0010
0001
,
0100
0001
1000
0100
1000
0001
0100
0001
0010
0100
1000
0010
0100
0001
0010
0001
,
1000
0010
1000
0001
0010
0001
1000
0010
0100
0010
1000
0100
1000
0010
0100
0001
,
0010
0001
1000
0010
1000
0001
0010
0001
0100
0010
1000
0100
0010
0001
0100
0001
,
1000
0100
1000
0001
0100
0001
1000
0100
0010
0100
1000
0010
1000
0100
0010
0001
,
0100
0001
1000
0100
1000
0001
0100
0001
0010
0100
1000
0010
0100
0001
0010
0001
,
1000
0010
1000
0001
0010
0001
1000
0010
0100
0010
1000
0100
1000
0010
0100
0001
,
1000
0001
0100
0010
1000
0001
0010
0001
0010
0100
1000
0001
0100
0010
1000
0100
,
0010
0001
1001
1000
0010
0101
0001
1000
,
0001
0000
1000
0000
1100
0000
1100
0000
0100
0010
0001
1000
0010
0000
0100
0000
,
0001
0010
1100
0001
0010
1100
0001
0010
,
0001
0000
1000
0000
1100
0000
1100
0000
1000
0001
0100
0010
1000
0000
0100
0000
,
0010
0001
1010
1000
0001
1010
1000
0001
,
0010
0000
0001
0000
1010
0000
1010
0000
1000
0100
0010
0001
1000
0000
0010
0000
,
1000
0100
0011
1000
0100
0011
1000
0100
,
1000
0000
0001
0000
0011
0000
0011
0000
0001
1000
0010
0100
0001
0000
0001
0100
,
0010
0000
0000
0000
1000
0000
0000
0000
0001
0000
0000
0000
0100
0000
0000
0010
,
1000
0000
0000
0000
0001
0000
0000
0000
0010
0000
0000
0000
0100
0000
0000
1000
,
0001
0000
0000
0000
1000
0000
0000
0000
0010
0000
0000
0000
0100
0000
0000
0001
,
1000
0000
0000
0000
0001
0000
0000
0000
0010
0000
0100
0000
1000
0001
0000
0001
,
1000
0000
0000
0000
0010
0000
0000
0000
0100
0000
0000
0000
0001
0000
0000
1000
,
0001
0000
0000
0000
0010
0000
0000
0000
0100
0000
0000
0000
1000
0000
0000
0001
,
1000
0001
1000
0100
0010
0100
1000
0001
0010
0001
1000
0001
1000
0010
0100
0001
,
1000
0001
0010
0001
1000
0100
0010
0001
1000
0010
0100
0001
1000
0010
0100
0001
,
0100
0000
0000
000M
0100
0000
0000
0000
1000
0000
0000
0000
0001
0000
0000
0000
0000
0000
0000
0000
0100
0000
0000
0000
0001
0000
0000
0000
0000
0000
0000
0000
0100
0000
0000
0000
0010
0000
0000
0000
0000
0000
0000
0000
0000
0000
0000
0000
,
0100
0000
0000
00M0
0100
0000
0000
0000
1000
0000
0000
0000
0001
0000
0000
0000
0000
0000
0000
0000
1000
0000
0000
0000
0010
0000
0000
0000
0000
0000
0000
0000
1000
0000
0000
0000
0001
0000
0000
0000
0000
0000
0001
0000
0000
0000
0000
0000
,
0100
0000
0000
000M
0100
0000
0000
0000
1000
0000
0000
0000
0001
0000
0000
0000
0000
0000
0000
0000
0100
0000
0000
0000
0001
0000
0000
0000
0000
0000
0000
0000
1000
0000
0000
0000
0001
0000
0000
0000
0000
0000
0000
0000
0000
0000
0000
0000
,
0100
0000
0000
000M
0100
0000
0000
0000
1000
0000
0000
0000
0001
0000
0000
0000
0000
0000
0000
0000
0100
0000
0000
0000
0001
0000
0000
0000
0000
0000
0000
0000
1000
0000
0000
0000
0001
0000
0000
0000
0000
0000
0001
0000
0000
0000
0000
0000
,
0010
0000
0000
000M
0010
0000
0000
0000
1000
0000
0000
0000
0001
0000
0000
0000
0000
0000
0000
0000
1000
0000
0000
0000
0100
0000
0000
0000
0000
0000
0000
0000
1000
0000
0000
0000
0001
0000
0000
0000
0000
0000
0000
0000
0000
0000
0000
0000
,
0010
0000
0000
000M
0010
0000
0000
0000
1000
0000
0000
0000
0001
0000
0000
0000
0000
0000
0000
0000
1000
0000
0000
0000
0001
0000
0000
0000
0000
0000
0000
0000
1000
0000
0000
0000
0100
0000
0000
0000
0000
0000
0100
0000
0000
0000
0000
0000
,
0010
0000
0000
0M00
0010
0000
0000
0000
1000
0000
0000
0000
0001
0000
0000
0000
0000
0000
0000
0000
1000
0000
0000
0000
0100
0000
0000
0000
0000
0000
0000
0000
0010
0000
0000
0000
0001
0000
0000
0000
0000
0000
0000
0000
0000
0000
0000
0000
,
0010
0000
0000
0M00
0010
0000
0000
0000
1000
0000
0000
0000
0001
0000
0000
0000
0000
0000
0000
0000
0010
0000
0000
0000
0001
0000
0000
0000
0000
0000
0000
0000
0010
0000
0000
0000
0001
0000
0000
0000
0010
0000
0000
0000
0001
0000
0000
0000
,
0100
0000
0000
000M
0100
0000
0000
0000
1000
0000
0000
0000
0001
0000
0000
0000
0000
0000
0000
0000
1000
0000
0000
0000
0001
0000
0000
0000
0000
0000
0000
0000
1000
0000
0000
0000
0010
0000
0000
0000
0000
0000
0000
0000
0000
0000
0000
0000
,
0100
0000
0000
00M0
0100
0000
0000
0000
0010
0000
0000
0000
0001
0000
0000
0000
0000
0000
0000
0000
1000
0000
0000
0000
0100
0000
0000
0000
0000
0000
0000
0000
1000
0000
0000
0000
0001
0000
0000
0000
0000
0000
0001
0000
0000
0000
0000
0000
,
0010
0000
0000
000M
0010
0000
0000
0000
0100
0000
0000
0000
0001
0000
0000
0000
0000
0000
0000
0000
1000
0000
0000
0000
0100
0000
0000
0000
0000
0000
0000
0000
1000
0000
0000
0000
0001
0000
0000
0000
0000
0000
0000
0000
0000
0000
0000
0000
,
0100
0000
0000
000M
0100
0000
0000
0000
0010
0000
0000
0000
0001
0000
0000
0000
0000
0000
0000
0000
0100
0000
0000
0000
0001
0000
0000
0000
0000
0000
0000
0000
1000
0000
0000
0000
0001
0000
0000
0000
0000
0000
0001
0000
0000
0000
0000
0000
,
0010
0000
0000
000M
0010
0000
0000
0000
0100
0000
0000
0000
0001
0000
0000
0000
0000
0000
0000
0000
1000
0000
0000
0000
0100
0000
0000
0000
0000
0000
0000
0000
1000
0000
0000
0000
0001
0000
0000
0000
0000
0000
0000
0000
0000
0000
0000
0000
,
0100
0000
0000
000M
0100
0000
0000
0000
0010
0000
0000
0000
0001
0000
0000
0000
0000
0000
0000
0000
1000
0000
0000
0000
0001
0000
0000
0000
0000
0000
0000
0000
1000
0000
0000
0000
0100
0000
0000
0000
0000
0000
0100
0000
0000
0000
0000
0000
,
0010
0000
0000
0M00
0010
0000
0000
0000
1000
0000
0000
0000
0001
0000
0000
0000
0000
0000
0000
0000
1000
0000
0000
0000
0100
0000
0000
0000
0000
0000
0000
0000
0010
0000
0000
0000
0001
0000
0000
0000
0000
0000
0000
0000
0000
0000
0000
0000
,
1100
0000
0101
0000
0110
0000
1010
0000
0011
0000
0110
0000
,
1000
0000
0000
1000
0000
0000
0001
1000
0100
0010
0000
0001
,
0100
0000
0001
1000
0000
0001
0010
0000
0001
0100
0000
0000
,
0010
0000
0000
0010
0000
0000
1000
0010
0100
0001
0000
0010
,
0100
0000
0010
0001
0000
0010
0100
0000
0000
1000
0000
0000
,
0100
0000
0000
0100
0000
0000
1000
0100
1000
0001
0000
0100
,
0010
0000
0100
0001
0000
0100
0010
0000
1000
0010
0000
0000
,
1000
0000
0000
1000
0000
0000
0100
0010
0001
0100
0000
0010
,
1000
0000
0100
0010
0000
0001
0200
0000
0000
0000
0000
0000
,
0301
0000
0000
0001
0000
0000
1000
0001
0100
0010
0000
1000
,
0100
0000
1000
0001
0000
1000
0010
0000
1000
0100
0000
0000
,
0010
0000
0000
0010
0000
0000
0001
0010
0100
1000
0000
0010
,
0100
0000
0010
1000
0000
0010
0100
0000
0000
0001
0000
0000
,
0100
0000
0000
0100
0000
0000
0001
0100
0001
1000
0000
0100
,
0010
0000
0100
1000
0000
0100
0010
0000
0001
0010
0000
0000
,
0011
0000
0000
0001
0000
0000
1010
1000
0010
0100
0000
0001
,
0101
0000
0110
0000
1010
0000
1001
0000
0011
0000
1010
0000
,
1000
0000
0000
1000
0000
0000
0001
1000
0010
0100
0000
0001
,
0010
0000
0001
1000
0000
0001
0100
0000
0001
0010
0000
0000
,
0100
0000
0000
0100
0000
0000
1000
0100
0010
0001
0000
0100
,
0010
0000
0100
0001
0000
0100
0010
0000
0000
1000
0000
0000
,
0010
0000
0000
0010
0000
0000
1000
0010
1000
0001
0000
0010
,
0100
0000
0010
0001
0000
0010
0100
0000
1000
0100
0000
0000
,
1000
0000
0000
1000
0000
0000
0010
0100
0001
0010
0000
0100
,
1000
0000
0010
0100
0000
0001
0020
0000
0000
0000
0000
0000
,
0031
0000
0000
0001
0000
0000
1000
0001
0010
0100
0000
1000
,
0010
0000
1000
0001
0000
1000
0100
0000
1000
0010
0000
0000
,
0100
0000
0000
0100
0000
0000
0001
0100
0010
1000
0000
0100
,
0010
0000
0100
1000
0000
0100
0010
0000
0000
0001
0000
0000
,
0010
0000
0000
0010
0000
0000
0001
0010
0001
1000
0000
0010
,
0100
0000
0010
1000
0000
0010
0100
0000
0001
0100
0000
0000
,
0101
0000
0000
0001
0000
0000
1100
1000
0100
0010
0000
0001
,
0011
0000
0110
0000
1100
0000
1001
0000
0101
0000
1100
0000
,
2002
0000
0000
3003
,
1000
0000
0001
0010
0000
0100
1000
0001
1000
0000
0001
0100
0000
0010
1000
0001
,
1000
0100
1000
0001
1000
0100
1000
0001
1000
0100
0010
0001
0100
0010
0100
0001
,
0010
0100
1000
0001
1000
0010
0100
0001
1000
0100
0010
0100
1000
0001
0100
0001
,
1000
0010
1000
0001
1000
0010
1000
0001
1000
0010
0100
0001
0010
0100
0010
0001
,
0100
0010
1000
0001
1000
0100
0010
0001
1000
0001
0100
0001
0010
0100
0010
0001
,
1000
0100
1000
0001
1000
0100
1000
0001
1000
0100
0010
0001
0100
0010
0100
0001
,
0010
0100
1000
0001
1000
0010
0100
0001
1000
0100
0010
0100
1000
0001
0100
0001
,
1000
0010
1000
0001
1000
0010
1000
0001
1000
0010
0100
0001
0010
0100
0010
0001
,
0100
0010
1000
0001
1000
0100
0010
0001
1000
0001
0100
0001
0010
0100
0010
0001
,
1000
0100
1000
0001
1000
0100
1000
0001
1000
0100
0010
0001
0100
0010
0100
0001
,
0010
0100
1000
0001
1000
0010
0100
0001
1000
0100
0010
0100
1000
0001
0100
0001
,
1000
0010
1000
0001
1000
0010
1000
0001
1000
0010
0100
0001
0010
0100
0010
0001
,
0100
0010
1000
0001
1000
0100
0010
0001
1000
0001
0100
0001
0010
0100
0010
0001
,
1000
0100
1000
0001
1000
0100
1000
0001
1000
0100
0010
0001
0100
0010
0100
0001
,
0010
0100
1000
0001
1000
0010
0100
0001
1000
0100
0010
0100
1000
0001
0100
0001
,
1000
0010
1000
0001
1000
0010
1000
0001
1000
0010
0100
0001
0010
0100
0010
0001
,
0100
0010
1000
0001
1000
0100
0010
0001
1000
0001
0100
0010
1000
0100
0010
0001
,
1000
0100
1000
0001
1000
0100
1000
0001
1000
0100
0010
0001
0100
0010
0100
0001
,
0010
0100
1000
0001
1000
0010
0100
0001
1000
0100
0010
0100
1000
0001
0100
0001
,
1000
0010
1000
0001
1000
0010
1000
0001
1000
0010
0100
0001
0010
0100
0010
0001
,
0100
0010
1000
0001
1000
0100
0010
0001
1000
0001
0100
0001
0010
0100
0010
0001
,
1000
0100
1000
0001
1000
0100
1000
0001
1000
0100
0010
0001
0100
0010
0100
0001
,
0010
0100
1000
0001
1000
0010
0100
0001
1000
0100
0010
0100
1000
0001
0100
0001
,
1000
0010
1000
0001
1000
0010
1000
0001
1000
0010
0100
0001
0010
0100
0010
0001
,
0100
0010
1000
0001
1000
0100
0010
0001
1000
0001
0100
0001
0010
0100
0010
0001
,
1000
0100
1000
0001
1000
0100
1000
0001
1000
0100
0010
0001
0100
0010
0100
0001
,
0010
0100
1000
0001
1000
0010
0100
0001
1000
0100
0010
0100
1000
0001
0100
0001
,
1000
0010
1000
0001
1000
0010
1000
0001
1000
0010
0100
0001
0010
0100
0010
0001
,
0100
0010
1000
0001
1000
0100
0010
0001
1000
0001
0100
0001
0010
0100
0010
0001
,
1000
0100
1000
0001
1000
0100
1000
0001
1000
0100
0010
0001
0100
0010
0100
0001
,
0010
0100
1000
0001
1000
0010
0100
0001
1000
0100
0010
0100
1000
0001
0100
0001
,
1000
0010
1000
0001
1000
0010
1000
0001
1000
0010
0100
0001
0010
0100
0010
0001
,
0100
0010
1000
0001
1000
0100
0010
0001
1000
0001
0100
0010
1000
0100
0010
0001
,
1M00
0M00
0M00
0M00
0M00
0M00
0M00
0M00
0M00
0000
0M00
0000
0M00
0000
0M00
0000
,
0M00
0M00
0M00
0M00
0M00
0000
0M00
0000
,
0M00
0M00
0M00
0000
,
0000
0000
0000
0000
0000
0M00
0000
0000
,
0001
0100
0010
1000
0001
1000
0010
0100
0001
1000
0010
1000
0001
0010
0001
1000
,
0001
0100
0010
0100
0001
1000
0010
0100
0001
0100
0010
1000
0001
0010
0001
1000
,
0001
0010
0100
0010
0001
1000
0001
0010
0100
1000
0001
1000
0010
1000
0001
1000
,
0100
0010
0001
0010
0100
1000
0001
1000
0100
1000
0001
1000
0010
1000
0001
0100
,
0001
0010
0001
1000
0001
0100
0001
1000
0100
0010
0001
0010
0100
1000
0001
0100
,
0001
1000
0001
0010
0001
1000
0001
0100
0010
1000
0010
0100
0001
1000
0100
1000
,
0001
0010
0001
1000
0100
1000
0001
0010
0001
1000
0001
0100
0010
0100
0001
1000
,
0001
0100
0001
1000
0010
1000
0001
0100
0001
1000
0010
1000
0001
0010
0100
1000
,
0001
0100
0010
1000
0001
0010
0001
1000
0100
1000
0001
0010
0100
1000
0001
0100
,
0001
1000
0100
0010
0001
1000
0001
0100
0001
1000
0010
1000
0001
0100
0010
1000
,
0001
1000
0100
0010
0001
1000
0010
0100
0001
1000
0010
1000
0001
0010
0001
1000
,
0001
1000
0010
0100
0001
1000
0100
0010
0001
1000
0100
1000
0001
0100
0001
1000
,
0001
0100
0010
0100
0001
0100
0010
1000
0001
0010
0100
1000
0100
0010
0100
1000
,
0001
0010
0100
0010
0001
0010
0100
0010
0001
1000
0010
0100
0001
0100
0010
1000
,
0001
0100
0001
1000
0100
1000
0001
0100
0001
1000
0100
1000
0001
1000
0100
1000
,
0001
0010
0001
1000
0010
1000
0001
0010
0001
1000
0010
1000
0001
1000
0010
1000
,
0001
0010
0100
1000
0001
1000
0100
0010
0001
1000
0100
1000
0001
0100
0001
1000
,
0001
0010
0100
0010
0001
1000
0100
0010
0001
0010
0100
1000
0001
0100
0001
1000
,
0001
0100
0010
0100
0001
1000
0001
0100
0010
1000
0001
1000
0100
1000
0001
1000
,
0010
0100
0001
0100
0010
1000
0001
1000
0010
1000
0001
1000
0100
1000
0001
0010
,
0001
0100
0001
1000
0001
0010
0001
1000
0010
0100
0001
0100
0010
1000
0001
0010
,
0001
1000
0001
0100
0001
1000
0001
0010
0100
1000
0100
0010
0001
1000
0010
1000
,
0001
0100
0001
1000
0010
1000
0001
0100
0001
1000
0001
0010
0100
0010
0001
1000
,
0001
0010
0001
1000
0100
1000
0001
0010
0001
1000
0100
1000
0001
0100
0010
1000
,
0001
0010
0100
1000
0001
0100
0001
1000
0010
1000
0001
0100
0010
1000
0001
0010
,
0001
1000
0010
0100
0001
1000
0001
0010
0001
1000
0100
1000
0001
0010
0100
1000
,
0001
1000
0010
0100
0001
1000
0100
0010
0001
1000
0100
1000
0001
0100
0001
1000
,
0001
1000
0100
0010
0001
1000
0010
0100
0001
1000
0010
1000
0001
0010
0001
1000
,
0001
0010
0100
0010
0001
0010
0100
1000
0001
0100
0010
1000
0010
0100
0010
1000
,
0001
0100
0010
0100
0001
0100
0010
0100
0001
1000
0100
0010
0001
0010
0100
1000
,
0001
0010
0001
1000
0010
1000
0001
0010
0001
1000
0010
1000
0001
1000
0010
1000
,
0001
0100
0001
1000
0100
1000
0001
0100
0001
1000
0100
1000
0001
1000
0100
1000
,
0001
0000
1000
0100
0000
0010
0001
1000
0001
0000
1000
0010
0000
0100
0001
1000
,
0001
0010
0001
1000
0001
0010
0001
1000
0001
0010
0100
1000
0010
0100
0010
1000
,
0100
0010
0001
1000
0001
0100
0010
1000
0001
0010
0100
0010
0001
1000
0010
1000
,
0001
0100
0001
1000
0001
0100
0001
1000
0001
0100
0010
1000
0100
0010
0100
1000
,
0010
0100
0001
1000
0001
0010
0100
1000
0001
1000
0010
1000
0100
0010
0100
1000
,
0001
0010
0001
1000
0001
0010
0001
1000
0001
0010
0100
1000
0010
0100
0010
1000
,
0100
0010
0001
1000
0001
0100
0010
1000
0001
0010
0100
0010
0001
1000
0010
1000
,
0001
0100
0001
1000
0001
0100
0001
1000
0001
0100
0010
1000
0100
0010
0100
1000
,
0010
0100
0001
1000
0001
0010
0100
1000
0001
1000
0010
1000
0100
0010
0100
1000
,
0001
0010
0001
1000
0001
0010
0001
1000
0001
0010
0100
1000
0010
0100
0010
1000
,
0100
0010
0001
1000
0001
0100
0010
1000
0001
0010
0100
0010
0001
1000
0010
1000
,
0001
0100
0001
1000
0001
0100
0001
1000
0001
0100
0010
1000
0100
0010
0100
1000
,
0010
0100
0001
1000
0001
0010
0100
1000
0001
1000
0010
1000
0100
0010
0100
1000
,
0001
0010
0001
1000
0001
0010
0001
1000
0001
0010
0100
1000
0010
0100
0010
1000
,
0100
0010
0001
1000
0001
0100
0010
1000
0001
0010
0100
0010
0001
1000
0010
1000
,
0001
0100
0001
1000
0001
0100
0001
1000
0001
0100
0010
1000
0100
0010
0100
1000
,
0010
0100
0001
1000
0001
0010
0100
1000
0001
1000
0010
0100
0001
0010
0100
1000
,
0001
0010
0001
1000
0001
0010
0001
1000
0001
0010
0100
1000
0010
0100
0010
1000
,
0100
0010
0001
1000
0001
0100
0010
1000
0001
0010
0100
0010
0001
1000
0010
1000
,
0001
0100
0001
1000
0001
0100
0001
1000
0001
0100
0010
1000
0100
0010
0100
1000
,
0010
0100
0001
1000
0001
0010
0100
1000
0001
1000
0010
1000
0100
0010
0100
1000
,
0001
0010
0001
1000
0001
0010
0001
1000
0001
0010
0100
1000
0010
0100
0010
1000
,
0100
0010
0001
1000
0001
0100
0010
1000
0001
0010
0100
0010
0001
1000
0010
1000
,
0001
0100
0001
1000
0001
0100
0001
1000
0001
0100
0010
1000
0100
0010
0100
1000
,
0010
0100
0001
1000
0001
0010
0100
1000
0001
1000
0010
1000
0100
0010
0100
1000
,
0001
0010
0001
1000
0001
0010
0001
1000
0001
0010
0100
1000
0010
0100
0010
1000
,
0100
0010
0001
1000
0001
0100
0010
1000
0001
0010
0100
0010
0001
1000
0010
1000
,
0001
0100
0001
1000
0001
0100
0001
1000
0001
0100
0010
1000
0100
0010
0100
1000
,
0010
0100
0001
1000
0001
0010
0100
1000
0001
1000
0010
1000
0100
0010
0100
1000
,
0001
0010
0001
1000
0001
0010
0001
1000
0001
0010
0100
1000
0010
0100
0010
1000
,
0100
0010
0001
1000
0001
0100
0010
1000
0001
0010
0100
0010
0001
1000
0010
1000
,
0001
0100
0001
1000
0001
0100
0001
1000
0001
0100
0010
1000
0100
0010
0100
1000
,
0010
0100
0001
0010
0200
0000
0000
0300
,
1000
0100
0011
1000
0100
0011
1000
0100
,
1000
0000
0001
0000
0011
0000
0011
0000
0001
1000
0001
0100
0001
0000
0010
0000
,
0001
0100
1010
0001
0100
1010
0001
0100
,
0001
0000
1000
0000
1010
0000
1010
0000
1000
0001
0010
0001
1000
0000
0010
0000
,
0100
0001
1100
1000
0001
1100
1000
0001
,
0100
0000
0001
0000
1100
0000
1100
0000
1000
0010
0100
0010
1000
0000
0001
0000
,
1000
0100
0011
1000
0100
0011
1000
0001
,
1000
0000
0100
0000
0011
0000
0011
0000
0001
1000
0010
1000
0001
0000
1000
0000
,
0001
0100
1010
0001
0100
1010
0001
0100
,
0001
0000
1000
0000
1010
0000
1010
0000
1000
0001
1000
0100
1000
0000
0010
0000
,
1000
0100
0011
1000
0100
0011
1000
0100
,
1000
0000
0001
0000
0011
0000
0011
0000
0001
1000
0010
1000
0001
0000
0010
0000
,
0100
1000
0101
0001
1000
0101
0001
1000
,
0100
0000
1000
0000
0101
0000
0101
0000
0001
0010
0100
0010
0001
0000
1000
0000
,
0001
0010
0001
1000
0100
0010
0100
1000
0001
0010
0001
1000
0001
0100
0010
1000
,
0100
0010
0100
1000
0010
1000
0100
0010
0100
1000
0010
1000
0100
0010
0001
0100
,
0020
0000
0030
0000
;

//---------------dance-single - 15+ (Wastum)----------------
#NOTES:
     dance-single:
     15+ (Wastum):
     Hard:
     15:
     1.000,1.000,0.248,0.322,1.000,2571.000,83.000,108.000,30.000,0.000:
0000
0000
0000
0000
,
0000
0000
0000
0000
,
0000
0000
0000
0000
,
0000
0000
0000
0000
,
0000
0000
0000
0000
,
0000
0000
0000
0000
,
0000
0000
0000
0000
,
0000
0000
0000
0000
,
1000
0100
0011
1000
0100
0011
1000
0100
,
1000
0000
0001
0000
0011
0000
0011
0000
0001
1000
0001
0100
0001
0000
0010
0000
,
0001
0100
1010
0001
0100
1010
0001
0100
,
0001
0000
1000
0000
1010
0000
1010
0000
1000
0001
0010
0001
1000
0000
0010
0000
,
0100
0001
1100
1000
0001
1100
1000
0001
,
0100
0000
0001
0000
1100
0000
1100
0000
1000
0010
0100
0010
1000
0000
0001
0000
,
1000
0100
1000
0100
1000
0100
1000
0100
1000
0100
1000
0100
1000
0100
1000
0100
,
1000
0010
0100
0001
0010
0100
1000
0010
1000
0100
0010
0001
0100
0001
0010
0100
,
1000
0001
0010
0100
0010
0001
1000
0100
1000
0001
0100
0000
0001
1000
0001
0000
,
0100
0001
1000
0001
0100
0010
1000
0001
1000
0100
1000
0000
0100
0010
0100
0000
,
1000
0001
0010
0001
1000
0001
0010
0100
1000
0001
0010
0000
0001
1000
0001
0000
,
1000
0100
1000
0001
0100
0010
1000
0010
0100
0001
1000
0000
0100
0010
0100
0000
,
1000
0100
0010
0001
1000
0001
0100
0010
1000
0001
1000
0000
0100
0010
0100
0000
,
1000
0001
0100
0010
1000
0001
1000
0100
1000
0001
0010
0000
0100
0010
0100
0000
,
0010
0001
1000
0001
0010
0001
1000
0010
0100
0010
1000
0000
0001
1000
0001
0000
,
1000
0010
0100
0010
1000
0001
1000
0100
1000
0001
0100
0000
0010
0100
0010
0000
,
1000
0001
0100
0010
0100
0001
1000
0010
1000
0001
0010
0000
0001
1000
0001
0000
,
0010
0001
1000
0001
0010
0100
1000
0001
1000
0010
1000
0000
0010
0100
0010
0000
,
1000
0001
0100
0001
1000
0001
0100
0010
1000
0001
0100
0000
0001
1000
0001
0000
,
1000
0010
1000
0001
0010
0100
1000
0100
0010
0001
1000
0000
0010
0100
0010
0000
,
1000
0010
0100
0001
1000
0001
0010
0100
1000
0001
1000
0000
0010
0100
0010
0000
,
1000
0001
0010
0100
1000
0001
1000
0010
1000
0001
0100
0000
0010
0100
0010
0000
,
1000
0010
1000
0010
1000
0010
1000
0010
1000
0010
1000
0010
1000
0010
1000
0010
,
1000
0100
0010
0100
1000
0010
0100
0001
0010
0100
0010
0001
0100
0001
0010
0001
,
1000
0001
0010
0001
1000
0100
1000
0001
1000
0010
1000
0000
0010
0100
0010
0000
,
1000
0001
0100
0001
1000
0001
0100
0010
1000
0001
0100
0000
0001
1000
0001
0000
,
1000
0010
1000
0001
0010
0100
1000
0100
0010
0001
1000
0000
0010
0100
0010
0000
,
1000
0010
0100
0001
1000
0001
0010
0100
1000
0001
1000
0000
0010
0100
0010
0000
,
1000
0001
0010
0100
1000
0001
1000
0010
1000
0001
0100
0000
0010
0100
0010
0000
,
0100
0001
1000
0001
0100
0001
1000
0100
0010
0100
1000
0000
0001
1000
0001
0000
,
1000
0100
0010
0001
0010
0100
1000
0001
1000
0010
0100
0000
0001
1000
0001
0000
,
1000
0001
0100
0010
0100
0001
1000
0010
1000
0001
0010
0000
0001
1000
0001
0000
,
0010
0001
1000
0001
0100
0010
1000
0001
1000
0100
1000
0000
0100
0010
0100
0000
,
1000
0001
0010
0001
1000
0001
0010
0100
1000
0001
0010
0000
0001
1000
0001
0000
,
1000
0100
1000
0001
0100
0010
1000
0010
0100
0001
1000
0000
0100
0010
0100
0000
,
1000
0100
0010
0001
1000
0001
0100
0010
1000
0001
1000
0000
0100
0010
0100
0000
,
1000
0001
0100
0010
1000
0001
1000
0100
1000
0001
0010
0000
0100
0010
0100
0000
,
0010
0001
1000
0001
0010
0001
1000
0010
0100
0010
1000
0000
0001
1000
0001
0000
,
1000
0010
0100
0001
0100
0010
1000
0001
1000
0100
0010
0001
1000
0001
0010
0100
,
1000
0010
1000
0010
1000
0010
1000
0010
1000
0010
1000
0010
1000
0010
1000
0010
,
1000
0100
0010
0001
0100
0001
0010
0100
1000
0000
0100
0000
0100
0000
0000
0000
,
1000
0000
0100
1000
0000
1000
0010
0100
0001
0000
0100
0001
0000
0001
1000
0100
,
0010
0000
0100
0010
0000
0010
0001
1000
0010
0000
0100
0010
0000
0010
1000
0001
,
0010
0000
0001
0010
0000
0010
0001
1000
0001
0000
1000
0001
0000
0001
0100
0010
,
1000
0000
0010
1000
0000
1000
0100
0010
0001
0000
0010
0001
0000
0001
1000
0010
,
0100
0000
0010
0100
0000
0100
0010
1000
0001
0000
0100
0001
0000
0001
1000
0100
,
0010
0000
0100
0010
0000
0010
0001
1000
0010
0000
0100
0010
0000
0010
1000
0001
,
0010
0000
0001
0010
0000
0010
0001
1000
0001
0000
1000
0001
0000
0001
0100
0010
,
1000
0000
0010
1000
0000
1000
0100
0010
0001
1000
0001
1000
0001
0000
0010
0000
,
0001
0000
1000
0001
0000
0001
0010
0100
1000
0000
0100
1000
0000
1000
0001
0100
,
0010
0000
0100
0010
0000
0010
1000
0001
0010
0000
0100
0010
0000
0010
0001
1000
,
0010
0000
1000
0010
0000
0010
1000
0001
1000
0000
0001
1000
0000
1000
0100
0010
,
0001
0000
0010
0001
0000
0001
0100
0010
1000
0000
0010
1000
0000
1000
0001
0010
,
0100
0000
0010
0100
0000
0100
0010
0001
1000
0000
0100
1000
0000
1000
0001
0100
,
0010
0000
0100
0010
0000
0010
1000
0001
0010
0000
0100
0010
0000
0010
0001
1000
,
0010
0000
1000
0010
0000
0010
1000
0001
1000
0000
0001
1000
0000
1000
0100
0010
,
0001
0000
0000
0000
0010
0000
0010
0000
0000
0001
1000
0000
0010
0000
0010
0000
,
0100
0001
1000
0001
0100
0010
1000
0001
1000
0100
1000
0000
0100
0010
0100
0000
,
1000
0001
0010
0001
1000
0001
0010
0100
1000
0001
0010
0000
0001
1000
0001
0000
,
1000
0100
1000
0001
0100
0010
1000
0010
0100
0001
1000
0000
0100
0010
0100
0000
,
1000
0100
0010
0001
1000
0001
0100
0010
1000
0001
1000
0000
0100
0010
0100
0000
,
1000
0001
0100
0010
1000
0001
1000
0100
1000
0001
0010
0000
0100
0010
0100
0000
,
0010
0001
1000
0001
0010
0001
1000
0010
0100
0010
1000
0000
0001
1000
0001
0000
,
1000
0010
0100
0001
0100
0010
1000
0001
1000
0100
0010
0000
0001
1000
0001
0000
,
1000
0001
0010
0100
0010
0001
1000
0100
1000
0001
0100
0001
1000
0001
1000
0000
,
0010
1000
0001
1000
0100
0010
0001
1000
0001
0100
0001
0000
0100
0010
0100
0000
,
0001
1000
0010
1000
0001
1000
0010
0100
0001
1000
0010
0000
1000
0001
1000
0000
,
0001
0100
0001
1000
0100
0010
0001
0010
0100
1000
0001
0000
0100
0010
0100
0000
,
0001
0100
0010
1000
0001
1000
0100
0010
0001
1000
0001
0000
0100
0010
0100
0000
,
0001
1000
0100
0010
0001
1000
0001
0100
0001
1000
0010
0000
0100
0010
0100
0000
,
0010
1000
0001
1000
0010
1000
0001
0010
0100
0010
0001
0000
1000
0001
1000
0000
,
0001
0010
0100
1000
0100
0010
0001
1000
0001
0100
0010
1000
0001
1000
0010
0100
,
0001
1000
0010
0100
0010
1000
0001
0100
0001
1000
0100
1000
0001
0010
0001
1000
,
0001
0010
1100
0001
0010
1100
0001
0010
,
0001
0000
1000
0000
1100
0000
1100
0000
1000
0001
0100
0010
1000
0000
0100
0000
,
1000
0010
0101
1000
0010
0101
1000
0010
,
1000
0000
0001
0000
0101
0000
0101
0000
0001
1000
0100
0010
0001
0000
0100
0000
,
0010
1000
0011
0001
1000
0011
0001
1000
,
0010
0000
1000
0000
0011
0000
0011
0000
0001
0100
0010
1000
0001
0000
0010
0000
,
0001
0100
1010
0001
0100
1010
0001
0100
,
0001
0000
1000
0000
1010
0000
1010
0000
1000
0001
0010
0100
1000
0000
0010
0000
,
1000
0000
0000
0000
0100
0000
0000
0000
0010
0000
0000
0000
0001
0000
0000
1000
,
0001
0000
0000
0000
1000
0000
0000
0000
0010
0000
0000
0000
0100
0000
0000
0001
,
1000
0000
0000
0000
0001
0000
0000
0000
0100
0000
0000
0000
0010
0000
0000
1000
,
0001
0000
0000
0000
1000
0000
0000
0000
0100
0000
0010
0000
0001
1000
0000
1000
,
0001
0000
0000
0000
0100
0000
0000
0000
0010
0000
0000
0000
1000
0000
0000
0001
,
1000
0000
0000
0000
0100
0000
0000
0000
0010
0000
0000
0000
0001
0000
0000
1000
,
0001
0100
0010
1000
,
0001
0010
0100
1000
0001
0010
0100
1000
0001
0100
0010
1000
0001
0100
0010
1000
,
0010
0010
0001
1000
0000
0010
1000
0000
0010
0100
0000
0000
,
0010
0010
0001
1000
0000
0001
0100
0000
0001
1M00
0000
0000
,
0010
0010
0001
1000
0000
0010
1000
0000
0001
1000
0000
0000
,
0010
0010
0001
1000
0000
0010
1000
0000
0001
1M00
0000
0000
,
0100
0100
0001
1000
0000
0001
0010
0000
0001
1000
0000
0000
,
0100
0100
0001
1000
0000
0001
1000
0000
0001
M010
0000
0000
,
0100
0100
0001
1000
0000
0001
0010
0000
0100
1000
0000
0000
,
0100
0100
0001
1000
0000
0100
M001
0000
0100
M001
0100
1000
,
0100
0100
0010
1000
0000
0001
1000
0000
0001
0100
0000
0000
,
0010
0010
0100
1000
0000
0001
0010
0000
0001
1M00
0000
0000
,
0100
0100
0010
1000
0000
0001
0010
0000
0001
1000
0000
0000
,
0010
0010
0100
1000
0000
0010
1000
0000
0001
1M00
0000
0000
,
0100
0100
0010
1000
0000
0001
0010
0000
0001
1000
0000
0000
,
0010
0010
0100
1000
0000
0001
1000
0000
0001
M010
0000
0000
,
0100
0100
0001
1000
0000
0001
0010
0000
0100
1000
0000
0000
,
0011
0000
1010
0000
0110
0000
0101
0000
1100
0000
0110
0000
,
0001
0000
0000
0001
0000
0000
1000
0001
0010
0100
0000
1000
,
0010
0000
1000
0001
0000
1000
0100
0000
1000
0010
0000
0000
,
0100
0000
0000
0100
0000
0000
0001
0100
0010
1000
0000
0100
,
0010
0000
0100
1000
0000
0100
0010
0000
0000
0001
0000
0000
,
0010
0000
0000
0010
0000
0000
0001
0010
0001
1000
0000
0010
,
0100
0000
0010
1000
0000
0010
0100
0000
0001
0100
0000
0000
,
0001
0000
0000
0001
0000
0000
0010
0100
1000
0010
0000
0100
,
0001
0000
0010
0100
0000
1000
0020
0000
0000
0000
0000
0000
,
1030
0000
0000
1000
0000
0000
0001
1000
0010
0100
0000
0001
,
0010
0000
0001
1000
0000
0001
0100
0000
0001
0010
0000
0000
,
0100
0000
0000
0100
0000
0000
1000
0100
0010
0001
0000
0100
,
0010
0000
0100
0001
0000
0100
0010
0000
0000
1000
0000
0000
,
0010
0000
0000
0010
0000
0000
1000
0010
1000
0001
0000
0010
,
0100
0000
0010
0001
0000
0010
0100
0000
1000
0100
0000
0000
,
1100
0000
0000
1000
0000
0000
0101
0001
0100
0010
0000
1000
,
1010
0000
0110
0000
0101
0000
1001
0000
1100
0000
0101
0000
,
0001
0000
0000
0001
0000
0000
1000
0001
0100
0010
0000
1000
,
0100
0000
1000
0001
0000
1000
0010
0000
1000
0100
0000
0000
,
0010
0000
0000
0010
0000
0000
0001
0010
0100
1000
0000
0010
,
0100
0000
0010
1000
0000
0010
0100
0000
0000
0001
0000
0000
,
0100
0000
0000
0100
0000
0000
0001
0100
0001
1000
0000
0100
,
0010
0000
0100
1000
0000
0100
0010
0000
0001
0010
0000
0000
,
0001
0000
0000
0001
0000
0000
0100
0010
1000
0100
0000
0010
,
0001
0000
0100
0010
0000
1000
0200
0000
0000
0000
0000
0000
,
1300
0000
0000
1000
0000
0000
0001
1000
0100
0010
0000
0001
,
0100
0000
0001
1000
0000
0001
0010
0000
0001
0100
0000
0000
,
0010
0000
0000
0010
0000
0000
1000
0010
0100
0001
0000
0010
,
0100
0000
0010
0001
0000
0010
0100
0000
0000
1000
0000
0000
,
0100
0000
0000
0100
0000
0000
1000
0100
1000
0001
0000
0100
,
0010
0000
0100
0001
0000
0100
0010
0000
1000
0010
0000
0000
,
1010
0000
0000
1000
0000
0000
0011
0001
0010
0100
0000
1000
,
1100
0000
0110
0000
0011
0000
1001
0000
1010
0000
0011
0000
,
2002
0000
0000
3003
,
0001
0000
1000
0100
0000
0010
0001
1000
0001
0000
1000
0010
0000
0100
0001
1000
,
0002
0003
0002
0003
0100
0010
0100
0100
,
0001
0001
0010
0010
0001
1000
0200
0300
,
0020
0030
0020
0030
0001
0100
0010
0010
,
0100
0100
0001
0001
2000
3000
0002
0003
,
2000
3000
2000
3000
0001
0010
0100
0100
,
1000
1000
0001
0001
0100
0010
0200
0300
,
0020
0030
0020
0030
1000
0100
0010
0010
,
0001
0001
0100
0100
0002
0003
2000
3000
,
1002
0003
0002
0003
0010
0100
0010
0010
,
0001
0001
0100
0100
0001
1000
0020
0030
,
0200
0300
0200
0300
0001
0010
0100
0100
,
0010
0010
0001
0001
2000
3000
0002
0003
,
2000
3000
2000
3000
0001
0100
0010
0010
,
1000
1000
0001
0001
0010
0100
0020
0030
,
0100
1000
0100
1000
0100
1000
0100
1000
0100
1000
0100
1000
0100
1000
0100
1000
,
0010
0100
0001
0010
0100
1000
0010
1000
0100
1000
0001
0100
0010
1000
0100
1000
,
0002
0003
0002
0003
0010
0100
0010
0010
,
0001
0001
0100
0100
0001
1000
0020
0030
,
0200
0300
0200
0300
0001
0010
0100
0100
,
0010
0010
0001
0001
2000
3000
0002
0003
,
2000
3000
2000
3000
0001
0100
0010
0010
,
1000
1000
0001
0001
0010
0100
0020
0030
,
0200
0300
0200
0300
1000
0010
0100
0100
,
0001
0001
0010
0010
0002
0003
2000
3000
,
1002
0003
0002
0003
0100
0010
0100
0100
,
0001
0001
0010
0010
0001
1000
0200
0300
,
0020
0030
0020
0030
0001
0100
0010
0010
,
0100
0100
0001
0001
2000
3000
0002
0003
,
2000
3000
2000
3000
0001
0010
0100
0100
,
1000
1000
0001
0001
0100
0010
0200
0300
,
0010
1000
0010
1000
0010
1000
0010
1000
0010
1000
0010
1000
0010
1000
0010
1000
,
0100
0010
0001
0100
0010
1000
0100
1000
0010
1000
0001
0010
0100
1000
0010
1000
,
00M1
00M0
00M0
00M0
00M0
00M0
00M0
00M0
00M0
0000
00M0
0000
00M0
0000
00M0
0000
,
00M0
00M0
00M0
00M0
00M0
0000
00M0
0000
,
00M0
00M0
00M0
0000
,
0000
0000
0000
0000
0000
00M0
0000
0000
,
1000
0010
0100
0001
1000
0001
0100
0010
1000
0001
0100
0001
1000
0100
1000
0001
,
1000
0010
0100
0010
1000
0001
0100
0010
1000
0010
0100
0001
1000
0100
1000
0001
,
1000
0100
0010
0100
1000
0001
1000
0100
0010
0001
1000
0001
0100
0001
1000
0001
,
0010
0100
1000
0100
0010
0001
1000
0001
0010
0001
1000
0001
0100
0001
1000
0010
,
1000
0100
1000
0001
1000
0010
1000
0001
0010
0100
1000
0100
0010
0001
1000
0010
,
1000
0001
1000
0100
1000
0001
1000
0010
0100
0001
0100
0010
1000
0001
0010
0001
,
1000
0100
1000
0001
0010
0001
1000
0100
1000
0001
1000
0010
0100
0010
1000
0001
,
1000
0010
1000
0001
0100
0001
1000
0010
1000
0001
0100
0001
1000
0100
0010
0001
,
1000
0010
0100
0001
1000
0100
1000
0001
0010
0001
1000
0100
0010
0001
1000
0010
,
1000
0001
0010
0100
1000
0001
1000
0010
1000
0001
0100
0001
1000
0010
0100
0001
,
1000
0001
0010
0100
1000
0001
0100
0010
1000
0001
0100
0001
1000
0100
1000
0001
,
1000
0001
0100
0010
1000
0001
0010
0100
1000
0001
0010
0001
1000
0010
1000
0001
,
1000
0010
0100
0010
1000
0010
0100
0001
1000
0100
0010
0001
0010
0100
0010
0001
,
1000
0100
0010
0100
1000
0100
0010
0100
1000
0001
0100
0010
1000
0010
0100
0001
,
1000
0010
1000
0001
0010
0001
1000
0010
1000
0001
0010
0001
1000
0001
0010
0001
,
1000
0100
1000
0001
0100
0001
1000
0100
1000
0001
0100
0001
1000
0001
0100
0001
,
1000
0100
0010
0001
1000
0001
0010
0100
1000
0001
0010
0001
1000
0010
1000
0001
,
1000
0100
0010
0100
1000
0001
0010
0100
1000
0100
0010
0001
1000
0010
1000
0001
,
1000
0010
0100
0010
1000
0001
1000
0010
0100
0001
1000
0001
0010
0001
1000
0001
,
0100
0010
1000
0010
0100
0001
1000
0001
0100
0001
1000
0001
0010
0001
1000
0100
,
1000
0010
1000
0001
1000
0100
1000
0001
0100
0010
1000
0010
0100
0001
1000
0100
,
1000
0001
1000
0010
1000
0001
1000
0100
0010
0001
0010
0100
1000
0001
0100
0001
,
1000
0010
1000
0001
0100
0001
1000
0010
1000
0001
1000
0100
0010
0100
1000
0001
,
1000
0100
1000
0001
0010
0001
1000
0100
1000
0001
0010
0001
1000
0010
0100
0001
,
1000
0100
0010
0001
1000
0010
1000
0001
0100
0001
1000
0010
0100
0001
1000
0100
,
1000
0001
0100
0010
1000
0001
1000
0100
1000
0001
0010
0001
1000
0100
0010
0001
,
1000
0001
0100
0010
1000
0001
0010
0100
1000
0001
0010
0001
1000
0010
1000
0001
,
1000
0001
0010
0100
1000
0001
0100
0010
1000
0001
0100
0001
1000
0100
1000
0001
,
1000
0100
0010
0100
1000
0100
0010
0001
1000
0010
0100
0001
0100
0010
0100
0001
,
1000
0010
0100
0010
1000
0010
0100
0010
1000
0001
0010
0100
1000
0100
0010
0001
,
1000
0100
1000
0001
0100
0001
1000
0100
1000
0001
0100
0001
1000
0001
0100
0001
,
1000
0010
1000
0001
0010
0001
1000
0010
1000
0001
0010
0001
1000
0001
0010
0001
,
1000
0000
0001
0010
0000
0100
1000
0001
1000
0000
0001
0100
0000
0010
1000
0001
,
2000
3000
2000
3000
0010
0100
0010
0010
,
1000
1000
0100
0100
1000
0001
0020
0030
,
0200
0300
0200
0300
1000
0010
0100
0100
,
0010
0010
1000
1000
0002
0003
2000
3000
,
0002
0003
0002
0003
1000
0100
0010
0010
,
0001
0001
1000
1000
0010
0100
0020
0030
,
0200
0300
0200
0300
0001
0010
0100
0100
,
1000
1000
0010
0010
2000
3000
0002
0003
,
2001
3000
2000
3000
0100
0010
0100
0100
,
1000
1000
0010
0010
1000
0001
0200
0300
,
0020
0030
0020
0030
1000
0100
0010
0010
,
0100
0100
1000
1000
0002
0003
2000
3000
,
0002
0003
0002
0003
1000
0010
0100
0100
,
0001
0001
1000
1000
0100
0010
0200
0300
,
0020
0030
0020
0030
0001
0100
0010
0010
,
0100
0100
0001
0001
2000
3000
0020
0030
,
2000
3000
2000
3000
0100
0010
0100
0100
,
1000
1000
0010
0010
1000
0001
0200
0300
,
0020
0030
0020
0030
1000
0100
0010
0010
,
0100
0100
1000
1000
0002
0003
2000
3000
,
0002
0003
0002
0003
1000
0010
0100
0100
,
0001
0001
1000
1000
0100
0010
0200
0300
,
0020
0030
0020
0030
0001
0100
0010
0010
,
1000
1000
0100
0100
2000
3000
0002
0003
,
2001
3000
2000
3000
0010
0100
0010
0010
,
1000
1000
0100
0100
1000
0001
0020
0030
,
0200
0300
0200
0300
1000
0010
0100
0100
,
0010
0010
1000
1000
0002
0003
2000
3000
,
0002
0003
0002
0003
1000
0100
0010
0010
,
0001
0001
1000
1000
0010
0100
0020
0030
,
0200
0300
0200
0300
0001
0010
0100
0100
,
1000
1000
0001
0001
0200
0000
0000
0300
,
0001
0010
1100
0001
0010
1100
0001
0010
,
0001
0000
1000
0000
1100
0000
1100
0000
1000
0001
1000
0010
1000
0000
0100
0000
,
1000
0010
0101
1000
0010
0101
1000
0010
,
1000
0000
0001
0000
0101
0000
0101
0000
0001
1000
0100
1000
0001
0000
0100
0000
,
0010
1000
0011
0001
1000
0011
0001
1000
,
0010
0000
1000
0000
0011
0000
0011
0000
0001
0100
0010
0100
0001
0000
1000
0000
,
0001
0010
1100
0001
0010
1100
0001
1000
,
0001
0000
0010
0000
1100
0000
1100
0000
1000
0001
0100
0001
1000
0000
0001
0000
,
1000
0010
0101
1000
0010
0101
1000
0010
,
1000
0000
0001
0000
0101
0000
0101
0000
0001
1000
0001
0010
0001
0000
0100
0000
,
0001
0010
1100
0001
0010
1100
0001
0010
,
0001
0000
1000
0000
1100
0000
1100
0000
1000
0001
0100
0001
1000
0000
0100
0000
,
0010
0001
1010
1000
0001
1010
1000
0001
,
0010
0000
0001
0000
1010
0000
1010
0000
1000
0100
0010
0100
1000
0000
0001
0000
,
1000
0100
1000
0100
1000
0100
1000
0100
1000
0100
1000
0100
1000
0100
1000
0100
,
1000
0010
0100
0001
0010
0001
0100
0010
0100
0001
0010
0001
0100
0010
1000
0100
,
0020
0000
0030
0000
;
