#TITLE:neu;
#SUBTITLE:;
#ARTIST:Shounen Radio;
#TITLETRANSLIT:;
#SUBTITLETRANSLIT:;
#ARTISTTRANSLIT:;
#CREDIT:;
#BANNER:neu-bn.png;
#BACKGROUND:neu-bg.png;
#LYRICSPATH:;
#CDTITLE:cdtitle.png;
#MUSIC:4.neu.mp3;
#OFFSET:-1.460;
#SAMPLESTART:20.450;
#SAMPLELENGTH:12.000;
#SELECTABLE:YES;
#BPMS:0.000=199.000;
#STOPS:;
#BGCHANGES:;
// cache tags:
#FIRSTBEAT:0.000;
#LASTBEAT:467.000;
#SONGFILENAME:Songs/Hard Songs Megapack Volume 9/Neu/WYLDAH.sm;
#HASMUSIC:1;
#HASBANNER:1;
#MUSICLENGTH:151.431;
// end cache tags

//---------------dance-solo - ----------------
#NOTES:
     dance-solo:
     :
     Hard:
     13:
     1.000,1.000,1.000,0.053,1.000,1230.000,378.000,8.000,0.000,168.000:
000002
000000
000000
000000
,
000103
000000
000000
000000
,
000000
000000
000000
000000
,
111011
000000
100001
000001
010000
000001
100001
000000
,
001001
000001
100000
000001
001001
000000
100001
000001
,
001000
000001
010001
000000
001001
000001
010000
000001
,
000011
000000
001001
000001
000010
000001
111101
110100
,
111011
000001
100000
000001
010001
000000
100001
000001
,
001000
000001
100001
000000
001001
000001
100000
000001
,
001001
000000
010001
000001
001000
000001
110001
100000
,
000011
100001
101000
100001
001111
100000
101001
000111
,
111112
000003
000000
000000
000000
000000
000000
000000
000000
000000
000000
000000
111000
000000
000000
000000
000000
000000
000000
000000
000000
000000
000000
000000
110100
000000
000000
000000
000000
000000
000000
000000
000000
000000
000000
000000
111000
000000
000000
000000
000000
000000
000000
000000
000000
000000
000000
000000
,
110010
111000
110010
111000
,
110010
110100
110010
110100
,
110021
000030
000000
000000
000000
000000
000000
000000
000000
000000
000000
000000
110100
000000
000000
000000
000000
000000
000000
000000
000000
000000
000000
000000
110001
000000
000000
000000
000000
000000
000000
000000
000000
000000
000000
000000
110100
000000
000000
000000
000000
000000
100000
000000
000000
000000
000000
000000
,
110210
000300
000000
000000
000000
000000
100000
000000
000000
000000
000000
000000
111000
000000
000000
000000
000000
000000
100000
000000
000000
000000
000000
000000
110010
000000
000000
000000
000000
000000
100000
000000
000000
000000
000000
000000
111000
000000
000000
000000
000000
000000
100000
000000
000000
000000
000000
000000
,
110010
100000
110100
100000
110010
100000
110100
100000
,
112001
003000
000000
000000
000000
000000
110000
000000
000000
000000
000000
000000
110100
000000
000000
000000
000000
000000
110000
000000
000000
000000
000000
000000
110001
000000
000000
000000
000000
000000
110000
000000
000000
000000
000000
000000
110100
000000
000000
000000
000000
000000
110000
000000
000000
000000
000000
000000
,
110000
000001
000000
000000
221000
000100
000010
000001
,
330100
000010
001000
010000
000100
001000
010000
100000
010000
001000
000100
001000
010000
001000
000010
000100
,
000001
000000
001000
010000
100000
010000
001000
000100
000010
000000
001000
010000
001000
000001
100000
010000
,
000010
000000
010000
100000
001000
000100
000010
000000
100000
001000
010000
000100
001000
000100
000010
000000
,
000001
000010
000100
001000
010000
100000
010000
001000
000100
001000
010000
100000
000100
010000
100000
010000
,
001000
000000
100000
001000
010000
001000
000100
000010
000001
010000
100000
010000
001000
010000
000100
000010
,
000001
000000
001000
010000
100000
001000
000100
000010
000001
000000
100000
000010
010000
001000
000100
000010
,
000001
000000
001000
000010
100000
010000
001000
000100
000010
000000
001000
100000
010000
001000
000010
000001
,
001000
000000
100000
010000
001000
000100
000010
001000
000101
000000
001010
000000
010100
000000
101000
000000
,
010000
001000
000100
000100
100000
010000
001000
000100
000100
100000
010000
001000
000100
000100
100000
010000
,
001000
000100
000010
100000
010000
001000
000100
000010
100000
010000
001000
000100
000010
010000
001000
000100
,
100000
001000
100000
001000
000100
100000
001000
100000
001000
000100
100000
001000
100000
001000
010000
001000
,
000001
000010
000100
001000
000010
000100
001000
010000
000100
001000
010000
100000
000001
000000
000010
000000
,
000100
001000
010000
100000
000100
001000
010000
001000
000100
000010
000100
001000
010000
100000
000100
000000
,
000001
000010
000100
001000
010000
100000
000100
000001
100000
010000
001000
010000
001000
000100
000010
000001
,
010000
001000
000100
001000
010000
100000
010000
001000
000100
001000
010000
001000
000100
000010
000001
000010
,
000100
000000
000000
000000
001000
000000
000000
000000
000100
000000
000000
000000
000010
000000
000000
000000
000100
000000
000000
000000
001000
000000
000000
000000
010000
000000
000000
000000
001000
000000
000000
000000
110111
000000
000000
000000
000000
000000
000000
000000
000000
110111
000000
000000
000000
000000
000000
000000
000000
000000
000000
000000
000000
000000
000000
000000
000000
000000
000000
000000
000000
000000
000000
000000
,
000100
000000
010000
100001
010100
001000
000100
001000
,
010001
100010
011000
101000
000110
101000
010011
101100
,
010001
101000
000110
101000
010101
101010
111000
001000
,
010100
100000
010101
001010
010101
001010
001100
010000
,
110001
101010
011100
101000
010110
010000
010111
101100
,
010001
001100
000110
001000
001110
110001
100010
000100
,
001000
100000
011001
100010
110000
000010
001000
100000
,
010001
100010
011000
100010
001100
010000
010101
101010
,
010010
000110
001001
000100
000001
010010
011000
100000
,
010000
000001
011010
100100
011000
100000
001000
000001
,
001010
010100
101000
010000
001000
000001
001010
100100
,
011000
100000
001000
000001
001010
100100
011000
000100
,
000010
001000
011001
100010
011000
000100
000010
001000
,
010001
100010
011000
100100
001010
011000
010101
101100
,
010010
011000
000110
001100
100011
001100
100001
010000
,
000010
000100
101001
010010
100000
010000
000010
001000
,
000101
001010
110000
001000
000010
010000
000101
001010
,
010000
001000
000010
010000
001101
110000
000010
000100
,
100000
000010
001101
110000
000011
000100
100000
000001
,
001010
110000
000010
000100
100000
000001
001010
110000
,
000010
000100
100000
000001
001010
110000
010100
101000
,
010000
001000
010101
100010
001100
100000
010000
001000
,
000101
010010
001000
100000
010000
101000
100100
000010
,
100000
000011
100101
100110
101010
101100
111111
000100
,
100100
010011
000100
010100
001011
100000
101000
000111
,
010000
011000
000111
010000
010001
010000
101010
000001
,
100001
011010
000001
010001
001110
100000
100100
011010
,
100000
100100
011010
000100
000101
000100
101001
000100
,
100100
011001
000010
010010
001101
100000
110000
001101
,
010000
010100
001011
010000
010001
010000
101100
000001
,
100001
011100
000001
010001
001110
100000
101000
010110
,
100000
100100
011010
100000
100001
100000
001101
010000
,
010001
001110
000001
000011
011100
100000
100100
011010
,
000001
000000
000101
000000
011010
000000
100000
000000
110011
000100
110000
000100
101011
000000
010000
000000
,
010010
001101
000010
000110
011001
100000
110000
001101
,
000010
010010
101001
000010
010011
001010
110101
000001
,
001001
110100
000010
010010
101100
000001
000011
101100
,
010000
000000
011000
000000
100101
000000
010000
000000
010011
000100
001000
010000
001111
000000
100000
000000
,
100001
010110
000001
000011
011100
100000
101000
010110
,
000001
000000
001001
000000
110100
000000
000001
000000
000001
000000
010001
001000
100100
000010
000001
000000
,
110000
001000
000100
000010
100001
000000
000000
000000
110000
001000
000100
000010
100001
000000
000000
000000
,
110000
001000
000100
000010
100001
000100
000010
000100
100001
000010
000100
001000
110000
000000
000000
000000
,
110000
001000
000100
000010
100001
000000
000000
000000
110000
001000
000100
000010
100001
000000
000000
000000
,
110000
001000
000100
000010
100001
001000
000010
001000
100001
000010
000100
001000
110000
000000
000000
000000
,
110000
001000
000100
000010
100001
000100
010000
001000
110000
000100
001000
000100
100010
000100
000001
000010
,
100100
001000
010000
000001
100010
000100
010000
001000
100100
000010
001001
000100
100010
000000
100001
000010
,
100100
000010
101000
000001
100100
001000
100100
000010
100100
001000
100010
000100
110000
000110
110000
000110
,
110000
000110
110000
000110
110001
001000
110100
000010
111000
000100
110010
000001
111000
000100
001000
010000
,
000100
001000
010000
100000
010000
001000
000100
001000
010000
001000
000010
000100
000001
000000
001000
010000
,
100000
010000
001000
000100
000010
000000
001000
010000
001000
000001
100000
010000
000010
000000
010000
100000
,
001000
000100
000010
000000
100000
001000
010000
000100
001000
000100
000010
000000
000001
000010
000100
001000
,
010000
100000
010000
001000
000100
001000
010000
100000
000100
010000
100000
010000
001000
000000
100000
001000
,
010000
001000
000100
000010
000001
100000
000010
000000
001000
010000
000100
000010
000001
000000
001000
010000
,
100000
001000
000100
000010
000001
000000
100000
000010
010000
001000
000100
000010
000001
000000
001000
000010
,
100000
010000
001000
000100
000010
000000
001000
100000
010000
001000
000010
000001
001000
000000
100000
010000
,
001000
000100
000010
001000
000101
000000
001110
000000
110100
000000
011010
000000
111000
000000
010000
001000
,
000100
000010
000001
010000
000100
000010
111000
000000
010110
000000
001101
000000
100000
001000
000001
000010
,
000100
010000
001000
000010
010000
000010
101100
000000
000111
000000
011100
000000
100000
010000
000100
000010
,
000001
000100
001000
010000
001000
100000
001101
000000
001110
000000
010110
000000
000001
000010
000100
000010
,
000100
001000
010000
100000
000111
000000
001101
000000
011010
000000
011100
000000
000010
000000
000000
100000
,
010000
001000
000100
000010
001101
000000
011010
000000
011100
000000
101100
000000
000010
000000
000000
100000
,
010000
001000
000100
000010
001101
000000
001110
000000
011100
000000
111000
000000
000001
000010
000100
001000
,
000010
000100
001000
010000
100000
001000
010101
000000
110100
000000
001110
000000
000100
001000
000100
000000
,
100001
000000
000000
000000
000100
001000
000100
001000
000100
001000
000100
001000
100111
010000
000100
000010
,
000100
001000
010000
001000
000100
001000
010000
100000
010000
001000
000100
000010
000001
000100
000010
001000
,
000100
010000
001000
100000
010000
001000
000100
000010
000001
001000
000010
010000
100000
000000
010000
000100
,
001000
000100
000010
000001
000010
000100
001000
010000
001000
000010
000001
000100
000001
000010
000100
001000
,
000010
000100
001000
010000
100000
010000
001000
000100
001000
010000
001000
000100
000010
000001
000010
000100
,
001000
010000
100000
010000
001000
000100
001000
010000
001000
000100
010000
001000
000100
000010
000001
000010
,
000100
001000
000100
000010
000100
001000
010000
100000
000001
000010
000100
001000
100000
010000
001000
000100
,
001000
000100
000010
001000
100000
010000
001000
000100
001000
000100
000010
001000
000111
111000
000111
111000
,
000111
111000
000111
111000
000111
111000
000111
111000
000111
111000
000111
011000
100110
010000
001000
000100
,
001000
000010
000001
000010
000100
010000
000100
000001
000010
001000
000100
001000
010000
100000
010000
001000
,
000100
000010
000001
001000
100000
010000
001000
000100
000010
000001
100000
001000
000100
100000
000100
100000
,
000010
000100
100000
000100
100000
010000
001000
000100
001010
010000
000100
000010
001001
000010
000100
000010
,
010100
001000
000100
001000
110000
001000
010000
100000
011000
100000
001000
000100
010001
000100
000010
001000
,
000100
000010
010001
100000
001010
000100
010000
001000
000100
000010
001000
010000
100010
000001
000100
001000
,
010000
000100
001010
100000
010001
001000
000100
000010
100001
000010
010100
001000
010010
100000
001000
010000
,
100100
001000
100000
001000
010010
000100
001000
010000
100001
010000
001000
100000
001001
000010
000100
001000
,
010010
000100
001000
010000
001001
000100
001000
010000
100010
001000
010000
100000
021111
000000
000000
000000
,
000000
000000
000000
000000
,
000000
000000
000000
030000
;

//---------------dance-solo - ----------------
#NOTES:
     dance-solo:
     :
     Easy:
     1:
     0.000,0.000,0.000,0.000,0.000,0.000,0.000,0.000,0.000,0.000:
000000
000000
000000
000000
;

//---------------dance-single - Patashu 16/09/2009----------------
#NOTES:
     dance-single:
     Patashu 16/09/2009:
     Challenge:
     14:
     1.000,1.000,1.000,0.053,1.000,1363.000,740.000,8.000,7.000,177.000:
0000
0000
0000
0000
,
0000
0000
0000
0000
,
0000
0000
0000
0000
,
1111
0000
1001
0001
0110
0001
1101
0000
,
0011
0001
0100
0001
0011
0000
0101
0001
,
0010
0001
1101
0000
0111
0001
1100
0001
,
0011
0000
1001
0001
0010
0001
1101
0100
,
1111
1000
0100
1000
1011
0000
1110
1000
,
0010
1000
1100
0000
1010
1000
0100
1000
,
1001
0000
1110
1000
0011
1000
1111
0001
,
1100
0000
1001
0000
0121
0000
0000
0000
0130
0001
1000
0000
0011
0000
0001
0010
,
1101
0000
1110
0010
0101
0010
1110
0000
,
0111
0100
1010
0100
0111
0000
1110
0010
,
0101
0010
1110
0000
1101
1000
0110
1000
,
1111
0000
1011
0001
0110
0001
1011
0000
,
1101
1001
1010
1001
0111
0100
0111
0101
,
1010
1001
1101
1000
0111
0101
1100
0101
,
1111
0010
1110
0110
0101
1001
1011
0001
,
0020
1101
MM0M
0000
1M00
010M
M100
0M01
,
1131
0000
0011
1100
0011
1000
0110
0001
1010
0101
1000
0001
1110
0001
0100
1010
,
0101
0000
0100
0010
0101
0010
1000
0011
1000
0101
0010
0100
1001
0010
0100
1001
,
0110
0000
1010
0100
1010
0100
0011
0000
1010
0001
1100
0010
1001
0100
1000
0010
,
1100
0000
0101
1010
0101
1010
0001
1000
0101
0010
0100
1001
0010
1000
0100
0010
,
1101
0000
1000
0101
0010
1100
0011
1000
0101
1000
0001
1010
0101
1000
0110
0001
,
1110
0010
0100
1000
0011
0100
1001
0010
0100
0000
1000
0000
0101
0010
1000
0110
,
1001
0010
0100
1010
0101
0010
0001
1100
0011
0100
1000
0000
1101
0010
0001
1100
,
0001
0110
1001
0010
1101
0010
0100
0010
0001
0010
0101
1000
0011
0100
0010
1000
,
0111
0000
1000
0011
1100
0010
0101
0000
0110
1000
0010
1001
0110
1001
0100
0010
,
1001
0110
0001
0100
1000
0010
0001
1000
0111
0000
0100
1001
0010
1100
0011
0000
,
1011
0100
1000
0110
0001
0000
1011
0100
1001
0010
0100
1000
0111
1000
0011
0100
,
0010
0100
1001
0110
1001
0100
0001
0110
0001
0110
0001
0100
0011
0000
0100
0010
,
1100
0000
0001
0010
0101
1000
0101
1010
0100
1001
0010
0100
1011
0100
1000
0010
,
1100
0000
0101
0010
0101
1000
0010
0000
0101
0010
1001
0100
0011
1000
0110
1000
,
0111
1000
0001
1100
0011
1000
0101
0010
1001
0010
0100
1001
0110
1000
0001
0010
,
0101
0000
0000
0000
0000
0000
0000
0000
0000
0000
0000
0000
1000
0000
0000
0000
0000
0000
0000
0000
0000
0000
0000
0000
0110
0000
0000
0000
0000
0000
0000
0000
0000
0000
0000
0000
1001
0000
0000
0000
0000
0000
0000
0000
0000
0000
0000
0000
0010
0000
0000
0000
0000
0000
0000
0000
0000
0000
0000
0000
0101
0000
0000
0000
0000
0000
0000
0000
0000
0000
0000
0000
1000
0000
0000
0000
0000
0000
0000
0000
0000
0000
0000
0000
0010
0000
0000
0000
0000
0000
0000
0000
0000
0000
0000
0000
1101
0000
0000
0000
0000
0000
0000
0000
0000
0000
0000
0000
0000
0000
0000
0000
0000
0000
0010
0000
0000
0000
0000
0000
0000
0000
0000
0000
0000
0000
0000
0000
0000
0000
0000
0000
1001
0000
0000
0000
0000
0000
0000
0000
0000
0000
0000
0000
0100
0000
0000
0000
0000
0000
0000
0000
0000
0000
0000
0000
0000
0000
0000
0000
0000
0000
0000
0000
0000
0000
0000
0000
0010
0000
0000
0000
0000
0000
0000
0000
1000
0000
0000
0000
0000
0000
0000
0000
0000
0000
0000
0000
0000
0000
0000
0000
,
0101
0000
0000
1000
0010
0000
1100
0000
0000
0001
0100
0000
1000
0000
0000
0010
1000
0000
0101
0000
0000
1000
0001
0000
,
0110
0000
0000
0010
0100
0000
1000
0000
0000
0010
0100
0000
0011
0000
0000
1000
0001
0000
1010
0000
0000
0001
0010
0000
,
0100
0000
0000
0010
1000
0000
0101
0000
0000
1000
0010
0000
1001
0000
0000
0010
0001
0000
1100
0000
0000
0010
0100
0000
,
1011
0000
0000
0100
0001
0000
1110
0000
0000
0010
0100
0000
1001
0000
0000
0110
1000
0000
0111
0000
0000
0110
0001
0000
,
1101
0000
0000
1100
0001
0000
1010
0000
0000
0001
1000
0000
0111
0000
0000
1000
0010
0000
1101
0000
0000
0010
0100
0000
,
1002
0000
0000
0010
1000
0000
0110
0000
0000
1000
0010
0000
1100
0000
0000
0013
0100
0000
1010
0000
0000
0010
0100
0000
,
0011
0000
0000
0100
0001
0000
1010
0000
0000
1000
0010
0000
1100
0000
0000
0010
0100
0000
1001
0000
0000
0100
0001
0000
,
0110
0000
0000
1000
0010
0000
0101
0000
0000
0010
0100
0000
1011
0000
0000
0010
0001
0000
0111
0000
0000
1000
0100
0000
,
1001
0000
0000
0010
0100
0000
1011
0000
0000
1100
0001
0000
0110
0000
0000
1010
0100
0000
0101
0000
0000
0010
0100
0000
,
1001
0000
0000
0011
0100
0000
1110
0000
0000
0001
1000
0000
0100
0000
0000
0010
1000
0000
0101
0000
0000
0010
0001
0000
,
1110
0000
0000
0001
0010
0000
1100
0000
0000
0100
1000
0000
0110
0000
0000
0001
0100
0000
1011
0000
0000
0010
0100
0000
,
1001
0000
0000
0100
1000
0000
0110
0000
0000
0001
0010
0000
1100
0000
0000
0010
0001
0000
1210
0000
0000
0010
1000
0000
,
0011
0000
0000
1000
0001
0000
2311
0000
0000
3001
0010
0000
1100
0000
0000
0010
1000
0000
0101
0000
0000
1000
0001
0000
,
0110
0000
0000
0001
1000
0000
0110
0000
0000
0010
1000
0000
0111
0000
0000
1000
0001
0000
1110
0000
0000
0001
0100
0000
,
0011
0000
0000
0100
0010
0000
1101
0000
0000
0001
0010
0000
1101
0000
0000
1000
0100
0000
0011
0000
0000
0100
1000
0000
,
0011
0000
0000
0000
0000
0000
0100
0000
0000
0000
0000
0000
0000
0000
0000
0000
0000
0000
0000
0000
0000
1000
0000
0000
0100
0000
0000
0000
0000
0000
0000
0000
0001
0000
0000
0000
0000
0000
0000
0000
0000
0000
0000
0000
0000
0000
0000
0000
1111
0000
0000
0000
0000
0000
0000
0000
0000
0000
0000
0000
0000
0000
0000
0000
0000
0000
0000
0000
0000
0001
0000
0000
1000
0000
0000
0000
0000
0000
0000
0000
0100
0000
0000
0000
0000
0000
0000
0000
0000
0000
0000
0000
0000
0000
0000
0000
0010
0000
0000
0000
0000
0000
0000
0000
0000
0000
0000
0000
0000
0000
0000
0000
0000
0000
0000
0000
0000
0000
0000
0000
0100
0000
0000
0000
0000
0000
0000
0000
1000
0000
0000
0000
0000
0000
0000
0000
0000
0000
0000
0000
0000
0000
0000
0000
0011
0000
0000
0000
0000
0000
0000
0000
0000
0000
0000
0000
0000
0000
0000
0000
0000
0000
0000
0000
0000
0000
0000
0000
0100
0000
0000
0000
0000
0000
0000
0000
0001
0000
0000
0000
0000
0000
0000
0000
0000
0000
0000
0000
0000
0000
0000
0000
,
1120
0000
0000
1000
0001
0000
0130
0000
0000
0010
0100
0000
1001
0000
0000
0010
0001
0000
1100
0000
0000
1000
0010
0000
,
0100
0000
0000
0010
0100
0000
1001
0000
0000
0010
1000
0000
0111
0000
0000
1000
0001
0000
0110
0000
0000
0100
1000
0000
,
0101
0000
0000
1000
0010
0000
0111
0000
0000
0001
1000
0000
0110
0000
0000
0100
0010
0000
1101
0000
0000
0100
0001
0000
,
1110
0000
0000
0101
1000
0000
0012
0000
0000
1000
0100
0000
1013
0000
0000
0100
0001
0000
1110
0000
0000
0011
1000
0000
,
0100
0000
0000
1000
0001
0000
0110
0000
0000
0100
1000
0000
0011
0000
0000
0001
1000
0000
1100
0000
0000
0001
0100
0000
,
1011
0000
0000
0010
1000
0000
0101
0000
0000
1000
0010
0000
1001
0000
0000
0001
0010
0000
1100
0000
0000
0010
1000
0000
,
0101
0000
0000
1000
0100
0000
0021
0000
0000
0000
0000
0000
0000
0000
0000
1001
0000
0000
1100
0000
0000
0000
0000
0000
,
1131
0000
0011
0000
0111
0000
1110
0000
1101
0000
1111
0000
1110
0000
0011
0100
,
1010
0000
0111
0000
1001
0000
0011
0000
1110
0000
1001
0100
0011
1000
0111
0000
,
0110
0000
1010
0000
1101
0000
1010
0100
1011
0000
0101
0000
1110
0000
0101
0010
,
1100
0000
0111
0000
1001
0000
1100
0000
1011
0000
0101
1000
0110
0000
1011
0000
,
0110
0001
1100
0000
0111
0000
0110
0001
1110
0000
1100
0001
1110
0000
1001
0010
,
1100
0000
1011
0000
1100
0000
0110
0000
1110
0000
1010
0100
0011
0000
1011
0100
,
1001
0100
0011
0000
1101
0000
1010
0100
1011
0000
1100
0000
1110
0000
0101
1000
,
0011
0000
1101
0000
1001
0010
0101
0000
1110
0000
0110
0001
1010
0000
0111
0000
,
1010
0000
1100
0000
0111
1000
0011
0000
1110
0001
1100
0010
1101
0000
0101
1000
,
0011
0000
1011
0000
0110
0000
1001
0000
1101
0000
0011
1000
0110
0001
1110
0000
,
1100
0010
1001
0000
0111
0000
0011
0100
1011
0100
1001
0010
1101
0000
0011
0100
,
1010
0000
1101
0000
0101
0010
1100
0010
1101
0000
0110
0001
1100
0000
1110
0000
,
0110
1000
0011
0000
0111
0000
1100
0010
1101
0000
0110
0000
1011
0000
0011
1000
,
0110
0000
1011
0000
1100
0001
0110
0000
0111
0000
0101
1000
0110
0000
1011
0000
,
0110
0001
1010
0000
1101
0000
0110
0001
1110
0000
0011
0100
1011
0100
1010
0001
,
1100
0000
1011
0000
1100
0010
1001
0010
1101
0000
0011
0100
1010
0001
1110
0001
,
1100
0010
1001
0100
1011
0100
0011
1000
0111
1000
0011
0100
1011
0000
0110
0000
,
1010
1100
1010
0110
1101
0011
1011
0110
,
1010
0000
1100
0000
1001
0000
1010
0000
0110
1000
0011
0000
1101
0000
0110
0000
,
1100
0110
0011
1010
1101
0110
1011
0101
,
0110
1010
1100
0101
1001
1100
1111
0101
,
1001
1010
1100
0110
0111
1001
1110
0110
,
1010
1100
0110
1010
1100
1011
1111
1011
,
1011
0000
1011
0000
1101
0000
1101
0000
1101
0010
1101
0000
1111
0000
0010
0100
,
1001
0010
0100
1001
0100
1001
0010
0100
1001
0110
1001
0110
1001
0010
1100
0011
,
1100
0010
1001
0100
1010
0101
1010
0001
1100
0010
0100
1001
0110
0000
1000
0010
,
1001
0010
0100
1001
0110
1001
0100
1000
0101
0010
0100
1010
0101
0000
1100
0011
,
1100
0010
1001
0100
0011
1000
0110
1000
0011
1000
0100
1000
0011
0000
1001
0110
,
1001
0110
1000
0000
0011
1000
0001
1010
0101
1000
0101
0010
1100
0000
0110
1001
,
0100
1010
0101
0010
1100
0010
0001
1100
0011
0100
1010
0001
0110
0010
1000
0100
,
1010
0001
1010
0001
1100
0011
1000
0100
1001
0010
0100
1001
0110
1001
0100
0010
,
0101
0010
0101
1000
0011
0100
1010
0000
1110
0001
1100
0001
1010
0101
1010
0001
,
1100
0010
0001
1100
0111
0000
1110
0000
0111
0000
1110
0000
1101
0010
1001
0110
,
1001
0100
1001
0010
1101
0000
1010
0100
1011
0100
1001
0000
1011
0011
1000
0110
,
0001
0010
1000
0100
1011
0000
0110
0001
1110
0001
1100
0000
0111
1000
0110
1001
,
0100
0010
1101
0010
1101
0000
0011
0000
1111
0000
1110
0000
0001
0010
0101
1010
,
0101
1010
0001
1100
0011
1000
0101
0000
0111
0000
1110
0000
1001
0010
0100
0001
,
1100
0010
1001
0110
1001
0100
0011
0000
1111
0000
1010
0000
0011
1100
0011
1000
,
0101
0010
0100
1000
0111
0000
1110
0000
1011
0000
1101
0000
0011
1000
0100
1010
,
0101
0010
1001
0100
0011
0100
0011
1000
0111
0000
1100
0000
1101
0010
1001
0110
,
1001
0110
0010
0001
1100
0011
1100
0011
1001
0100
1010
0001
1111
0000
1100
0011
,
1100
0010
0101
1010
0100
1001
0110
0001
0110
1000
0010
0101
1010
0001
0100
0001
,
1100
0010
0100
1010
0001
1010
0100
0010
1001
0100
0010
1001
0110
1000
0011
1000
,
0110
0001
1010
0100
0011
1000
0110
0001
0110
1000
0010
0100
1001
0010
0101
1010
,
0101
1010
0001
1000
0101
0010
1100
0011
1100
0001
1010
0001
1010
0100
1010
0101
,
1010
0100
1001
0100
0011
0100
0010
1001
0110
1000
0101
0010
0101
1000
0001
0100
,
0011
1000
0101
0010
1001
0100
0011
1000
0110
1000
0011
1100
0011
0100
1001
0110
,
1001
0100
0011
1100
0010
0100
0010
0001
1010
0100
1010
0001
0110
1001
0110
1001
,
0110
1000
0110
1001
0110
0001
1100
0011
1100
0011
1100
0011
1111
0100
1010
0101
,
1010
0100
0011
0100
1001
0010
0100
1001
0010
1100
0001
0100
1001
0010
1100
0011
,
0100
1000
0011
0100
1001
0010
1100
0011
1000
0101
1010
0100
1001
0010
0101
1010
,
0101
1000
0110
1000
0011
1000
0101
1000
0011
1000
0110
1000
0011
0100
1001
0110
,
1001
0110
0001
1100
0001
1100
0010
1000
0101
0010
1000
0110
1001
0010
0100
0010
,
1001
0010
1001
0110
0001
1010
0100
1000
0011
0100
0001
1010
0101
1000
0110
1000
,
0011
1000
0100
0010
1001
0010
0101
1000
0011
0100
1001
0100
0011
0100
0011
1100
,
0011
1000
0101
1000
0101
0010
0001
1100
0011
1000
0100
1000
0011
1100
0011
1100
,
0101
1010
0101
1010
1001
0110
1001
0110
0101
1010
0110
1001
1110
0000
0000
0000
;
