#TITLE:Marble Garden Zone Act 2;
#SUBTITLE:;
#ARTIST:Sonic Team;
#TITLETRANSLIT:;
#SUBTITLETRANSLIT:;
#ARTISTTRANSLIT:;
#CREDIT:;
#BANNER:../BN.png;
#BACKGROUND:;
#LYRICSPATH:;
#CDTITLE:../CDTitleOV1.png;
#MUSIC:Sonic The Hedgehog 3 & Knuckles Marble Garden Zone Act 2.ogg;
#OFFSET:-0.040;
#SAMPLESTART:52.174;
#SAMPLELENGTH:29.999;
#SELECTABLE:YES;
#BPMS:0.000=228.460,484.000=114.230;
#STOPS:;
#BGCHANGES:;
// cache tags:
#FIRSTBEAT:28.000;
#LASTBEAT:484.000;
#SONGFILENAME:Songs/owenviau1 Simfiles 07_final/Marble Garden Zone Act 2 - [Braeden + owenviau1] v1.0.1/Sonic The Hedgehog 3 & Knuckles Marble Garden Zone Act 2.sm.SM;
#HASMUSIC:1;
#HASBANNER:1;
#MUSICLENGTH:130.194;
// end cache tags

//---------------dance-single - ----------------
#NOTES:
     dance-single:
     :
     Challenge:
     31:
     1.000,1.000,0.092,0.046,1.000,1055.000,12.000,6.000,0.000,0.000:

0000
0000
0000
0000
,
0000
0000
0000
0000
,
0000
0000
0000
0000
,
0000
0000
0000
0000
,
0000
0000
0000
0000
,
0000
0000
0000
0000
,
0000
0000
0000
0000
,
1000
0000
0001
0100
0000
0000
0010
0000
0100
0000
0000
0010
,
0000
0000
1010
0000
,
1100
0000
0000
0000
0000
0000
1000
0100
0010
0001
0010
0100
1000
0000
0000
0000
0000
0000
0001
0010
0100
1000
0001
0000
,
0000
0010
1010
1000
,
0001
0000
0000
0000
0001
0000
0100
0010
1000
0001
0100
0010
1000
0000
0000
0000
0000
0000
1000
0001
0100
0010
1000
0010
,
0100
0000
0000
0000
0000
0000
0001
0100
0010
1000
0001
0100
0010
1000
0001
0100
0010
1000
0001
0000
0000
0000
0000
0000
,
1000
0001
0100
0010
1000
0001
0100
0000
0000
0000
0000
0000
0010
1000
0001
0100
0001
1000
0100
0010
0001
0010
0100
0000
,
0000
0100
0001
0100
,
0010
0000
1000
0010
0000
0000
0100
0000
0001
0000
0000
0100
,
0000
0000
1010
0000
,
1000
0000
0000
0000
0000
0000
0001
0100
0010
1000
0010
0100
0001
0000
0000
0000
0000
0000
0010
0100
1000
0100
0010
0000
,
0000
1000
0001
0100
,
0010
0000
0000
0000
1000
0100
0010
0001
0010
0100
1000
0010
0100
0000
0000
0000
0000
0000
0100
0001
0100
0010
1000
0000
,
0000
0000
0000
0000
0000
0000
0001
0100
0010
0000
0000
0000
1000
0010
0100
0000
0000
0000
0001
0100
0010
0000
0000
0000
,
1000
0100
0010
0001
0010
0100
1000
0001
0100
0010
1000
0100
0010
0001
0010
0100
1000
0001
0100
0010
1000
0100
0010
0001
,
0010
0100
1000
0001
0100
0010
1000
0001
0010
0100
1000
0001
0010
0000
0000
0000
0000
0000
0010
0000
0000
0000
0000
0000
,
0100
0000
1000
0100
0000
0000
0010
0000
0001
0000
0000
0100
,
0000
0000
1010
0000
,
1000
0000
0000
0000
0001
0000
0100
0000
0000
0000
0000
0000
0010
1000
0010
0000
0000
0000
1000
0000
0000
0000
0010
0000
,
0100
0001
0100
0000
0000
0000
0001
0000
0000
0000
0000
0000
0100
0001
0100
0000
0001
0000
0100
0000
0000
0000
0000
0000
,
0010
1000
0010
0100
0001
0100
0010
1000
0100
0010
0001
0100
0010
1000
0010
0100
0001
0100
0010
1000
0001
0100
0010
1000
,
0100
0010
0001
0010
0100
1000
0002
0000
0000
0000
0000
0000
0000
0000
0000
0000
0000
0000
0003
0000
0001
0010
0100
1000
,
0001
0000
0100
0010
0000
0000
1000
0000
0000
0001
0000
0100
,
0000
0010
1010
1000
,
0001
0000
0100
0010
0000
0000
1000
0000
0001
0000
0000
0100
,
0000
0000
0010
1000
0000
0010
0100
0000
0001
0000
0000
0010
,
0100
0000
0000
0000
1000
0000
0010
0000
0000
0000
0000
0000
0100
0001
0100
0000
0000
0000
0001
0000
0000
0000
0010
0000
,
0001
0010
0001
0000
0000
0000
0010
0000
0000
0000
0000
0000
0001
1000
0010
0000
0000
0000
0100
0000
0000
0000
0000
0000
,
1000
0100
0010
0001
0010
0100
1000
0001
0100
0010
1000
0100
0010
0001
0010
0100
1000
0001
0100
0010
1000
0100
0010
0001
,
1000
0000
0000
0000
0000
0000
0000
0000
0000
0000
0000
0000
1000
0100
0010
0001
1000
0100
0010
0001
1000
0100
0010
0001
,
0010
0100
1000
0001
0010
0100
1000
0001
0100
0010
1000
0010
0100
0001
0100
0010
1000
0001
0100
0010
1000
0010
0100
0000
,
0001
0000
0000
0000
0000
0000
0001
0010
0100
1000
0100
0010
0001
0100
0010
1000
0100
0010
0001
0100
0010
1000
0001
0100
,
0010
1000
0001
1000
0010
1000
0010
0100
0001
0100
0010
1000
0100
0010
0001
0010
0100
1000
0001
0100
0010
1000
0100
0010
,
0001
0100
0010
1000
0001
0100
0010
0000
0000
0000
0000
0000
0100
0000
0000
0000
0001
0000
0010
0000
0000
0000
0000
0000
,
0001
0010
0100
1000
0100
0010
0001
0100
0010
1000
0001
0100
0010
0000
0000
0000
0000
0000
0000
0000
0000
0000
0000
0000
,
0010
1000
0010
0100
,
0001
0010
0100
1000
0100
0010
0001
0100
0010
1000
0001
0100
0010
0000
0000
0000
0000
0000
0010
0000
0000
0000
1000
0000
,
0000
0010
0100
0001
,
1000
0100
0010
0001
0010
0100
1000
0001
0100
0010
1000
0100
0010
0000
0000
0000
0000
0000
0010
0000
0000
0100
0000
0000
,
0010
1000
0100
0010
,
0001
0100
0010
1000
0001
0100
0010
1000
0100
0010
0001
0010
0100
0000
0000
0000
0000
0000
1000
0000
0000
0000
0010
0000
,
0000
0100
0001
0010
,
0100
1000
0001
0100
0010
1000
0100
0010
0001
0010
0100
1000
0001
0000
0000
0000
0000
0000
0000
0000
0000
0000
0000
0000
,
0001
0000
0000
0100
0000
0000
0010
0000
1000
0010
0000
0000
,
0100
0001
0100
0010
1000
0001
0010
0100
1000
0100
0010
0001
0010
0000
0000
0000
0000
0000
0000
0000
0000
0000
0100
0000
,
0000
1000
0010
0100
,
0010
0001
0100
0010
1000
0100
0010
0001
0010
0100
1000
0001
0100
0000
0000
0000
0000
0000
0100
0000
0000
0010
0000
0000
,
0100
0001
0010
0100
,
1000
0000
0001
1000
0000
0000
0010
0000
0100
0000
0000
0001
,
0000
1000
0010
0100
,
0001
0000
0100
0010
0000
0000
1000
0000
0000
0010
0100
0000
,
0000
0001
0010
0100
,
1000
0000
0100
0010
0000
0000
0001
0100
0000
0000
0010
0000
,
0000
0000
1001
0000
,
0010
0000
0100
0010
0000
0000
1000
0000
0000
0001
0000
0010
,
0000
0100
1000
0100
,
0010
0000
0001
1000
0000
0000
0010
0000
0100
0000
0000
0001
,
0000
0000
1001
0000
,
1000
0000
0100
0010
0000
0001
0010
0000
0000
0100
0000
1000
,
0000
0001
0100
0100
,
0010
0000
0000
0000
0000
0000
1000
0010
0100
0001
0100
0010
1000
0000
0000
0000
0000
0000
0001
0010
0100
1000
0010
0000
,
0000
0000
0000
0000
0000
0000
0100
1000
0100
0000
0000
0000
0010
0001
1000
0000
0000
0000
0010
1000
0001
0100
0010
1000
,
0001
0010
0100
1000
0001
0010
0100
0000
0000
0000
0000
0000
1000
0000
0000
0000
0000
0000
0100
0000
0000
0000
0010
0000
,
0000
0001
0001
0100
,
0010
0000
1000
0010
0000
0000
0100
0000
0001
0000
0000
0010
,
0000
0000
1001
0000
,
1000
0000
0000
0000
0000
0000
0001
0100
0010
1000
0001
0100
0001
0000
0000
0000
0000
0000
0100
0010
1000
0001
0100
0000
,
0000
1000
0001
0010
,
0100
0000
0000
0000
1000
0100
0010
0001
0010
0100
1000
0100
0010
0000
0000
0000
0000
0000
1000
0010
0100
0001
0010
0000
,
0000
0100
0010
1000
,
0010
0000
0100
0010
0000
0000
1000
0000
0000
0001
0000
0020
,
0000
0130
1000
0100
,
0010
0000
0100
1000
0000
0000
0200
0000
0000
0000
0000
0310
,
0000
0000
0011
0000
,
0001
0000
0000
0000
0000
0000
0000
0000
0000
0000
0000
0000
1000
0010
1000
0000
0000
0000
0000
0000
0000
0000
0000
0000
,
0010
0100
0010
0000
0000
0000
0000
0000
0000
0000
0000
0000
0100
0010
0100
0000
0000
0000
0000
0000
0000
0000
0000
0000
,
0001
0010
0100
1000
0100
0010
0001
1000
0010
0100
0001
0100
0010
1000
0100
0010
0001
0010
0100
1000
0001
0100
0010
1000
,
0001
0100
0010
1000
0100
1000
0020
0000
0000
0000
0000
0000
0000
0000
0000
0000
0000
0000
0030
0000
1000
0010
0100
0001
,
0100
0000
0010
1000
0000
0000
0100
0000
0000
1000
0000
0010
,
0000
0100
0010
0100
,
1000
0100
0000
1000
0000
0000
0001
0000
0100
0000
0000
0001
,
0000
0000
1000
0010
0000
0100
0010
0000
1000
0100
0000
0010
,
0001
0000
0000
0000
0100
0000
0001
0000
0000
0000
0000
0000
0100
0010
1000
0000
0000
0000
0000
0000
0000
0000
0000
0000
,
0010
0100
0001
0000
0000
0000
0000
0000
0000
0000
0000
0000
1000
0001
0100
0000
0000
0000
0000
0000
0000
0000
0000
0000
,
0001
0010
0100
1000
0100
0010
0001
1000
0010
0100
0001
1000
0100
0010
0001
0010
0100
1000
0001
0100
0010
1000
0100
0010
,
0001
0010
0100
1000
0001
0100
0010
1000
0100
0010
0001
1000
0010
0100
0001
0100
0010
1000
0100
0010
0001
0100
0010
1000
,
0001
0100
0010
1000
0100
0010
0001
0010
0100
1000
0001
0100
0010
1000
0100
0010
0001
1000
0100
0010
0100
1000
0001
0100
,
0010
1000
0100
0010
0001
0010
0100
1000
0001
0100
0010
1000
0100
0010
0001
0100
0010
1000
0100
0010
0100
1000
0001
0100
,
0010
1000
0001
0100
0010
1000
0100
0010
0001
0010
0100
1000
0001
0100
0010
1000
0100
1000
0001
0010
0001
1000
0010
1000
,
0001
0100
0001
1000
0010
1000
0100
0010
0001
0010
0100
1000
0001
0100
0010
1000
0100
0010
0001
0010
0100
1000
0001
0100
,
0010
1000
0001
0100
0010
1000
0100
0010
0001
0010
0100
1000
0001
0100
0010
1000
0100
0010
0001
0010
0100
1000
0001
0100
,
0010
0010
1000
0100
,
0010
0001
0100
0010
1000
0100
0010
0001
0010
0100
1000
0001
0100
0010
1000
0100
0010
0001
0010
0100
1000
0001
0100
0010
,
1000
0001
0001
0100
,
0010
1000
0001
0100
0010
1000
0100
0010
0001
0010
0100
1000
0001
0100
0010
1000
0100
0010
0001
0100
0010
1000
0001
0000
,
1000
0010
0100
0010
,
1000
0000
0010
1000
0000
0000
0010
0000
0100
0000
0000
0001
,
0000
0010
0010
0010
,
0100
1000
0100
0010
0001
0010
0100
1000
0001
0100
0010
1000
0010
0100
0001
0100
0010
1000
0100
0000
0000
0000
0000
0000
,
0010
0000
0000
0100
0000
0000
0010
0000
0010
1000
0000
0000
,
0001
0100
0010
1000
0001
0100
0010
0000
0000
0000
0000
0000
0010
0000
0000
0000
1000
0000
0000
0000
0000
0000
0100
0000
,
0000
0010
0010
0010
,
1000
0100
0010
0001
0010
0100
1000
0001
0100
0010
1000
0010
0100
0001
0100
0010
1000
0100
0010
0000
0000
0000
0010
0000
,
0001
0100
0010
1000
,
0010
0000
0000
0100
0010
0000
1000
0000
0001
0000
0000
0010
,
0000
0100
1000
0100
,
0010
0000
0001
0010
0000
0000
0100
0000
0000
1000
0000
0001
,
0000
0100
0010
1000
,
0010
0000
0100
0010
0000
0000
1000
0000
0001
0000
0000
0010
,
0000
0000
1100
0000
,
0001
0000
0100
0001
0000
0000
1000
0000
0010
0000
0000
0100
,
0000
0001
0010
0100
,
1000
0000
0100
0010
0000
0000
0001
0000
0100
0000
0000
0010
,
0000
0000
2002
0000
,
3003
0000
0000
0000
;

//---------------dance-single - ----------------
#NOTES:
     dance-single:
     :
     Hard:
     23:
     0.849,1.000,0.169,0.092,1.000,740.000,22.000,12.000,0.000,0.000:
0000
0000
0000
0000
,
0000
0000
0000
0000
,
0000
0000
0000
0000
,
0000
0000
0000
0000
,
0000
0000
0000
0000
,
0000
0000
0000
0000
,
0000
0000
0000
0000
,
1000
0000
0001
0100
0000
0000
0010
0000
0100
0000
0000
0010
,
0000
0000
1010
0000
,
1100
0000
0000
0000
0000
0000
1000
0100
0010
0001
0010
0100
1000
0000
0000
0000
0000
0000
0001
0010
0100
1000
0001
0000
,
0000
0010
1010
1000
,
0001
0000
0000
0000
0001
0000
0100
0010
1000
0001
0100
0010
1000
0000
0000
0000
0000
0000
1000
0001
0100
0010
1000
0010
,
0100
0000
0000
0000
0000
0000
0001
0100
0010
1000
0001
0100
0010
1000
0001
0100
0010
1000
0001
0000
0000
0000
0000
0000
,
1000
0001
0100
0010
1000
0001
0100
0000
0000
0000
0000
0000
0010
1000
0001
0100
0001
1000
0100
0010
0001
0010
0100
0000
,
0000
0100
0001
0100
,
0010
0000
1000
0010
0000
0000
0100
0000
0001
0000
0000
0100
,
0000
0000
1010
0000
,
1000
0000
0000
0000
0000
0000
0001
0100
0010
1000
0010
0100
0001
0000
0000
0000
0000
0000
0010
0100
1000
0100
0010
0000
,
0000
1000
0001
0100
,
0010
0000
0000
0000
1000
0100
0010
0001
0010
0100
1000
0010
0100
0000
0000
0000
0000
0000
0100
0001
0100
0010
1000
0000
,
0000
0000
0000
0000
0000
0000
0001
0100
0010
0000
0000
0000
1000
0010
0100
0000
0000
0000
0001
0100
0010
0000
0000
0000
,
1000
0000
0001
0100
0000
0000
1010
0000
0000
1000
0000
0001
,
0000
1000
1100
0010
,
0100
0000
1000
0100
0000
0000
0010
0000
0001
0000
0000
0100
,
0000
0000
1010
0000
,
1000
0000
0000
0000
0001
0000
0100
0000
0000
0000
0000
0000
0010
1000
0010
0000
0000
0000
1000
0000
0000
0000
0010
0000
,
0100
0001
0100
0100
,
0101
0000
0001
0100
0000
0000
0010
0000
1000
0000
0000
0000
,
1001
0000
0000
0000
0000
0000
0002
0000
0000
0000
0000
0000
0000
0000
0000
0000
0000
0000
0003
0000
0001
0010
0100
1000
,
0001
0000
0100
0010
0000
0000
1000
0000
0000
0001
0000
0100
,
0000
0010
1010
1000
,
0001
0000
0100
0010
0000
0000
1000
0000
0001
0000
0000
0100
,
0000
0000
0010
1000
0000
0010
0100
0000
0001
0000
0000
0010
,
0100
0000
1000
0010
0000
0000
0100
0000
0000
0001
0000
0010
,
0001
0000
0000
0000
0000
0000
0010
0000
0000
0000
0000
0000
0001
1000
0010
0000
0000
0000
0100
0000
0000
0000
0000
0000
,
0010
0000
1000
0010
0000
0000
0100
0000
0001
0000
0000
1000
,
0000
0000
1001
0000
,
0001
0000
0100
0010
0000
0000
1001
0000
0000
1000
0000
0001
,
0000
0010
0100
0010
,
1000
0000
0001
0100
0000
0000
0010
0000
1000
0000
0000
0001
,
0000
0000
0000
0010
0000
0000
0100
0000
0001
0010
0000
0000
,
0001
0010
0100
1000
0100
0010
0001
0100
0010
1000
0001
0100
0010
0000
0000
0000
0000
0000
0000
0000
0000
0000
0000
0000
,
0010
1000
0010
0100
,
0001
0010
0100
1000
0100
0010
0001
0100
0010
1000
0001
0100
0010
0000
0000
0000
0000
0000
0010
0000
0000
0000
1000
0000
,
0000
0010
0100
0001
,
1000
0100
0010
0001
0010
0100
1000
0001
0100
0010
1000
0100
0010
0000
0000
0000
0000
0000
0010
0000
0000
0100
0000
0000
,
0010
1000
0100
0010
,
0001
0100
0010
1000
0001
0100
0010
1000
0100
0010
0001
0010
0100
0000
0000
0000
0000
0000
1000
0000
0000
0000
0010
0000
,
0000
0100
0001
0010
,
0100
1000
0001
0100
0010
1000
0100
0010
0001
0010
0100
1000
0001
0000
0000
0000
0000
0000
0000
0000
0000
0000
0000
0000
,
0001
0000
0000
0100
0000
0000
0010
0000
1000
0010
0000
0000
,
0100
0001
0100
0010
1000
0001
0010
0100
1000
0100
0010
0001
0010
0000
0000
0000
0000
0000
0000
0000
0000
0000
0100
0000
,
0000
1000
0010
0100
,
0010
0001
0100
0010
1000
0100
0010
0001
0010
0100
1000
0001
0100
0000
0000
0000
0000
0000
0100
0000
0000
0010
0000
0000
,
0100
0001
0010
0100
,
1000
0000
0001
1000
0000
0000
0010
0000
0100
0000
0000
0001
,
0000
1000
0010
0100
,
0001
0000
0100
0010
0000
0000
1000
0000
0000
0010
0100
0000
,
0000
0001
0010
0100
,
1000
0000
0100
0010
0000
0000
0001
0100
0000
0000
0010
0000
,
0000
0000
1001
0000
,
0010
0000
0100
0010
0000
0000
1000
0000
0000
0001
0000
0010
,
0000
0100
1000
0100
,
0010
0000
0001
1000
0000
0000
0010
0000
0100
0000
0000
0001
,
0000
0000
1001
0000
,
1000
0000
0100
0010
0000
0001
0010
0000
0000
0100
0000
1000
,
0000
0001
0100
0100
,
0010
0000
0000
0000
0000
0000
1000
0010
0100
0001
0100
0010
1000
0000
0000
0000
0000
0000
0001
0010
0100
1000
0010
0000
,
0000
0000
0000
0000
0000
0000
0100
1000
0100
0000
0000
0000
0010
0001
1000
0000
0000
0000
0010
1000
0001
0100
0010
1000
,
0001
0010
0100
1000
0001
0010
0100
0000
0000
0000
0000
0000
1000
0000
0000
0000
0000
0000
0100
0000
0000
0000
0010
0000
,
0000
0001
0001
0100
,
0010
0000
1000
0010
0000
0000
0100
0000
0001
0000
0000
0010
,
0000
0000
1001
0000
,
1000
0000
0000
0000
0000
0000
0001
0100
0010
1000
0001
0100
0001
0000
0000
0000
0000
0000
0100
0010
1000
0001
0100
0000
,
0000
1000
0001
0010
,
0100
0000
0000
0000
1000
0100
0010
0001
0010
0100
1000
0100
0010
0000
0000
0000
0000
0000
1000
0010
0100
0001
0010
0000
,
0000
0100
0010
1000
,
0010
0000
0100
0010
0000
0000
1000
0000
0000
0001
0000
0020
,
0000
0130
1000
0100
,
0010
0000
0100
1000
0000
0000
0200
0000
0000
0000
0000
0310
,
0000
0000
0011
0000
,
0001
0000
0000
0000
0000
0000
0000
0000
0000
0000
0000
0000
1000
0010
1000
0000
0000
0000
0000
0000
0000
0000
0000
0000
,
0010
0100
0010
0000
0000
0000
0000
0000
0000
0000
0000
0000
0100
0010
0100
0000
0000
0000
0000
0000
0000
0000
0000
0000
,
0001
0000
0100
0010
0000
0000
1000
0000
0001
0000
0000
0100
,
0000
0000
0000
0000
0000
0000
0020
0000
0000
0000
0000
0000
0000
0000
0000
0000
0000
0000
0030
0000
1000
0010
0100
0001
,
0100
0000
0010
1000
0000
0000
0100
0000
0000
1000
0000
0010
,
0000
0100
0010
0100
,
1000
0100
0000
1000
0000
0000
0001
0000
0100
0000
0000
0001
,
0000
0000
1000
0010
0000
0100
0010
0000
1000
0100
0000
0010
,
0001
0000
0000
0000
0100
0000
0001
0000
0000
0000
0000
0000
0100
0010
1000
0000
0000
0000
0000
0000
0000
0000
0000
0000
,
0010
0100
0001
0000
0000
0000
0000
0000
0000
0000
0000
0000
1000
0001
0100
0000
0000
0000
0000
0000
0000
0000
0000
0000
,
1010
0000
1000
0001
0000
0000
0100
0000
0010
0000
0000
1000
,
0000
0000
2002
3003
,
0202
0000
0000
0303
0000
0000
0010
0000
0000
1000
0000
0010
,
0000
0010
0100
0001
,
0010
0000
0001
0100
0000
0000
0010
0000
1000
0000
0000
1000
,
0000
0000
0000
0001
0000
0000
0001
0000
1000
0010
0000
0000
,
0202
0303
0001
0000
,
0010
0010
1000
0100
,
0010
0001
0100
0010
1000
0100
0010
0001
0010
0100
1000
0001
0100
0010
1000
0100
0010
0001
0010
0100
1000
0001
0100
0010
,
1000
0001
0001
0100
,
0010
1000
0001
0100
0010
1000
0100
0010
0001
0010
0100
1000
0001
0100
0010
1000
0100
0010
0001
0100
0010
1000
0001
0000
,
1000
0010
0100
0010
,
1000
0000
0010
1000
0000
0000
0010
0000
0100
0000
0000
0001
,
0000
0010
0010
0010
,
0100
1000
0100
0010
0001
0010
0100
1000
0001
0100
0010
1000
0010
0100
0001
0100
0010
1000
0100
0000
0000
0000
0000
0000
,
0010
0000
0000
0100
0000
0000
0010
0000
0010
1000
0000
0000
,
0001
0100
0010
1000
0001
0100
0010
0000
0000
0000
0000
0000
0010
0000
0000
0000
1000
0000
0000
0000
0000
0000
0100
0000
,
0000
0010
0010
0010
,
1000
0100
0010
0001
0010
0100
1000
0001
0100
0010
1000
0010
0100
0001
0100
0010
1000
0100
0010
0000
0000
0000
0010
0000
,
0001
0100
0010
1000
,
0010
0000
0000
0100
0010
0000
1000
0000
0001
0000
0000
0010
,
0000
0100
1000
0100
,
0010
0000
0001
0010
0000
0000
0100
0000
0000
1000
0000
0001
,
0000
0100
0010
1000
,
0010
0000
0100
0010
0000
0000
1000
0000
0001
0000
0000
0010
,
0000
0000
1100
0000
,
0001
0000
0100
0001
0000
0000
1000
0000
0010
0000
0000
0100
,
0000
0001
0010
0100
,
1000
0000
0100
0010
0000
0000
0001
0000
0100
0000
0000
0010
,
0000
0000
2002
0000
,
3003
0000
0000
0000
;

//---------------dance-single - ----------------
#NOTES:
     dance-single:
     :
     Medium:
     12:
     0.574,0.604,0.223,0.230,0.503,464.000,29.000,30.000,0.000,0.000:
0000
0000
0000
0000
,
0000
0000
0000
0000
,
0000
0000
0000
0000
,
0000
0000
0000
0000
,
0000
0000
0000
0000
,
0000
0000
0000
0000
,
0000
0000
0000
0000
,
1000
0000
0001
0100
0000
0000
0010
0000
0100
0000
0000
0010
,
0000
0000
1010
0000
,
1100
0000
0000
1000
0000
0010
1000
0000
0000
0001
0000
0001
,
0000
0010
1010
1000
,
0001
0000
0000
1000
0000
1000
0100
0000
0000
1000
0000
1000
,
0000
0001
0101
0010
,
0100
0000
0100
0010
0000
0000
1000
0000
0000
0001
0000
1000
,
0000
0100
0001
0100
,
0010
0000
1000
0010
0000
0000
0100
0000
0001
0000
0000
0100
,
0000
0000
1010
0000
,
1000
0000
0000
0001
0000
0010
0001
0000
0000
0010
0000
0010
,
0000
1000
0001
0100
,
0010
0000
1000
0100
0000
0010
0100
0000
0000
0010
0000
1000
,
0000
0001
0100
0010
,
1000
0000
0001
0100
0000
0000
0010
0000
0000
1000
0000
0010
,
0000
1001
0010
0010
,
0100
0000
1000
0100
0000
0000
0010
0000
0001
0000
0000
0100
,
0000
0000
1010
0000
,
1000
0000
0001
0100
0000
0000
0010
0000
0000
1000
0000
0010
,
0100
0001
0100
0100
,
1000
0000
0010
0100
0000
0000
0001
0000
0100
0000
0000
0010
,
0000
0000
0000
0000
0000
0000
0002
0000
0000
0000
0000
0000
0000
0000
0000
0000
0000
0000
0003
0000
0001
0010
0100
1000
,
0001
0000
0100
0010
0000
0000
1000
0000
0000
0001
0000
0100
,
0000
0010
1010
1000
,
0001
0000
0100
0010
0000
0000
1000
0000
0001
0000
0000
0100
,
0000
0000
0010
1000
0000
0010
0100
0000
0001
0000
0000
0010
,
0100
0000
1000
0010
0000
0000
0100
0000
0000
0001
0000
0010
,
0001
0010
0001
0010
,
1000
0000
1000
0010
0000
0000
0001
0000
0100
0000
0000
1000
,
0000
0000
1001
0000
,
0001
1000
0000
0001
0000
0000
0010
0000
0000
0100
0000
1000
,
0000
0001
0110
1000
,
0001
0000
0001
0100
0000
0000
0010
0000
1000
0000
0000
0100
,
0000
0000
0000
0010
0000
0000
0100
0000
0001
0010
0000
0000
,
0022
0000
0033
0000
,
0010
1000
0010
0100
,
2002
0000
0000
0000
0000
0000
3003
0000
0000
0010
0000
1000
,
0000
0010
0100
0001
,
2002
0000
0000
0000
3003
0000
0010
0100
,
0010
1000
0100
0010
,
2002
0000
0000
0000
0000
0000
3003
0000
0000
1000
0000
0010
,
0000
0100
0001
0010
,
2002
0000
3003
0000
,
0001
0000
0000
0100
0000
0000
0010
0000
1000
0010
0000
0000
,
2002
0000
0000
0000
0000
0000
3003
0000
0000
0000
0000
0100
,
0000
1000
0010
0100
,
0220
0000
0000
0000
0330
0000
0100
0010
,
0100
0001
0010
0100
,
1000
0000
0001
1000
0000
0000
0010
0000
0100
0000
0000
0001
,
0000
1000
0010
0100
,
0001
0000
0100
0010
0000
0000
1000
0000
0000
0010
0100
0000
,
0000
0001
0010
0100
,
1000
0000
0100
0010
0000
0000
0001
0100
0000
0000
0010
0000
,
0000
0000
1001
0000
,
0010
0000
0100
0010
0000
0000
1000
0000
0000
0001
0000
0010
,
0000
0100
1000
0100
,
0010
0000
0001
1000
0000
0000
0010
0000
0100
0000
0000
0001
,
0000
0000
1001
0000
,
1000
0000
0100
0010
0000
0001
0010
0000
0000
0100
0000
1000
,
0000
0001
0100
0100
,
0010
0000
1000
0010
0000
0000
0100
0000
0000
0000
0000
0000
,
0000
0010
0100
0001
,
1000
0000
1000
0100
0000
0000
1000
0000
0000
0100
0000
0010
,
0000
0001
0001
0100
,
0010
0000
1000
0010
0000
0000
0100
0000
0001
0000
0000
0010
,
0000
0000
1001
0000
,
1000
0000
0000
0001
0000
0001
0100
0000
0000
0010
0000
1000
,
0000
1000
0001
0010
,
0100
0000
1000
0010
0000
0010
0100
0000
0000
0010
0000
1000
,
0000
0100
0010
1000
,
0010
0000
0100
0010
0000
0000
1000
0000
0000
0001
0000
0020
,
0000
0130
1000
0100
,
0010
0000
0100
1000
0000
0000
0200
0000
0000
0000
0000
0310
,
0000
0000
0011
0000
,
0001
0000
1000
0000
,
0010
0000
0100
0000
,
0001
0000
0100
0010
0000
0000
1000
0000
0001
0000
0000
0001
,
0000
0000
0000
0000
0000
0000
0020
0000
0000
0000
0000
0000
0000
0000
0000
0000
0000
0000
0030
0000
1000
0010
0100
0001
,
0100
0000
0010
1000
0000
0000
0100
0000
0000
1000
0000
0010
,
0000
0100
0010
0100
,
1000
0100
0000
1000
0000
0000
0001
0000
0100
0000
0000
0001
,
0000
0000
1000
0010
0000
0100
0010
0000
1000
0100
0000
0010
,
0001
0000
0100
0001
0000
0000
0100
0000
0000
0000
0000
0000
,
0010
0000
1000
0000
,
0001
0000
0001
0100
0000
0000
0010
0000
0100
0000
0000
0010
,
0000
0000
1001
0000
,
0001
0000
0001
0100
0000
0000
0010
0000
0000
1000
0000
0010
,
0000
0001
0100
0001
,
0010
0000
0010
0001
0000
0000
0001
0000
0100
0000
0000
0010
,
0000
0000
0000
1000
0000
0000
1000
0000
1000
0001
0000
0000
,
0202
0303
0001
0000
,
0010
0010
1000
0100
,
0022
0000
0000
0000
0000
0000
0033
0000
0000
1000
0000
0100
,
0000
0001
0001
0100
,
2002
0000
0000
0000
3003
0000
1000
0010
,
1000
0010
0100
0010
,
1000
0000
0010
1000
0000
0000
0010
0000
0100
0000
0000
0001
,
0000
0010
0010
0010
,
2002
0000
3003
0100
,
0010
0000
0000
0100
0000
0000
0010
0000
0010
1000
0000
0000
,
0001
0000
0000
0010
0000
0000
1000
0000
0010
0000
0000
0001
,
0000
0010
0010
0010
,
2002
0000
0000
0000
3003
0000
1000
0001
,
0100
0100
0010
1000
,
0010
0000
0000
0100
0010
0000
1000
0000
0001
0000
0000
0010
,
0000
0100
1000
0100
,
0010
0000
0001
0010
0000
0000
0100
0000
0000
1000
0000
0001
,
0000
0100
0010
1000
,
0010
0000
0100
0010
0000
0000
1000
0000
0001
0000
0000
0010
,
0000
0000
1100
0000
,
0001
0000
0100
0001
0000
0000
1000
0000
0010
0000
0000
0100
,
0000
0001
0010
0100
,
1000
0000
0100
0010
0000
0000
0001
0000
0100
0000
0000
0010
,
0000
0000
2002
0000
,
3003
0000
0000
0000
;
