#TITLE:Volcano;
#SUBTITLE:Oh Henry!;
#ARTIST:Dethklok;
#TITLETRANSLIT:;
#SUBTITLETRANSLIT:;
#ARTISTTRANSLIT:;
#CREDIT:;
#BANNER:../Fallback-Ban.png;
#BACKGROUND:../Fallback-BG.png;
#LYRICSPATH:;
#CDTITLE:../~CDTitle-@@.png;
#MUSIC:Dethklok - Volcano.ogg;
#OFFSET:-0.485;
#SAMPLESTART:86.885;
#SAMPLELENGTH:19.200;
#SELECTABLE:YES;
#BPMS:0.000=200.000;
#STOPS:;
#BGCHANGES:;
// cache tags:
#FIRSTBEAT:0.000;
#LASTBEAT:852.000;
#SONGFILENAME:Songs/Oh Henry! Mad Stamina/Volcano (16-)/Volcano.sm;
#HASMUSIC:1;
#HASBANNER:1;
#MUSICLENGTH:258.142;
// end cache tags

//---------------dance-single - @@----------------
#NOTES:
     dance-single:
     @@:
     Challenge:
     16:
     1.000,1.000,0.000,0.000,1.000,2490.000,0.000,0.000,0.000,0.000:
1000
0100
0010
0000
0001
0000
1000
0000
0100
0000
1000
0000
0010
0000
0100
0000
,
0001
1000
0001
0000
1000
0100
1000
0000
0001
0010
0001
0000
1000
0001
1000
0000
,
0010
0100
0001
0000
1000
0000
0010
0000
0100
0000
0001
0000
0010
0000
0100
0000
,
1000
0001
1000
0000
0010
0100
0010
0000
0100
0001
0100
0000
0001
1000
0001
0000
,
0010
0100
1000
0000
0001
0000
0010
0000
0100
0000
1000
0000
0010
0000
0100
0000
,
0001
1000
0001
0000
0010
0001
0010
0000
0100
1000
0100
0000
1000
0001
1000
0000
,
0010
1000
0001
0000
0100
0000
0010
0000
0100
0000
0001
0000
0010
0000
0100
0000
,
1000
0001
1000
0000
0001
0100
0001
0000
0100
0010
0100
0000
0001
1000
0001
0000
,
0010
0001
1000
0000
0100
0000
0010
0000
0100
0000
1000
0000
0010
0000
0100
0000
,
0001
1000
0001
0000
0010
0100
0010
0000
0001
0010
0001
0000
1000
0001
1000
0000
,
0010
0100
0001
0000
1000
0000
0010
0000
0100
0000
0001
0000
0010
0000
0100
0000
,
1000
0001
1000
0000
0010
0100
0010
0000
1000
0010
1000
0000
0001
1000
0001
0000
,
0010
0100
1000
0000
0001
0000
0010
0000
0100
0000
1000
0000
0010
0000
0100
0000
,
0001
1000
0001
0000
1000
0100
1000
0000
0001
0010
0001
0000
1000
0001
1000
0000
,
0001
0100
0010
0000
1000
0000
0001
0000
0100
0000
0001
0000
0010
0000
0100
0000
,
1000
0001
1000
0000
0010
1000
0010
0000
0100
0001
0100
0000
0001
1000
0001
0000
,
0010
0001
0100
0000
0001
0000
1000
0000
0010
0000
1000
0000
0100
0000
0010
0000
,
0001
1000
0001
0000
1000
0010
1000
0000
0001
0100
0001
0000
1000
0001
1000
0000
,
0100
0010
0001
0000
1000
0000
0100
0000
0010
0000
0001
0000
0100
0000
0010
0000
,
1000
0001
1000
0000
0100
0010
0100
0000
0010
0001
0010
0000
0001
1000
0001
0000
,
0100
0010
1000
0000
0001
0000
0100
0000
0010
0000
1000
0000
0100
0000
0010
0000
,
0001
1000
0001
0000
0100
0001
0100
0000
0010
1000
0010
0000
1000
0001
1000
0000
,
0100
1000
0001
0000
0010
0000
0100
0000
0010
0000
0001
0000
0100
0000
0010
0000
,
1000
0001
1000
0000
0001
0010
0001
0000
0010
0100
0010
0000
0001
1000
0001
0000
,
0100
0001
1000
0000
0010
0000
0100
0000
0010
0000
1000
0000
0100
0000
0010
0000
,
0001
1000
0001
0000
0100
0010
0100
0000
0001
0100
0001
0000
1000
0001
1000
0000
,
0100
0010
0001
0000
1000
0000
0100
0000
0010
0000
0001
0000
0100
0000
0010
0000
,
1000
0001
1000
0000
0100
0010
0100
0000
1000
0100
1000
0000
0001
1000
0001
0000
,
0100
0010
1000
0000
0001
0000
0100
0000
0010
0000
1000
0000
0100
0000
0010
0000
,
0001
1000
0001
0000
1000
0010
1000
0000
0001
0100
0001
0000
1000
0001
1000
0000
,
0001
0010
0100
0000
1000
0000
0001
0000
0010
0000
0001
0000
0100
0000
0010
0000
,
1000
0001
1000
0000
0100
1000
0100
0000
0010
0001
0010
0000
0001
1000
0001
0000
,
0100
0001
0010
0000
0100
0000
1000
0000
0001
0000
0010
0000
0001
0000
0100
0000
,
0010
1000
0010
0000
0100
0001
0100
0000
0010
1000
0001
1000
0100
0010
0001
0000
,
0100
0010
1000
0000
0001
0000
0100
0000
0001
0000
1000
0000
0010
0000
1000
0000
,
0001
0010
0001
0000
0010
0100
0010
0000
0100
1000
0001
1000
0010
0100
0001
0000
,
1000
0100
0010
0000
0001
0000
0010
0000
0100
0000
1000
0000
0001
0000
0010
0000
,
0001
0100
0001
0000
1000
0010
1000
0000
0001
0100
0001
1000
0001
0010
0100
0000
,
1000
0010
0100
0000
0001
0000
0100
0000
0010
0000
1000
0000
0001
0000
0100
0000
,
0001
0010
0001
0000
1000
0100
1000
0000
0001
0010
0001
1000
0001
0100
0010
0000
,
1000
0100
0010
0000
0001
0000
1000
0000
0001
0000
0100
0000
0010
0000
0100
0000
,
0001
1000
0001
0000
0010
0100
0010
0000
0001
1000
0001
0000
0100
0010
0100
0000
,
0001
1000
0100
0000
1000
0000
0001
0000
0100
0000
0010
0000
1000
0000
0001
0000
,
0100
0010
0100
0000
0001
1000
0001
0000
0010
0100
0010
0000
0001
1000
0001
0000
,
0100
0010
1000
0000
0001
0000
0100
0000
0001
0000
1000
0000
0100
0000
0010
0000
,
0001
1000
0001
0000
0100
0010
0100
0000
0001
1000
0001
0000
0010
0100
0010
0000
,
0001
0100
0010
0000
1000
0000
0001
0000
0010
0000
0100
0000
1000
0000
0001
0000
,
0100
0010
0100
0000
0001
1000
0001
0000
0010
0100
0010
0000
0001
1000
0001
0000
,
1000
0010
0100
0000
0001
0000
1000
0000
0001
0000
0010
0000
0100
0000
0010
0000
,
0001
1000
0001
0000
0100
0010
0100
0000
0001
1000
0001
0000
0010
0100
0010
0000
,
0001
1000
0010
0000
1000
0000
0001
0000
0010
0000
0100
0000
1000
0000
0001
0000
,
0010
0100
0010
0000
0001
1000
0001
0000
0100
0010
0100
0000
0001
1000
0001
0000
,
0010
0100
1000
0000
0001
0000
0010
0000
0001
0000
1000
0000
0010
0000
0100
0000
,
0001
1000
0001
0000
0010
0100
0010
0000
0001
1000
0001
0000
0100
0010
0100
0000
,
0001
0010
0100
0000
1000
0000
0001
0000
0100
0000
0010
0000
1000
0000
0001
0000
,
0010
0100
0010
0000
0001
0100
0010
0000
1000
0100
1000
0000
0010
0100
0001
0000
,
1000
0010
1000
0001
0100
0010
0100
0001
,
0010
0100
1000
0001
0100
0010
1000
0100
,
0010
0100
1000
0001
0010
0100
0010
0001
,
0100
0010
1000
0001
0010
0100
1000
0010
,
0100
0001
1000
0010
1000
0001
0100
0010
,
1000
0100
0010
0001
1000
0010
1000
0100
,
0010
0001
1000
0100
1000
0001
0010
0001
,
0100
0010
1000
0001
0010
0100
1000
0010
,
1000
0001
0100
0010
1000
0001
1000
0010
,
1000
0100
0010
0001
1000
0010
0100
0001
,
0010
0100
1000
0001
0010
0001
1000
0100
,
1000
0010
1000
0001
0010
0100
1000
0010
,
0100
0001
0100
0010
0100
0001
1000
0010
,
1000
0100
0010
0001
1000
0010
1000
0100
,
0010
0001
1000
0100
1000
0001
0010
0001
,
0100
0000
0010
1000
0010
0000
0100
0000
0001
0000
0001
0000
1000
0000
1000
0000
,
0001
0010
0100
1000
0001
0010
0100
0010
0001
0100
0010
1000
0001
0100
0010
0100
,
0001
0010
0100
1000
0001
1000
0100
0010
0001
0100
0010
0100
0001
1000
0010
1000
,
0100
0010
0001
1000
0100
0010
0100
1000
0010
0100
0001
0100
0010
1000
0001
0100
,
0001
0010
0100
1000
0001
1000
0100
0010
0001
0010
0100
1000
0001
0010
0100
0010
,
0001
0100
0010
0100
0001
1000
0010
1000
0100
0010
0001
1000
0001
0010
0100
1000
,
0010
0100
0010
1000
0001
0100
0010
0100
0001
0010
0100
1000
0001
0010
0100
0010
,
0001
0100
0010
0100
0001
1000
0010
1000
0100
0010
0100
1000
0001
0010
0100
1000
,
0010
0100
0001
1000
0010
1000
0001
0100
0001
1000
0010
0100
0001
0100
0010
1000
,
0100
0010
0001
0010
0100
1000
0001
0010
0001
0100
0010
0100
0001
1000
0010
1000
,
0100
0010
0001
1000
0100
1000
0001
0010
0001
0100
0010
1000
0001
1000
0010
0100
,
0001
0010
0100
1000
0001
1000
0100
1000
0010
0100
0001
0100
0010
1000
0001
0100
,
0001
0010
0100
1000
0001
1000
0100
0010
0001
1000
0100
1000
0001
0010
0100
1000
,
0010
0100
0001
1000
0010
1000
0001
0100
0001
0010
0100
1000
0001
0010
0100
0010
,
0001
0100
0010
1000
0001
0100
0010
0100
0001
0010
0100
1000
0100
0010
0100
1000
,
0010
0100
0001
1000
0010
0100
0010
1000
0100
0010
0100
1000
0001
0010
0100
0010
,
0001
0100
0010
1000
0001
0100
0001
1000
0010
1000
0001
0100
0010
1000
0010
0100
,
0001
1000
0010
1000
0000
0001
0000
1000
,
0100
0000
0010
0000
0100
0100
0010
0000
,
0001
1000
0010
0100
0000
0010
0000
1000
,
0001
0000
0010
0000
0001
0001
0010
0000
,
0001
0100
0001
1000
0000
0010
0000
1000
,
0100
0000
1000
0000
0100
0100
1000
0000
,
0010
0100
0010
1000
0000
0001
0000
1000
,
0001
0000
1000
0000
0001
0001
1000
0000
,
0001
1000
0100
1000
0000
0001
0000
1000
,
0010
0000
0100
0000
0010
0010
0100
0000
,
0001
1000
0100
0010
0000
0100
0000
1000
,
0001
0000
0100
0000
0001
0001
0100
0000
,
0001
0010
0001
1000
0000
0100
0000
1000
,
0010
0000
1000
0000
0010
0010
1000
0000
,
0100
0010
0100
1000
0000
0001
0000
1000
,
0001
0000
1000
0000
0001
0001
1000
0000
,
0010
0100
0001
0100
0000
0010
0000
0100
,
0001
0000
1000
0000
0001
0001
1000
0000
,
0100
0010
0001
0010
0000
0100
0000
0010
,
0001
0000
1000
0000
0001
0001
1000
0000
,
0010
0100
0001
1000
0000
0010
0000
0100
,
0001
0000
1000
1000
0100
0100
1000
1000
,
0001
0100
0010
1000
0001
0100
0010
0100
0001
0010
0100
1000
0001
0010
0100
0010
,
0001
0100
0010
1000
0001
1000
0010
0100
0001
0010
0100
0010
0001
1000
0100
1000
,
0010
0100
0001
1000
0010
0100
0010
1000
0100
0010
0001
0010
0100
1000
0001
0010
,
0001
0100
0010
1000
0001
1000
0010
0100
0001
0100
0010
1000
0001
0100
0010
0100
,
0001
0010
0100
0010
0001
1000
0100
1000
0010
0100
0001
1000
0001
0100
0010
1000
,
0100
0010
0100
1000
0001
0010
0100
0010
0001
0100
0010
1000
0001
0100
0010
0100
,
0001
0010
0100
0010
0001
1000
0100
1000
0010
0100
0010
1000
0001
0100
0010
1000
,
0100
0010
0001
1000
0100
1000
0001
0100
0001
1000
0010
1000
0001
0010
0100
1000
,
0010
0100
0001
0100
0010
1000
0001
0100
0001
0010
0100
0010
0001
1000
0100
1000
,
0010
0100
0001
1000
0010
1000
0001
0100
0001
0010
0100
1000
0001
1000
0100
0010
,
0001
0100
0010
1000
0001
1000
0010
1000
0100
0010
0001
0010
0100
1000
0001
0010
,
0001
0100
0010
1000
0001
1000
0010
0100
0001
1000
0010
1000
0001
0100
0010
1000
,
0100
0010
0001
1000
0100
1000
0001
0010
0001
0100
0010
1000
0001
0100
0010
0100
,
0001
0010
0100
1000
0001
0010
0100
0010
0001
0100
0010
1000
0010
0100
0010
1000
,
0100
0010
0001
1000
0100
0010
0100
1000
0010
0100
0010
1000
0001
0100
0010
0100
,
0001
0010
0100
1000
0001
0010
0001
1000
0010
1000
0001
0010
0100
1000
0100
0010
,
0001
1000
0001
1000
0010
0100
0010
1000
0100
0010
0001
0010
0100
1000
0001
0010
,
0001
0100
0010
0100
0001
1000
0010
1000
0100
0010
0001
0010
0100
1000
0100
0010
,
0001
0100
0001
1000
0010
0100
0010
1000
0100
0010
0001
1000
0100
1000
0001
0010
,
0001
0100
0010
1000
0001
0100
0001
1000
0010
1000
0001
0100
0010
1000
0010
0100
,
0001
0010
0100
1000
0001
1000
0100
0010
0001
0100
0010
0100
0001
1000
0010
1000
,
0100
0010
0001
1000
0100
0010
0100
1000
0010
0100
0001
1000
0010
1000
0001
0100
,
0001
0010
0100
0010
0001
0010
0100
1000
0010
0100
0001
0100
0010
1000
0001
0100
,
0001
0010
0100
1000
0001
1000
0100
0010
0100
1000
0001
0010
0100
1000
0001
0010
,
0001
0100
0010
1000
0100
0010
0001
0100
0010
1000
0100
1000
0001
0010
0100
1000
,
0010
0100
0001
1000
0010
1000
0100
0010
0001
0010
0100
1000
0010
0100
0010
1000
,
0001
0010
0100
1000
0010
0100
0001
0010
0100
1000
0010
1000
0001
0100
0010
1000
,
0100
0010
0001
1000
0100
1000
0010
0100
0001
0100
0010
1000
0100
0010
0100
1000
,
0001
0100
0010
1000
0000
0001
0010
0001
,
1000
0000
0010
0000
1000
1000
0010
0000
,
1000
0100
0010
0001
0000
0100
0010
1000
,
0001
0000
0100
0000
0001
0001
0100
0000
,
0001
0010
0100
0010
0000
0001
1000
0010
,
0100
0000
0001
0000
0100
0100
0001
0000
,
0010
0100
1000
0001
0000
0100
0001
1000
,
0100
0000
0010
0000
0100
0100
0010
0000
,
0001
0100
0010
1000
0000
0001
0010
0001
,
0100
0000
0010
0000
0100
0100
0010
0000
,
1000
0100
0010
0001
0000
1000
0010
1000
,
0001
0000
0010
0000
0001
0001
0010
0000
,
0001
0100
0010
1000
0000
0100
0010
0001
,
1000
0000
0100
0000
1000
1000
0100
0000
,
1000
0010
0100
0010
0000
1000
0001
0010
,
0100
0000
1000
0000
0100
0100
1000
0000
,
0010
0100
0001
1000
0000
0100
1000
0001
,
0100
0000
0010
0000
0100
0100
0010
0000
,
1000
0000
0000
0100
0000
0000
0010
0000
0000
0100
0000
0000
0000
0000
0000
1000
0000
0000
0000
0000
0000
0001
0100
0001
,
0100
0000
0000
0001
0000
0000
0000
0000
0000
1000
0100
1000
0100
0000
0000
1000
0000
0000
0000
0000
0000
1000
0000
0000
,
0100
0010
0001
1000
0010
1000
0001
0100
0001
0010
0100
1000
0001
0100
0010
1000
,
0100
0010
0100
1000
0001
0100
0010
1000
0100
1000
0001
0010
0001
1000
0010
0100
,
0001
0010
0100
0010
0001
1000
0010
1000
0100
0010
0001
1000
0010
1000
0001
0100
,
0001
0010
0100
1000
0001
0100
0010
0100
0001
0010
0100
0010
0001
1000
0010
1000
,
0100
0010
0001
1000
0010
0100
0010
1000
0100
1000
0001
0010
0001
1000
0010
1000
,
0100
0010
0001
1000
0010
1000
0001
0100
0001
0010
0100
1000
0001
0100
0010
0100
,
0001
0010
0001
0100
0001
1000
0001
0100
0010
1000
0001
1000
0010
1000
0100
1000
,
0001
0100
0001
0010
0001
1000
0001
0010
0100
1000
0001
1000
0100
1000
0010
1000
,
0001
0010
0001
0100
0001
1000
0001
0100
0010
1000
0001
1000
0010
1000
0100
1000
,
0001
0100
0001
0010
0001
1000
0001
0010
0100
1000
0001
1000
0100
1000
0010
1000
,
0001
0100
0001
1000
0100
1000
0001
0010
0001
0100
0010
1000
0001
0010
0100
1000
,
0010
0100
0010
1000
0001
0010
0100
1000
0010
1000
0001
0100
0001
1000
0100
0010
,
0001
0100
0010
0100
0001
1000
0100
1000
0010
0100
0001
1000
0100
1000
0001
0010
,
0001
0100
0010
1000
0001
0010
0100
0010
0001
0100
0010
0100
0001
1000
0100
1000
,
0010
0100
0001
1000
0100
0010
0100
1000
0010
1000
0001
0100
0001
1000
0100
1000
,
0010
0100
0001
1000
0100
1000
0001
0010
0001
0100
0010
1000
0001
0010
0100
0010
,
0001
0100
0001
0010
0001
1000
0001
0010
0100
1000
0001
1000
0100
1000
0010
1000
,
0001
0010
0001
0100
0001
1000
0001
0100
0010
1000
0001
1000
0010
1000
0100
1000
,
0001
0100
0001
0010
0001
1000
0001
0010
0100
1000
0001
1000
0100
1000
0010
1000
,
0001
0010
0001
0100
0001
1000
0001
0100
0010
1000
0001
1000
0010
1000
0100
1000
,
0001
0010
0001
1000
0100
0010
0100
1000
,
0010
0100
0001
1000
0100
0010
0001
0100
,
0010
0100
0001
1000
0010
0100
0010
1000
,
0100
0010
0001
1000
0010
0100
0001
0010
,
0100
1000
0001
0010
0001
1000
0100
0010
,
0001
0100
0010
1000
0001
0010
0001
0100
,
0010
1000
0001
0100
0001
1000
0010
1000
,
0100
0000
0010
0000
0001
0000
1000
0000
0100
0010
0001
1000
0001
0100
0010
0100
,
0001
1000
0001
1000
0100
0010
0100
1000
0010
0100
0001
1000
0010
1000
0001
0100
,
0001
0010
0100
1000
0001
0010
0100
0010
0001
0100
0010
0100
0001
1000
0010
1000
,
0100
0010
0100
1000
0001
0010
0100
1000
0010
0100
0001
1000
0010
1000
0001
0100
,
0001
0010
0100
1000
0001
0010
0001
1000
0010
0100
0010
1000
0001
0010
0100
1000
,
0010
0100
0001
1000
0010
1000
0001
0100
0001
0010
0100
1000
0001
1000
0100
0010
,
0001
0100
0010
0100
0001
1000
0010
1000
0100
0010
0001
0010
0100
1000
0001
0010
,
0001
0100
0010
0100
0001
1000
0010
1000
0100
0010
0100
1000
0001
0010
0100
0010
,
0001
0100
0010
1000
0001
0100
0001
1000
0100
0010
0100
1000
0001
0100
0010
0100
,
0001
1000
0001
1000
0010
0100
0010
1000
0100
0010
0001
1000
0100
0010
0100
1000
,
0010
0100
0001
1000
0010
1000
0001
0100
0001
0010
0100
0010
0001
0010
0100
1000
,
0010
0100
0001
1000
0010
1000
0001
0100
0001
0010
0100
0010
0001
1000
0100
0010
,
0001
0100
0010
0100
0001
1000
0010
1000
0001
0010
0001
1000
0010
0100
0010
1000
,
0100
0010
0001
0010
0100
1000
0100
0010
0001
0100
0010
0100
0001
1000
0010
1000
,
0100
0010
0001
1000
0001
0010
0100
1000
0010
0100
0001
1000
0001
0100
0010
1000
,
0100
0010
0001
1000
0001
0010
0100
0010
0001
0100
0010
0100
0001
1000
0010
1000
,
0100
0010
0001
0010
0100
1000
0001
1000
0010
0100
0010
1000
0001
0010
0100
1000
,
0010
0100
0001
1000
0001
0100
0010
1000
0100
0010
0001
0010
0100
1000
0001
0010
,
0001
0100
0010
1000
0001
0100
0010
0100
0001
0010
0001
1000
0100
0010
0100
1000
,
0010
0100
0001
1000
0010
1000
0001
0100
0001
0010
0100
0010
0001
1000
0100
0010
,
0001
0100
0010
1000
0001
0100
0001
0010
0100
0010
0001
0100
0010
1000
0001
0100
,
0001
0010
0100
1000
0001
1000
0100
0010
0001
0100
0010
0100
0001
1000
0010
1000
,
0100
0010
0001
1000
0001
0010
0100
1000
0010
0100
0001
0100
0010
1000
0001
0100
,
0001
0010
0100
1000
0001
0010
0100
0010
0001
0100
0001
1000
0010
0100
0010
1000
,
0100
0010
0001
0010
0100
1000
0010
0100
0001
0100
0010
1000
0100
0010
0100
1000
,
0001
0100
0001
1000
0010
0100
0001
0010
0001
0010
0100
1000
0100
1000
0010
0100
,
0001
0100
0010
1000
0001
0010
0100
1000
0010
0100
0001
1000
0001
0000
0000
0000
,
1000
0100
1000
0001
0010
0100
1000
0010
1000
0010
0100
0001
0100
0001
0010
0100
,
1000
0000
0000
0000
;
