#TITLE:Dam Dariram;
#SUBTITLE:;
#ARTIST:Joga;
#TITLETRANSLIT:;
#SUBTITLETRANSLIT:;
#ARTISTTRANSLIT:;
#CREDIT:;
#BANNER:Dam Dariram-bn.png;
#BACKGROUND:Dam Dariram-bg.png;
#LYRICSPATH:Dam Dariram.lrc;
#CDTITLE:;
#MUSIC:DAM DARIRAM.ogg;
#OFFSET:-1.060;
#SAMPLESTART:54.340;
#SAMPLELENGTH:12.000;
#SELECTABLE:YES;
#DISPLAYBPM:142.000;
#BPMS:0.000=142.370,124.000=71.185,126.000=142.370;
#STOPS:;
#BGCHANGES:;
// cache tags:
#FIRSTBEAT:0.000;
#LASTBEAT:206.500;
#SONGFILENAME:Songs/Rodd's Rad Christmas Pack/Dam Dariram (Rodd Steps)/Dam Dariram (Rodd Steps).sm;
#HASMUSIC:1;
#HASBANNER:1;
#MUSICLENGTH:91.167;
// end cache tags

//---------------dance-single - R. Farias----------------
#NOTES:
     dance-single:
     R. Farias:
     Challenge:
     10:
     0.810,0.708,0.066,0.033,0.888,507.000,6.000,3.000,7.000,0.000:







1000
0100
0000
0010
0001
0000
0100
0010
0000
0100
0001
0000
1000
0000
0100
0010
,
0000
0100
0000
0010
0001
0000
0100
0010
0000
0100
0001
0000
1000
0000
0100
0010
,
0000
0001
0000
0100
0010
0000
0100
0001
0000
1000
0100
0000
0010
0000
0100
1000
,
0000
0001
0000
0100
0010
0000
0200
0000
0000
0000
0301
0000
1000
0000
1100
0000
,
0100
0010
0000
0001
0100
0000
0010
1000
0000
1000
0001
0000
1000
0000
0100
0010
,
0000
0100
0000
0010
0001
0000
0100
0010
0000
0100
0001
0000
1000
0000
0100
0010
,
0000
0001
0000
0100
0010
0000
0100
0001
0000
0001
1000
0000
0100
0000
0010
0001
,
2000
0000
0000
0001
0001
0001
000M
0000
,
3100
0000
0010
0001
0000
0001
0100
0000
0100
0010
0000
0010
1000
0000
0001
0000
,
1000
0000
0100
0010
0000
0010
0001
0000
0001
1000
0000
1000
0001
0000
0100
0000
,
0010
0000
1000
0100
0000
0100
0010
0000
0010
0100
0000
0100
1000
0000
0001
0000
,
0100
0000
0010
1000
0000
1000
0001
0000
0001
1000
0000
1000
0100
0000
0010
0001
,
1000
0000
0001
0100
0000
0100
0010
0000
0010
0001
0000
0001
0010
0000
1000
0000
,
0100
0000
0010
0001
0000
0001
0100
0000
0100
1000
0000
1000
0100
0000
0010
0000
,
1000
0000
0100
0010
0000
0010
1000
0000
1000
0010
0000
0010
0001
0000
0100
0010
,
1000
0000
0100
0010
0100
0000
0010
0001
1000
0000
0001
0100
0010
0000
0100
0010
,
1000
0000
0100
0000
0010
0000
0001
0000
0100
0000
0010
1000
0001
0000
1000
0000
,
0100
0000
1000
0000
0010
0000
0100
0000
0001
0000
1000
0100
0010
0000
0001
0000
,
0100
0000
0010
0000
0100
0000
0001
0000
1000
0000
0100
1000
0100
0000
0010
0000
,
0100
0000
0010
0000
0001
0000
1000
0000
0001
0000
0100
0010
1000
0000
0001
0000
,
1000
0000
0100
0000
1000
0000
0010
0000
0100
0000
0001
1000
0100
0000
0010
0000
,
0100
0000
1000
0000
0001
0000
0100
0000
0010
0000
0100
0001
1000
0000
0100
0000
,
0010
0000
0100
0000
0010
0000
0001
0000
0100
0000
0010
1000
0010
0000
0100
0000
,
0001
0000
1000
0000
0100
0000
0010
0000
0001
0100
0010
1000
0001
0000
1001
0000
,
1001
0000
0001
0100
0010
0000
0100
0010
1000
0000
0001
0000
1000
0000
0100
0000
,
0010
0000
0100
1000
0001
0000
0100
0010
1000
0000
0100
0000
1000
0000
0010
0000
,
0100
0000
0001
1000
0100
0000
0010
0001
1000
0000
0001
0000
0100
0000
0010
0000
,
0100
0000
0001
1000
0100
0000
0010
0001
1000
0000
0001
0100
0010
0000
0100
0010
,
1000
0000
0001
0000
1000
0000
0100
0000
1000
0000
0010
0000
0100
0000
0001
1000
,
0100
0000
0010
0000
0100
0000
0010
0000
0001
0000
0100
0000
0010
0000
0100
0001
,
1000
0100
1000
0010
0100
0001
1000
0100
,
M11M
0000
M000
0010
M010
0001
M100
0100
M101
0000
0100
0010
1000
0000
0100
0010
,
0001
0000
0100
0010
0100
0000
0010
1000
0001
0000
1000
0100
0010
0000
0100
0010
,
0001
0000
0001
0100
0010
0000
0100
0000
0001
0000
1000
0100
1000
0000
0100
0010
,
0100
0000
0010
0000
0001
0000
0100
0000
0010
0000
0100
0001
1000
0000
0100
0010
,
0100
0000
0010
0000
0010
0000
0010
0000
0011
0000
0001
0100
0010
0000
0100
0010
,
1000
0000
1000
0100
0010
0000
0100
0010
0001
0000
0001
0100
0010
0000
0100
0001
,
1000
0000
0100
0010
0100
0000
0010
0001
1000
0000
0001
0100
0010
0000
0100
0010
,
0100
0000
0010
1000
0001
0000
1000
0000
0002
0000
0000
0000
0000
0000
0103
0000
,
0010
0000
0100
0000
0001
0000
1000
0000
0100
0000
0010
0001
0000
0001
0100
0000
,
0100
0010
0000
0010
1000
0000
0001
0000
1000
0000
0100
0010
0000
0010
0001
0000
,
0001
0100
0000
0100
0010
0000
0100
0000
0001
0000
1000
0100
0000
0100
0010
0000
,
0010
0100
0000
0100
1000
0000
0001
0000
0100
0000
0010
1000
0000
1000
0100
0000
,
0100
1000
0000
1000
0010
0000
0100
0000
0001
0000
1000
0100
0000
0100
0001
0000
,
0001
0100
0000
0100
0010
0000
0001
0000
0100
0000
0010
1000
0000
1000
0010
0000
,
0010
0001
0000
0001
0010
0000
1000
0000
0100
0000
0010
0001
0000
0001
0010
0000
,
0010
1000
0000
1000
0010
0000
0001
0100
0010
0000
0100
0010
1000
0000
1000
0100
,
0010
0000
0001
0000
0100
0000
0010
0000
0100
0001
0000
1000
0100
0000
0010
0001
,
0000
0001
0100
0000
0010
0000
0100
0001
0000
1000
0000
0100
0010
0000
0100
1000
,
0000
0001
0100
0000
0010
0000
0100
0001
0000
1000
0000
0100
0010
0000
0100
0010
,
0000
0010
0001
0000
0100
0000
0010
1000
0000
0001
0000
1000
0100
0000
0010
0001
,
0000
0001
0100
0000
0040
0000
0000
0000
0000
0000
0030
0000
0000
0000
0000
0000
;

//---------------dance-single - R. Farias----------------
#NOTES:
     dance-single:
     R. Farias:
     Hard:
     8:
     0.572,0.510,0.165,0.110,0.197,339.000,15.000,10.000,0.000,0.000:

0001
0100
0010
0100
0001
1000
0100
1000
,
0010
0100
0001
1000
0100
1000
0010
0100
,
0010
1000
0100
0010
0100
0010
0001
1000
,
0001
0100
0010
2000
0000
3100
0010
0001
,
1000
0001
0100
0000
0010
1000
0001
0000
,
1000
0100
0010
0000
0001
0100
0010
0000
,
0100
0001
1000
0000
0100
0010
0100
0000
,
1002
0000
0000
0100
0100
0103
0010
1000
,
0001
0000
0000
1000
0000
0000
0001
0000
0000
1000
0000
0000
0100
0000
0010
0000
,
0001
0000
0000
0100
0000
0000
0001
0000
0000
0100
0000
0000
0001
0000
0100
0000
,
0010
0000
0000
1000
0000
0000
0010
0000
0000
1000
0000
0000
0010
0000
1000
0000
,
0001
0000
0000
1000
0000
0000
0100
0000
0000
1000
0000
0000
0100
0000
0010
0100
,
0010
0000
0000
0001
0000
0000
0100
0000
0000
0010
0000
0000
0100
0000
0001
0000
,
1000
0000
0000
0100
0000
0000
0010
0000
0000
0100
0000
0000
0010
0000
0001
0000
,
1000
0000
0000
0001
0000
0000
0100
0000
0000
0010
0000
0000
1000
0000
0001
0000
,
1000
0000
0000
0100
0010
0000
0000
0010
0001
0000
0000
0001
0100
0000
0010
0000
,
1000
0001
1000
0100
1000
0001
1000
0100
,
1000
0010
1000
0001
1000
0010
1000
0001
,
1000
0100
0010
0100
1000
0100
0010
0100
,
0010
0001
0010
0100
0010
0001
0100
0010
,
1000
0001
1000
0100
1000
0010
0100
0001
,
1000
0100
1000
0010
0100
0001
1000
0100
,
0010
0001
0100
0010
1000
0002
0000
0203
,
0000
0310
1000
0000
0100
0100
0010
0010
,
0011
0000
0001
0100
0010
1000
0001
1001
,
0000
0000
0001
0100
0010
1000
0100
1100
,
0000
0000
0100
0010
0000
0001
0000
1000
,
0000
0001
0100
0000
0010
1000
0100
0010
,
0110
0000
0010
0001
0100
0010
1000
1010
,
0000
0000
1000
0100
1000
0010
0100
2001
,
0000
3200
0000
0320
0000
0032
0000
2003
,
0000
0000
0000
0000
0000
3001
0100
0010
1010
0000
0000
0000
1000
0000
0100
0000
,
0010
0000
0001
0100
0010
0000
1000
0100
,
0010
0100
1000
0100
0010
0000
0001
0100
,
0010
0110
0000
1001
0000
1000
0100
0010
,
0001
0100
0010
1000
1100
0000
0100
0010
,
0011
0000
0001
0100
0101
0000
0100
0010
,
0100
0001
0100
0010
0110
0000
0010
1000
,
0001
1000
0000
1100
0000
0000
0000
0100
,
0010
0000
0010
0000
0001
0000
0001
0000
0100
0000
0000
0010
0000
0000
1000
0000
,
0000
0001
0000
0000
1000
0000
0100
0000
0010
0000
0000
0100
0000
0000
0010
0000
,
0000
0001
0000
0000
0100
0000
0010
0000
1000
0000
0000
0001
0000
0000
1000
0000
,
0000
0100
0000
0000
0010
0000
0001
0000
0100
0000
0000
0010
0000
0000
0100
0000
,
0000
0001
0000
0000
1000
0000
0100
0010
0001
0000
0000
0100
0000
0000
0010
0000
,
0000
0100
0000
0000
0001
0000
1000
0000
0100
0000
0000
1000
0000
0000
0010
0000
,
0000
0100
0000
0000
0001
0000
1000
0000
0001
0000
0000
1000
0000
0000
0100
0000
,
0000
0010
0000
0000
0100
0000
0010
0000
0001
0000
0000
1000
0000
0000
0002
0000
,
0000
0103
0010
1000
0001
1000
0100
1000
,
0001
1000
0100
1000
0010
0100
0001
1000
,
0010
0100
0010
1000
0100
1000
0010
0100
,
0001
1000
0100
1000
0001
0100
0010
1000
,
0001
1000
0400
0000
0000
0300
0000
0000
;

//---------------dance-single - R. Farias----------------
#NOTES:
     dance-single:
     R. Farias:
     Medium:
     6:
     0.356,0.394,0.088,0.011,0.000,218.000,8.000,1.000,0.000,0.000:

0000
0000
0000
0000
,
0000
0000
0000
0000
,
0000
0000
0000
0000
,
0000
0000
0000
0000
,
1000
0100
0010
0100
,
0010
0001
1000
0001
,
0100
0010
1000
0001
,
1001
0000
0000
0001
1000
0001
0000
0000
,
1000
0000
0100
0000
1000
0000
0010
0100
,
0001
0000
1000
0000
0100
0000
0010
0100
,
0010
0000
0001
0000
0100
0000
0010
1000
,
0010
0000
1000
0000
0001
0000
1000
0100
,
0010
0000
0100
0000
0010
0000
0001
0100
,
0001
0000
0100
0000
0010
0000
0100
0001
,
1000
0000
0100
0000
1000
0000
0010
0100
,
0010
0010
0010
0010
,
1010
1000
0001
1000
,
0100
1000
0010
0100
,
0001
1000
0100
1000
,
0010
0100
0001
1000
,
0100
1000
0010
0100
,
0001
1000
0100
1000
,
0001
0000
0100
0000
0001
1000
0100
0000
,
0010
0001
1000
0000
0001
0100
0010
1000
,
1001
0000
0001
0000
0100
0010
1000
0001
,
0000
0000
1000
0100
1000
0010
0100
0001
,
0000
0000
1000
0100
0000
0010
0000
0001
,
0000
0100
0010
0000
1000
0000
0001
0000
,
1001
0000
1000
0000
0100
0000
0010
0001
,
0000
0000
0100
0000
0010
0000
1000
0001
,
0000
1000
0000
0100
0000
0010
0000
0002
,
0000
0000
0000
0103
0100
0000
0010
0000
,
1000
0000
0010
0000
0100
0000
0010
1000
,
0010
1000
0010
1000
0010
0000
0100
0000
,
0001
0000
0000
1001
0000
1000
0000
0100
,
0000
0010
0001
0100
0010
0000
0100
0000
,
0001
0000
1000
0000
0100
0000
0010
0001
,
0010
0001
0010
0001
0010
0000
0001
0000
,
0100
0000
0000
0101
0000
0000
0000
0100
,
0010
1001
1000
0100
,
0010
0000
0001
0100
0010
0000
1000
0000
,
0001
0000
1000
0100
0010
0000
0001
0000
,
0100
0000
0010
1000
0001
0000
1000
0000
,
0100
0000
0010
0001
0010
0000
0001
0000
,
0100
0000
0010
1000
0010
0000
1000
0000
,
0001
0000
1000
0100
0010
0000
0100
0000
,
1000
0000
0001
0100
0001
0000
0001
0000
,
0001
0001
0100
0010
,
1000
0100
1000
0010
,
0100
0001
1000
0100
,
0010
0100
0010
0001
,
0100
0101
0000
0000
;

//---------------dance-single - R. Farias----------------
#NOTES:
     dance-single:
     R. Farias:
     Easy:
     5:
     0.180,0.253,0.110,0.000,0.000,105.000,10.000,0.000,0.000,0.000:

0000
0000
0000
0000
,
0000
0000
0000
0000
,
0000
0000
0000
0000
,
0000
0000
0000
0000
,
0001
0000
0100
0000
,
0010
0000
1000
0000
,
0001
0000
1000
0000
,
1001
0000
0000
0000
,
0001
0000
0100
0000
,
0010
0000
1000
0000
,
0010
0000
1000
0000
,
0001
0000
1000
0000
,
0100
0010
0100
0000
,
0010
0001
0010
0000
,
0001
0100
0001
0000
,
0100
0000
0010
0000
,
1001
0000
0000
0000
,
1000
0000
0100
0000
,
0010
0000
0001
0000
,
1000
0000
0001
0000
,
0100
0000
0010
0000
,
0100
0000
0001
0000
,
1000
0000
0100
0000
,
0010
0000
0001
0001
,
0101
0000
0000
0000
0000
0000
0000
1010
,
0000
0000
0000
0000
0000
0000
0000
1001
,
0000
1000
0000
0100
,
0000
0010
0000
0001
,
1001
0000
0000
0000
0000
0000
0000
0101
,
0000
0000
0000
0000
0000
0000
0000
0110
,
0000
0010
0000
1000
,
0000
0000
0001
0000
,
1000
0000
0100
0000
,
0010
0001
0010
0000
,
0001
0000
0100
0000
,
0010
0000
0100
0000
,
0001
0000
1000
0000
,
0100
0010
0100
0000
,
0010
0000
0110
0000
,
0000
0000
0001
0000
,
0100
0000
0010
0000
,
1000
0000
0001
0000
,
1000
0000
0100
0000
,
0010
0001
0010
0000
,
0001
0000
0100
0000
,
0010
0000
1000
0000
,
0001
0000
1000
0000
,
0100
0010
0001
0100
,
0001
0100
0010
1000
,
0010
1000
0001
1000
,
0001
1000
0100
1000
,
0100
0110
0000
0000
;

//---------------dance-single - R. Farias----------------
#NOTES:
     dance-single:
     R. Farias:
     Beginner:
     1:
     0.089,0.169,0.110,0.000,0.000,47.000,10.000,0.000,0.000,0.000:

0000
0000
0000
0000
,
0000
0000
0000
0000
,
0000
0000
0000
0000
,
0000
0000
0000
0000
,
0000
0000
0000
0000
,
0000
0000
0000
0000
,
0000
0000
0000
0000
,
0000
0000
0000
0000
,
1000
0000
0000
0000
,
0001
0000
0000
0000
,
0100
0000
0000
0000
,
0010
0000
0000
0000
,
1000
0000
0000
0000
,
0001
0000
0000
0000
,
1000
0000
0000
0000
,
0100
0000
0000
0000
,
0110
0000
0000
0000
,
0001
0000
0000
0000
,
1000
0000
0000
0000
,
0001
0000
0000
0000
,
0100
0000
0000
0000
,
0010
0000
0000
0000
,
1000
0000
0001
0000
,
1000
0000
0001
0000
,
1001
0000
0000
0000
,
1100
0000
0000
0000
,
0011
0000
0000
0000
,
0001
0000
0000
0000
,
0101
0000
0000
0000
,
0110
0000
0000
0000
,
1010
0000
0000
0000
,
1000
0000
0001
0000
,
0000
0000
1000
0000
,
0000
0000
0001
0000
,
0000
0000
1001
0000
,
0000
0000
0001
0000
,
0000
0000
0100
0000
,
0000
0000
0010
0000
,
0000
0000
1010
0000
,
0000
0000
1000
0000
,
0000
0000
0100
0000
,
0000
0000
0010
0000
,
0000
0000
0001
0000
,
0000
0000
0100
0000
,
0000
0000
0010
0000
,
0000
0000
1000
0000
,
0000
0000
0001
0000
,
0000
0000
1000
0000
,
0000
0000
0100
0000
,
0000
0000
0010
0000
,
0000
0000
0100
0000
,
0000
1001
0000
0000
;
