#TITLE:Street Fighter(Dhalsim);
#SUBTITLE:CAPCOM;
#ARTIST:HammerGunner;
#TITLETRANSLIT:;
#SUBTITLETRANSLIT:;
#ARTISTTRANSLIT:;
#CREDIT:;
#BANNER:Dhalsim-banner.png;
#BACKGROUND:Dhalsim-bg.jpg;
#LYRICSPATH:;
#CDTITLE:cdtitle.png;
#MUSIC:Dhalsim.mp3;
#OFFSET:1.339;
#SAMPLESTART:41.518;
#SAMPLELENGTH:12.000;
#SELECTABLE:YES;
#BPMS:0.000=399.999;
#STOPS:;
#BGCHANGES:0.000=Dhalsim.avi=1.000=1=1=0,
430.500=Dhalsim-bg.jpg=1.000=1=0=1,
99999=-nosongbg-=1.000=0=0=0 // don't automatically add -songbackground-
;
// cache tags:
#FIRSTBEAT:30.500;
#LASTBEAT:1111.250;
#SONGFILENAME:Songs/juju steps/Street Fighter(Dhalsim)/Dhalsim.sm;
#HASMUSIC:1;
#HASBANNER:1;
#MUSICLENGTH:166.718;
// end cache tags

//---------------dance-single - ----------------
#NOTES:
     dance-single:
     :
     Hard:
     8:
     0.709,1.000,0.330,1.000,0.741,565.000,55.000,208.000,0.000,0.000:
0000
0000
0000
0000
,
0000
0000
0000
0000
,
0000
0000
0000
0000
,
0000
0000
0000
0000
,
0000
0000
0000
0000
,
0000
0000
0000
0000
,
0000
0000
0000
0000
,
0000
0000
0000
0000
0000
0000
0000
0000
0000
0000
1000
0100
0000
0000
0000
0000
,
0000
0000
1000
0000
0100
0000
0000
0000
0000
0000
0000
0001
0000
0000
0000
0010
,
0000
0000
0000
0100
1000
0000
0000
0100
0000
0000
0001
0000
1000
0000
0001
0000
,
0000
0000
0000
0200
0000
0000
0000
0000
0000
0000
0000
0000
0000
0000
0000
0300
,
0000
0001
0010
0000
0000
0000
0100
1000
,
0000
0000
0000
0000
0000
0000
0000
0100
0000
0000
0000
0000
0000
1000
0000
0000
,
0100
0000
0000
1000
0000
0001
0000
1000
0000
0000
0100
0000
0000
0000
1000
0000
,
0100
0000
0000
0000
0000
0001
0000
0000
0010
0000
0000
0000
0100
0000
0000
0000
,
0001
0000
0000
0010
0000
0000
0100
0000
0000
0000
0000
0010
0000
0000
0001
0000
,
0000
0010
0000
0000
0200
0000
0000
0000
0000
0000
0000
0000
0000
0000
0300
1000
,
0000
0000
0000
0200
0000
0000
0000
0000
0000
0000
0000
0000
0000
0000
0000
0000
,
0000
0300
0000
0000
0000
0000
0000
0000
0000
0000
0000
0000
0000
0000
0000
1000
,
0000
0000
0000
0000
0000
0000
0100
0000
0000
0000
0000
0000
0000
0001
0000
0000
,
0000
0000
0000
0000
0000
0110
0000
0000
0000
0000
0000
0000
0000
0000
0000
0000
,
0000
0000
0000
1000
0000
0000
0000
0000
0000
0100
0000
0000
0000
0000
0000
0000
,
0000
0010
0000
0000
0000
0000
0000
0000
0010
0000
0000
0000
0000
0000
0000
0000
,
0000
0000
0000
1010
0000
0000
0000
0000
,
0000
0000
0000
0000
,
0000
0000
0000
0000
,
0001
0000
0000
0000
0000
0000
0000
0100
0000
0000
0000
0000
0000
0000
1000
0000
,
0000
0000
0000
0000
0000
0001
0000
0000
0000
0000
0000
0000
0000
0000
0000
0000
,
0000
0000
0000
0101
0000
0000
0000
0000
0000
0000
0010
0000
0000
0000
0000
0000
,
0000
0100
0000
0000
0000
0000
0000
0000
0100
0000
0000
0000
0000
0000
0000
0000
,
0000
0000
0000
0000
0000
1001
0000
0000
0000
0000
0000
0000
0000
0000
0000
0000
,
0000
0000
0000
0000
,
0000
0000
0000
0000
,
0100
0000
0000
0000
0000
0000
0000
1000
0000
0000
0000
0000
0000
0000
0001
0000
,
0000
0000
0000
0000
0000
0010
0000
0000
0000
0000
0000
0000
0000
0000
0000
0000
,
0000
0000
0000
1001
0000
0000
0000
0000
0000
0010
0000
0000
0000
0000
0000
0000
,
0000
0100
0000
0000
0000
0000
0000
0000
0010
0000
0000
0000
0000
0000
0000
0000
,
0000
0000
0000
1010
0000
0000
0000
0000
,
0000
0000
0000
0000
,
0000
0000
0000
0000
0000
0000
0000
1000
,
0000
0000
0000
0000
0000
0001
0000
0000
0000
0000
0000
0000
0000
0100
0000
0000
,
0000
0000
0000
0001
0000
0000
0000
0000
0000
0000
0000
0000
0000
0000
0000
0000
,
0000
0010
0000
0000
0000
0000
0000
0000
0010
0000
0000
0000
0000
0000
0000
0000
,
0100
0000
0000
0000
0000
0000
0000
0010
0000
0000
0000
0000
0000
0000
0000
0000
,
0000
0000
0000
1010
0000
0000
0000
0000
0000
0000
0000
0000
0000
0000
0000
0000
,
0000
0000
0000
0000
,
0000
0000
0000
0000
0000
0000
0000
0200
,
0000
0000
0300
0000
0000
2000
0000
0000
3000
0000
0000
0200
0000
0000
0300
0000
,
0000
0000
2000
3000
0200
0300
2000
3000
0200
0300
0000
0000
0000
0000
0002
0000
,
0000
0003
0000
0000
0000
0000
0020
0000
0000
0000
0030
0000
0000
0000
0000
0000
,
0000
0000
0000
0002
0000
0000
0000
0003
0000
0000
0020
0000
0000
0000
0030
0000
,
0000
0000
0000
0000
0200
0300
2000
3000
0200
0300
2000
0000
0000
0000
0000
0000
,
0000
0000
0000
0000
0000
0000
0000
0000
0000
0000
0000
0000
0000
3000
0000
0000
,
0000
0000
0000
0200
,
0300
0000
0000
0002
0000
0000
0000
0003
0000
0000
0020
0000
0000
0030
2000
3000
,
0200
0300
2000
3000
0200
0300
0000
0000
0000
0200
0000
0302
0000
0000
0003
0000
,
0020
0000
0000
0000
0030
0000
0000
0200
0000
0000
0000
0300
0000
0000
0002
0000
,
0023
0030
0200
0302
0203
0320
0230
0300
,
0000
2000
0000
3000
0000
0000
0000
0000
,
0200
2300
3200
0302
0000
0000
0000
0000
,
0000
0003
0000
0000
0000
0000
0000
2000
,
0000
0000
3000
0000
0000
0200
0000
0000
0000
0300
0000
0002
0000
0000
0003
0000
,
2000
3000
0200
0300
2000
3000
0200
0300
0000
0000
0000
0000
0002
0000
0000
0003
,
0000
0000
0020
0000
0000
0030
0000
0200
0000
0000
0300
0000
0000
0000
0000
0000
,
0000
0000
0002
0000
0000
0000
0003
0000
0000
2000
0000
0000
3000
0000
0000
0000
,
2000
0000
3200
0000
0020
0330
0002
0003
0020
0030
0002
0003
0000
0000
0000
0000
,
0000
0000
0000
0000
0200
0000
0300
0000
0000
0200
0000
0300
0000
0000
0200
0000
,
0000
0000
0000
0000
,
0000
0300
0000
0000
,
0000
0000
0000
0000
0000
0000
0000
0000
2000
3000
0200
0300
2000
3000
0000
0200
,
0000
0300
0020
0000
0032
0000
0000
0000
0000
0000
0000
0000
0000
0000
0000
0000
,
0000
0000
0000
0000
0000
0003
0000
0000
0000
0000
0000
0000
0000
0000
0000
0000
,
0000
0000
0000
0000
,
0000
0000
0000
0000
,
0000
0000
0000
0000
0000
0000
0000
0000
0000
1000
0000
0000
0000
0000
0100
0000
,
0000
0000
0000
0000
0001
0000
0000
0000
0000
0010
0000
0000
0000
0000
0000
0100
,
0000
0000
0000
0000
0000
0000
0000
0100
,
0000
0000
0000
0000
0000
1000
0000
0000
,
0100
0000
0000
0000
0000
0000
0001
0000
0000
0000
0000
0010
0000
0000
0000
0000
,
0100
0000
0000
0000
0000
0000
0000
0002
0000
0000
0000
0000
0000
0000
0000
0000
,
0000
0000
0000
0003
0000
0000
0000
0000
0000
0100
0000
0000
0000
0000
0000
0000
,
0000
0000
0000
1000
0000
0000
0100
0000
,
0000
0001
0000
0000
0000
0000
0000
0000
0010
0000
0000
0000
0000
0000
0000
0200
,
0000
0000
0000
0000
0000
0000
0000
0000
0000
0300
0000
0000
0000
0000
0000
1000
,
0000
0000
0000
0000
0000
0000
0100
0000
0000
0000
0000
0001
0000
0000
0000
0000
,
0000
0000
0000
0010
0000
0000
0000
0000
0000
0100
0000
0000
0000
0000
0000
0000
,
0000
0010
0000
0000
0000
0000
0000
0000
0100
0000
0000
0000
0000
0000
1000
0000
,
0000
0000
0000
0000
0000
0200
0000
0000
0000
0000
0000
0000
0000
0000
0300
0000
,
0000
0000
0000
0000
0000
1000
0000
0000
0000
0000
0000
0001
0000
0000
0000
0000
,
0000
0000
0010
0000
0000
0000
0000
0000
0000
0001
0000
0000
0000
0000
0000
0020
,
0000
0000
0000
0000
0000
0000
0000
0000
0000
0030
0000
0000
0001
0000
0000
0000
,
0000
0000
0000
0000
0000
0100
0000
0000
,
0000
1000
0000
0000
0000
0000
0000
0000
0100
0000
0000
0000
0000
0000
0000
0001
,
0000
0000
0000
0200
0000
0000
0000
0000
,
0000
0000
0000
0300
0000
0000
0000
0001
0000
0000
0000
0000
0000
0000
0000
0000
,
0000
0000
0000
0100
0000
0000
0000
0000
0000
0001
0000
0000
0000
0000
0000
0010
,
0000
0000
0000
0000
0000
0100
0000
0000
0000
0000
0000
0100
0000
0000
0000
0000
,
0000
0000
0000
0000
0000
0000
0000
0000
0000
1000
0000
0000
0000
0000
0000
0000
,
0000
0000
0000
0000
0000
0001
0000
0000
0000
0000
0000
0010
0000
0000
0000
0000
,
0100
0000
0000
0001
0000
0000
0010
0000
,
0000
0000
0000
0010
0000
0000
0000
0000
0000
0000
1000
0000
0000
0000
0000
0000
,
0010
0000
0000
0000
0000
0000
0000
0000
0000
0000
0000
0000
0000
0001
0000
0000
,
0000
0000
0000
0100
0000
0000
1000
0000
0000
0100
0000
0000
0000
0000
0000
0000
,
0001
0000
0000
0000
0100
0000
0000
0000
1000
0000
0100
0000
0000
0000
1000
0100
,
0000
0000
0000
0000
0000
0001
0000
0000
0000
0000
0010
0000
0000
0000
0000
0100
,
0000
0000
0000
0001
0000
0000
0010
0000
0000
0000
0000
0100
0000
0000
1000
0000
,
0000
0000
0000
0100
0000
0000
0000
0000
0000
0001
0010
0000
0000
0100
0000
0000
,
0000
0010
0000
0000
0001
0000
0000
0000
0000
0020
0000
0000
0000
0000
0000
0000
,
0000
0000
0030
0000
0000
0000
0100
0000
0000
1000
0000
0000
0000
0100
0000
0000
,
0000
0000
1000
0000
0000
0100
0000
0000
0000
0000
0000
0000
0001
0000
0000
0000
,
0000
0010
0000
0000
0000
0100
0000
1000
0000
0100
0000
0000
0000
0000
0001
0000
,
0000
0000
0100
0000
1000
0000
0000
0000
0100
0000
0000
0001
0000
0000
0010
0000
,
0000
0100
0000
0001
0000
0010
0000
0100
,
1000
0000
0000
0000
0100
0000
0000
0001
0000
1000
0000
0100
0000
0000
0000
0000
,
0000
0000
0000
0000
0010
0000
0000
0000
0100
0000
0000
0020
0000
0000
0000
0000
,
0000
0000
0000
0030
0000
0000
0000
0000
,
0000
0000
0000
0100
0000
0000
0000
0000
0000
0000
0000
1000
0000
0000
0000
0000
,
0000
0001
0000
0000
0000
0000
0000
0000
1001
0000
0000
0000
0000
0000
0000
0000
,
0000
0000
0000
0000
0010
0000
0000
0100
,
0000
0000
0000
1100
0000
0000
0011
0000
,
0000
0000
0000
0000
0000
0000
0000
0000
0000
0000
0000
0100
0000
0000
0000
0000
,
0000
0000
0000
0000
,
0000
0000
0000
0000
,
0000
1000
0000
0100
,
0000
0000
0001
0000
0000
0000
0000
0000
0000
1010
0000
0000
0000
0000
0000
0000
,
0000
0000
0000
0101
,
0000
0000
0000
0001
0000
0000
0000
0000
0000
0100
0000
0000
0000
0000
0000
0000
,
0000
0000
0000
0000
0000
1010
0000
0000
,
0000
0000
0000
0000
,
0000
0000
0000
0000
,
0000
0000
0000
1000
0000
0000
0000
0000
0000
0000
0000
0001
0000
0000
0000
0000
,
0000
0100
0000
0000
0000
0000
0000
0000
0001
0000
0000
0000
0000
0000
0000
0000
,
0000
0000
0000
0000
0000
0010
0000
0000
0000
0000
0000
0000
0000
0000
0110
0000
,
0000
1000
0000
1000
,
0000
0000
0000
0000
0000
0001
0000
0000
,
0000
0000
0000
0000
,
0000
0000
0000
0000
,
0000
0100
0000
0000
0000
0010
0000
0000
,
0000
1010
0000
0000
0000
0000
0000
0001
0000
0000
0000
0000
0000
0000
0000
0000
,
0000
0000
0000
0100
0000
0000
0001
0000
,
0000
0000
0000
0101
0000
0000
0000
0000
0000
0000
0000
0010
0000
0000
0000
0000
,
0000
0000
0000
0000
0000
0000
0000
0100
0000
0000
0000
0000
0000
0000
0000
0000
,
0000
0000
0000
0000
,
0000
0000
0000
0000
,
0000
0000
0000
2000
0000
0000
3000
0000
0000
0000
0000
0021
0000
0000
0030
0000
,
0000
0201
0000
0000
0300
0000
0000
0000
0000
0000
2000
3000
0200
0300
2000
3000
,
0200
0300
0000
0000
0000
0000
0002
0000
0000
0003
0000
0000
0000
0020
0000
0000
,
0030
0000
0000
0000
0000
0000
0000
0000
0000
0200
0000
0000
0300
0000
0000
0000
,
0000
0200
0000
0000
0300
0000
0000
2000
3000
0020
0030
0000
2000
3000
0002
0000
,
0000
0000
0000
0000
,
0000
0003
0000
0000
0000
0000
0000
0000
0000
0000
0000
0000
0000
0000
0000
0000
,
0000
0000
2000
0000
0000
0000
3000
0000
0000
0200
0000
0000
0300
0000
0000
1002
,
0000
0000
0003
0000
0000
0020
0000
0030
0000
0002
0003
0020
0030
0002
0003
0020
,
0030
0000
0000
0000
0000
0000
0020
0000
0000
0030
0000
0200
0000
0000
0300
0000
,
0000
0000
0200
0300
2000
3000
0200
0300
2000
3000
0000
0000
0000
0000
0000
0000
,
0000
0021
0000
0000
0030
0000
0000
0000
0210
0000
0000
0000
0300
0000
0000
0000
,
0000
0000
0000
0000
0000
0002
0003
0020
0030
0000
2000
3002
0000
0000
0000
0000
,
0000
0003
0000
0000
,
0000
0000
2000
0000
0000
3000
0000
0000
0000
0200
0000
0000
0300
0000
0000
0200
,
0000
0000
0300
0000
0000
0002
0000
0023
0000
0030
0200
0300
2000
3000
0200
0300
,
2000
3000
0000
0000
0000
0000
0200
0000
0300
0000
0000
0102
0000
0000
0000
0003
,
0000
0000
0000
0000
0000
0000
0000
0002
0000
0000
0003
0000
0000
0000
0000
0210
,
0000
0000
0300
0000
2100
0000
3002
0003
0020
0030
0002
0003
0020
0030
0000
0000
,
0000
0000
0000
0000
0000
0000
0102
0000
0003
0000
0000
2010
0000
3000
0000
0000
,
0000
0000
0000
2000
0000
0000
0000
0000
0000
0000
0000
0000
0000
0000
0000
0000
,
0000
0000
0000
0000
,
0000
0000
0000
0000
0000
0000
3000
0000
0000
0000
0000
0200
0000
0300
0000
2000
,
3000
0000
0200
2300
3000
0000
0200
0300
0000
0002
0003
0000
0020
0000
0000
0000
,
0000
0000
0000
0000
,
0000
0000
0000
0000
,
0000
0000
0000
0000
,
0000
0030
0000
0000
0000
0000
0000
0000
0000
0000
0000
0000
1000
0000
0000
0000
,
0000
0100
0000
0000
0000
0000
0000
0001
0000
0000
0000
0000
0000
0000
0010
0000
,
0000
0000
0200
0000
0000
0000
0000
0300
,
0000
0000
0000
1000
0000
0000
0000
0000
0000
0000
0000
0000
0000
0000
0000
0000
,
0100
0000
0000
0000
0000
0000
0001
0000
0000
0000
0000
0000
0000
0010
0000
0000
,
0000
0000
0000
0100
0000
0000
0000
0000
0000
0000
0001
0000
0000
0000
0000
0000
,
0000
0010
0000
0000
0000
0000
0000
0000
0000
0000
0000
0000
0000
0000
0001
0000
,
0000
0000
0000
0000
0000
0000
0000
0000
0000
0000
0000
0100
0000
0000
0000
0000
,
0000
0100
0000
0000
0000
0000
0000
0000
1000
0000
0000
0000
0000
0000
0100
0000
,
0000
0100
0000
0000
,
0000
1000
0000
0000
0000
0000
0100
0000
,
0000
0100
0000
0000
0001
0000
0000
0000
,
0010
0000
0000
0000
0000
0000
0001
0000
0000
0000
0000
0000
0000
0010
0000
0000
,
0000
0000
0000
0100
0000
0000
0000
0000
0000
0000
0020
0000
0000
0000
0000
0000
,
0000
0000
0000
0030
0000
0000
0000
0000
0100
0000
0000
0000
0000
0000
0000
0000
,
1000
0000
0000
0000
0000
0000
0000
0100
0000
0000
0000
0000
0000
0001
0000
0000
,
0000
0000
0000
0000
0020
0000
0000
0000
0000
0000
0000
0000
0000
0000
0000
0030
,
0000
0000
0000
0100
0000
0000
0000
0000
0000
0000
0000
0000
0000
0000
0000
0000
,
0000
0001
0000
0000
0000
0000
0000
0000
0010
0000
0000
0000
0000
0000
0100
0000
,
0000
0000
0000
0000
0001
0000
0000
0000
0000
0000
0000
0200
0000
0000
0000
0000
,
0000
0000
0000
0000
0000
0000
0000
0000
0300
0000
0000
1000
0000
0000
0000
0000
,
0000
0000
0000
0000
0000
0000
0000
0000
0000
0100
0000
0000
0000
0000
0000
0000
,
0001
0000
0000
0000
0000
0000
0000
0010
0000
0000
0000
0000
0000
0100
0000
0000
,
0000
0000
0000
0002
0000
0000
0000
0000
0000
0000
0000
0000
0003
0000
0000
0000
,
0100
0000
0000
0000
0000
0000
0000
0000
0000
1000
0000
0000
0000
0000
0000
0000
,
0100
0000
0000
0000
0000
0000
0000
0010
0000
0000
0000
0000
0001
0000
0000
0000
,
0000
0000
0010
0000
0000
0000
0000
0000
0100
0000
0000
0000
0000
0010
0000
0000
,
0000
0000
0100
0000
0000
0000
0000
0000
0010
0000
0000
0000
0000
0000
0000
0100
,
0000
1000
0000
0000
0100
0000
1000
0000
0000
0000
0000
0000
0000
0100
0000
0000
,
0000
0001
0000
0000
0000
0000
0010
0000
0000
0000
0000
0100
0000
1000
0000
0100
,
0000
1000
0000
0100
0000
0000
0000
0100
0000
0000
0001
0000
0000
0000
0001
0000
,
0000
0000
0010
0000
0000
0100
0000
0000
0000
0000
0000
0100
0000
0000
1000
0000
,
0000
0000
0000
0100
0000
0000
0000
0000
0000
0001
0000
0000
0000
0010
0000
0000
,
0000
0100
0000
0000
1000
0000
0100
0000
1000
0000
0000
0001
0000
0000
0000
0000
,
0020
0000
0000
0000
0000
0000
0030
1000
,
0000
0100
0000
0000
1000
0000
0000
0000
0000
0000
0000
0100
0000
0000
0000
0001
,
0000
0000
0000
0010
0000
0000
0000
0000
0100
0000
0000
0000
0001
0000
0010
0000
,
0000
0100
0000
1000
0000
0000
0100
0000
0001
0000
0000
0000
0010
0000
0000
0000
,
0100
0000
0000
0000
0010
0001
0000
0000
0000
0100
0000
0000
0010
0000
0000
0000
,
0100
0000
0000
0000
0010
0000
0000
0000
0000
1000
0000
0000
0000
0000
0100
0000
,
1000
0000
0100
0000
0000
0000
0000
0000
0000
0000
0000
0000
0000
1000
0000
0000
,
0100
0000
0200
0000
0000
0000
0000
0000
0000
0000
0000
0000
0000
0300
0000
0000
,
0000
0000
0000
1000
,
0000
0100
0000
0010
,
0000
1010
0000
0000
0000
0000
0000
0000
,
0000
0100
0000
0000
0000
0000
0000
0000
0100
0000
0000
0000
0000
0000
0001
0000
,
0000
0000
0000
0110
0000
0000
0000
0000
,
0000
0000
0000
1001
0000
0000
0000
0000
0000
0000
0000
0000
0000
0000
0000
0000
,
0000
0000
0000
0000
,
0000
0000
0000
0000
0000
0010
0000
0000
,
0000
0000
0000
0000
1000
0000
0000
0000
0000
0000
0000
0100
0000
0000
0000
0000
,
0000
0000
0001
0000
0000
0000
0000
0000
0000
0000
0000
0000
0000
0000
0000
1100
,
0000
0000
0000
0010
0000
0000
0000
0100
,
0000
0000
0000
0010
0000
0000
0000
0000
0000
0000
0000
0000
0000
0000
0000
0000
,
0100
0000
0000
0000
,
0000
0000
0000
0000
,
0000
0000
0000
0000
0000
1000
0000
0000
,
0000
0000
0000
0001
0000
0000
0000
0000
0000
0100
0000
0000
0000
0000
0000
0000
,
0010
0000
0000
0000
0000
0000
0000
0000
0000
0000
0000
0000
0000
1010
0000
0000
,
0000
0100
0000
0001
,
0000
0100
0000
0000
0000
0000
0000
0000
,
0010
0000
0000
0000
,
0000
0000
0000
0000
,
0000
0000
0000
0000
0000
1000
0000
0000
,
0000
0001
0000
0000
0000
0000
0000
0000
0000
1001
0000
0000
0000
0000
0000
0010
,
0000
0000
0000
0000
0000
0000
0000
1010
,
0000
0000
0000
0000
0000
0101
0000
0000
0000
0000
0000
0000
0000
0000
0000
0000
,
0000
0000
0100
0000
0000
0000
0000
0000
0000
0000
0000
0000
0000
0000
0000
0101
,
0000
0000
0000
0000
,
0000
0000
0000
0000
,
0000
0000
0000
0000
0000
0000
0000
0000
0000
2000
0000
0000
0000
3000
0000
0000
,
0000
1200
0000
0000
0300
0000
0201
0000
0000
0300
0000
0000
2000
3000
0200
0300
,
2000
3000
0200
0300
0000
0000
0000
0000
0000
0000
0012
0000
0000
0000
0003
0000
,
0120
0000
0000
0030
0000
0000
1200
0000
0000
0300
0000
0000
0000
0000
0000
0000
,
0000
2010
0000
0000
3000
0000
0000
0201
0000
0000
0300
0000
0000
0000
2000
3000
,
0200
0300
2000
3000
0200
0000
0000
0000
0000
0000
0000
0000
0000
0000
0000
0000
,
0000
0000
0300
0000
,
0000
0000
0000
0000
0000
0000
0000
0000
2000
0000
0000
3000
0000
0000
0000
1200
,
0000
0300
0000
0000
0000
0210
0000
0300
0000
0000
0000
0000
2000
3000
0200
0300
,
2000
3000
0200
0300
0000
0000
0000
0000
0120
0000
0030
0000
2010
0000
0000
3000
,
0000
0201
0000
0000
0300
0000
0000
0000
2000
3000
0200
0300
2000
3000
0200
0300
,
0000
0000
0000
0000
0000
0000
0000
0102
0000
0003
0000
2010
0000
3000
0000
0000
,
0000
0102
0000
0003
0000
0000
0000
0000
0000
0000
0000
0000
0200
0300
2000
3000
,
0200
0300
0002
0000
0000
0000
0000
0000
0000
0000
0000
0000
0000
0000
0000
0000
,
0000
0000
0003
0000
0000
0000
0000
0000
0201
0000
0000
0300
0000
0000
0000
1200
,
0000
0300
0000
0102
0003
0000
0012
0003
,
0200
0300
2000
3000
0200
0300
0002
0003
0000
0000
0000
2010
0000
3000
0000
0000
,
0000
0200
0000
0000
0000
0000
0000
0000
0000
0000
0000
0300
0000
0000
0000
0000
,
0020
0000
0000
0030
0000
0000
0200
0000
0300
0000
0000
0000
0020
0030
0200
0300
,
0020
0030
0200
0300
0000
0000
0000
0000
0000
0000
0000
0000
0000
0020
0000
0030
,
0000
0000
0000
0200
0000
0300
0000
0000
0000
0200
0000
0000
0000
0000
0000
0000
,
0000
0000
0000
0000
,
0000
0000
0000
0000
,
0000
0000
0000
0300
2000
3000
0002
0003
2000
3000
0002
0003
0000
0000
0000
0000
,
0000
0020
0000
0000
0000
0000
0000
0000
0000
0000
0000
0000
0000
0000
0000
0000
,
0000
0000
0000
0000
,
0000
0000
0000
0000
,
0000
0000
0000
0000
0000
0000
0000
0000
0000
0030
0000
0000
0000
0000
0000
0000
,
0000
0000
0000
1000
0000
0000
0000
0000
0000
0100
0000
0000
0000
0000
0000
0001
,
0000
0000
0000
0000
0000
0010
0000
0000
0000
0000
0000
0000
0200
0000
0000
0000
,
0000
0000
0000
0000
0000
0000
0300
0000
0000
0000
0000
0010
0000
0000
0000
0000
,
0000
0000
0000
0000
0000
0000
0000
0000
0000
0100
0000
0000
0000
0000
0000
0000
,
0010
0000
0000
0000
0000
0000
0000
0010
0000
0000
0000
0000
0000
0000
0100
0000
,
0000
0020
0000
0000
,
0030
0100
0000
0000
,
0000
0000
0000
0010
0000
0000
0000
0000
0000
1000
0000
0000
0000
0000
0000
0000
,
0001
0000
0000
0000
0000
0000
0000
0100
0000
0000
0000
0000
0000
0001
0000
0000
;
