#TITLE:Under The Sky;
#SUBTITLE:;
#ARTIST:Be For U with platoniX;
#TITLETRANSLIT:;
#SUBTITLETRANSLIT:;
#ARTISTTRANSLIT:;
#CREDIT:;
#BANNER:Under The Sky-bn.jpg;
#BACKGROUND:Under The Sky-bg.jpg;
#LYRICSPATH:;
#CDTITLE:;
#MUSIC:beatmaniaIIDX 12 HAPPY SKY - Under the Sky.mp3;
#OFFSET:-0.112;
#SAMPLESTART:35.160;
#SAMPLELENGTH:12.000;
#SELECTABLE:YES;
#BPMS:0.000=170.010;
#STOPS:;
#BGCHANGES:1.000=beatmaniaiidx 12 happy sky - under the sky.avi=1.000=0=0=1,
99999=-nosongbg-=1.000=0=0=0 // don't automatically add -songbackground-
;
// cache tags:
#FIRSTBEAT:4.000;
#LASTBEAT:346.000;
#SONGFILENAME:Songs/toune/Under The Sky/Under The Sky.sm;
#HASMUSIC:1;
#HASBANNER:0;
#MUSICLENGTH:124.290;
// end cache tags

//---------------dance-single - challenge----------------
#NOTES:
     dance-single:
     challenge:
     Challenge:
     8:
     0.638,0.731,0.225,0.483,0.072,467.000,28.000,60.000,0.000,0.000:
0000
0000
0000
0000
,
1000
0100
0010
0001
0000
0000
0000
0000
,
0000
0000
0000
0000
,
1000
0100
0010
0001
0000
0000
0000
0000
,
0001
0100
0010
1000
0000
0000
0000
0000
,
0001
0010
0100
1000
0000
0000
0000
0000
,
0001
0010
0100
1000
0000
0000
0000
0000
,
1000
0010
0100
0001
0000
0000
0000
0000
,
0000
0000
0000
2000
0000
3000
0000
0000
,
0110
0000
0000
0001
0100
0000
0100
0020
,
0000
0000
0000
0000
0000
0030
0000
1000
,
0020
0100
0030
0001
0000
0020
0000
0030
,
0110
0000
0100
0020
0000
0030
0001
0200
,
0000
0300
0000
0000
0001
0000
2000
0000
,
0000
0000
3010
0000
0200
0000
0301
0200
,
0000
0000
0000
0000
0000
0000
0000
0300
,
1000
0100
0010
0100
0001
0100
0000
0001
,
0201
0000
1300
0200
0000
0300
0010
0200
,
0000
0300
0000
0000
0000
0001
0100
0010
,
0120
0000
0130
0020
0000
0030
1000
0020
,
0000
0030
0000
0000
0000
0100
0001
0010
,
0120
0000
0130
1000
0000
0000
0000
0010
,
0110
0000
0002
0100
0003
1000
0100
0002
,
1000
1000
1000
1000
,
1000
1000
1003
1000
,
0110
0010
0100
0010
1000
0010
0100
0010
,
0100
0001
0100
0000
0010
0100
0010
0000
0100
1000
0100
0000
0010
0000
0100
0000
,
1010
0100
0010
0100
0001
0100
0010
0100
,
1000
0100
1000
0000
0100
0010
0100
0000
0001
0100
0001
0000
0100
0000
1000
0000
,
0010
0100
0010
0100
0010
1000
0010
1000
,
0020
0000
0030
0200
0000
0301
1000
0000
,
1001
1000
0100
1000
0100
1000
0010
1000
,
0010
0100
0001
0100
0001
0010
0100
1000
,
1001
0000
0100
0010
0000
1000
0000
0100
,
0000
0010
0001
0000
0100
0010
1000
0000
,
0100
0010
0001
0000
1000
0001
1000
0001
,
0100
0001
0100
0001
0010
0100
0010
0100
,
1000
1000
0100
0100
0010
0010
1000
1000
,
0001
0001
0100
0100
1000
1000
0010
0010
,
0100
0010
0100
0000
0001
0100
0001
0000
1000
0010
1000
0000
0100
0010
0100
0000
,
0001
1000
0001
1000
0001
0100
0001
0100
0001
0010
0001
0010
0001
0000
0000
0000
,
0011
1100
0110
0102
,
0000
0000
0023
0000
0000
0030
0001
0100
,
0010
0000
0100
0000
1000
0100
0001
0020
,
0000
0100
0000
1000
0000
0100
0000
1030
,
0001
0100
0001
0000
1000
0100
2000
0000
,
3010
0100
0020
0000
0130
0001
0010
0100
,
2100
0000
3000
0100
0020
0001
0000
0001
,
0030
0001
0100
0010
1010
0000
1001
0000
,
1100
0101
0110
2100
,
0000
0000
3002
0000
0000
0003
1000
0100
,
0010
0000
0010
2000
0000
3200
0000
0320
,
0000
0100
0000
1000
0000
0130
0000
0010
,
1001
1000
0001
0100
0020
0000
1030
0100
,
0010
0001
0010
0000
0100
1000
0100
0000
,
0010
0100
0001
0100
0010
0100
1000
0100
,
0010
0001
0100
0010
0100
0100
0100
0100
,
0010
1000
0010
1000
0010
0100
0001
0010
,
0100
1000
0100
1000
0001
0010
0100
1000
,
0010
0100
1000
0100
0010
0001
1000
0100
,
0001
0010
0001
0010
0100
0001
0100
0001
,
1000
0010
0100
1000
0010
0100
1000
0001
,
0010
1000
0010
1000
0001
0100
0001
0100
,
1000
0100
0001
0000
0001
0010
1000
0001
,
1000
0010
0001
0000
0001
0100
1000
0001
,
0011
0110
1000
0200
,
0300
0002
0003
1000
,
2100
0000
3010
0000
0200
0000
0301
0020
,
0000
0100
0000
0100
0000
0130
0000
0010
,
0001
0100
0010
0000
0100
0010
2000
0000
,
3010
0100
2000
0000
3001
0010
2000
0000
,
3200
0000
0300
0010
0002
0000
0100
0000
,
0100
0000
0000
0000
0103
0000
0000
0000
0010
1000
0010
0000
1010
0000
0000
0000
,
1000
0100
1000
0100
0010
0100
0010
0100
,
0001
0100
0010
1000
0001
0100
0010
0001
,
0100
1000
0100
0020
0000
2030
0000
3200
,
0000
0310
0001
1000
0100
0010
0001
1000
,
0110
0000
0100
0001
1000
0000
1000
0100
,
0000
0020
0000
0032
0000
0203
0000
2300
,
0000
3100
0020
1000
0000
1000
0000
1000
,
0000
1030
0100
0001
0101
0000
1000
0000
,
0020
0000
0000
0030
0000
0000
0002
0000
,
0203
0000
0300
0020
0000
0030
0002
0000
,
0010
0000
0000
0000
,
0003
0000
0000
0000
2000
0000
0000
0000
3100
0000
0000
0002
0000
0000
0100
0003
,
0020
0000
0130
2000
0000
0000
0000
0000
,
0100
0000
3001
0000
;
