#TITLE:A.N.I.C;
#SUBTITLE:;
#ARTIST:SUM 41;
#TITLETRANSLIT:;
#SUBTITLETRANSLIT:;
#ARTISTTRANSLIT:;
#CREDIT:;
#BANNER:A.N.I.C.png;
#BACKGROUND:A.N.I.C.jpg;
#LYRICSPATH:;
#CDTITLE:2kM Index.png;
#MUSIC:A.N.I.C.ogg;
#OFFSET:-0.656;
#SAMPLESTART:14.860;
#SAMPLELENGTH:12.000;
#SELECTABLE:YES;
#BPMS:0.000=200.120;
#STOPS:;
#BGCHANGES:;
// cache tags:
#FIRSTBEAT:12.000;
#LASTBEAT:110.000;
#SONGFILENAME:Songs/Fresh Flock of Fantastic Files F4/(2kM) A.N.I.C/A.N.I.C.sm;
#HASMUSIC:1;
#HASBANNER:1;
#MUSICLENGTH:39.704;
// end cache tags

//---------------dance-single - ----------------
#NOTES:
     dance-single:
     :
     Hard:
     11:
     1.000,1.000,1.000,0.000,1.000,275.000,42.000,0.000,0.000,0.000:
0000
0000
0000
0000
,
0000
0000
0000
0000
,
0000
0000
0000
0000
,
1000
1000
0000
0000
0000
0000
0000
0000
,
0001
0010
0100
1000
0010
0100
0001
0100
,
0010
1000
0100
0010
0001
0000
0000
0000
,
0001
0010
0100
1000
0010
0100
0001
1000
,
0001
0000
0100
0000
0010
0000
0000
1000
0000
0000
0001
0000
0000
0000
0000
0000
,
1001
0010
0100
0001
1000
0100
0010
0100
1001
0010
0100
0001
1000
0001
0010
0100
,
1001
0010
1000
0100
0010
0001
0100
0010
1001
0000
0000
0000
1001
0000
0000
0000
,
1001
0010
1000
0100
0010
0001
0010
0100
1001
0010
0100
0010
1000
0100
0010
0100
,
1001
0010
0100
0001
1000
0001
0010
0100
1001
0000
0000
0000
1001
0000
0000
0000
,
1100
0001
0011
0100
1100
0010
0011
1000
,
1001
0110
0011
1100
1001
0000
0000
0000
,
0011
0010
0110
0100
1100
1000
1001
0001
,
1001
0000
0110
0000
1010
0000
0000
0101
0000
0000
1001
0000
0000
0000
0000
0000
,
1100
0001
0010
0100
1000
0010
0100
0001
0110
0001
1000
0100
0010
0001
1000
0010
,
1100
0001
1000
0100
0010
0001
1000
0100
1001
0000
0000
0000
1001
0000
0000
0000
,
0110
0001
1000
0100
0010
0100
1000
0001
1010
0100
1000
0010
0100
0001
1000
0100
,
1001
0010
0100
0001
1000
0100
0010
0001
0110
0000
0000
0000
1001
0000
0000
0000
,
0001
0010
0100
1000
0001
0010
0100
1000
0001
0010
0100
1000
0001
0010
0100
1000
,
0001
0100
0010
1000
0001
0100
0010
1000
0001
0100
0010
1000
0001
0100
0010
1000
,
0001
0010
0001
0010
0100
1000
0100
1000
0001
0010
0001
0010
0100
1000
0100
1000
,
0001
0100
0001
0100
0010
1000
0010
1000
0001
0100
0001
0100
0010
1000
0010
1000
,
0001
0010
0100
0010
0001
1000
0010
0100
0001
1000
0001
0010
0100
1000
0010
0100
,
0010
1000
0001
0010
0100
1000
0100
1000
0100
0010
0001
1000
0100
0010
0001
0010
,
0001
0010
0100
1000
0010
0100
0001
1000
0001
0010
0001
1000
0100
1000
0001
0010
,
0100
1001
1100
0101
1001
0000
0000
0000
;
