#TITLE:Polkakorowakurwa;
#SUBTITLE:;
#ARTIST:Zbuntowany Roman;
#TITLETRANSLIT:;
#SUBTITLETRANSLIT:;
#ARTISTTRANSLIT:;
#CREDIT:;
#BANNER:polkakorowakurwa bn.png;
#BACKGROUND:polkakorowakurwa bg.png;
#LYRICSPATH:;
#CDTITLE:;
#MUSIC:Polkakorowakurwa.ogg;
#OFFSET:-0.056;
#SAMPLESTART:8.865;
#SAMPLELENGTH:8.822;
#SELECTABLE:YES;
#DISPLAYBPM:218.000;
#BPMS:0.000=218.000,240.000=163.500,240.750=109.000,242.000=436.000,243.000=218.000;
#STOPS:;
#BGCHANGES:;
// cache tags:
#FIRSTBEAT:12.000;
#LASTBEAT:347.000;
#SONGFILENAME:Songs/SPEEEDCOOOORE 3/Polkakorowakurwa - [Tyler]/Polkakorowakurwa.sm;
#HASMUSIC:1;
#HASBANNER:1;
#MUSICLENGTH:96.836;
// end cache tags

//---------------dance-single - T. Moore----------------
#NOTES:
     dance-single:
     T. Moore:
     Challenge:
     13:
     1.000,1.000,0.692,0.330,0.764,660.000,67.000,32.000,6.000,14.000:
0000
0000
0000
0000
,
0000
0000
0000
0000
,
0000
0000
0000
0000
,
1000
0000
0001
1000
0001
0000
1000
0000
0001
0000
0000
0000
2MM2
3003
0000
0000
,
1001
1000
0100
0010
0001
0100
0010
1000
,
0001
1000
0001
1000
0100
0000
0010
0000
0001
1000
0001
1000
0001
0000
1000
0010
,
0100
0001
0100
0000
0010
0000
1000
0000
0001
1000
0001
0000
0010
0000
0100
0000
,
1000
1100
1110
1111
,
1001
1000
0001
0100
0010
1000
0100
0010
,
0001
1000
0001
1000
0010
0000
0100
0000
0001
0100
0001
0100
0001
0000
1000
0000
,
1000
0100
0010
0001
1000
0010
0100
0001
,
1000
0001
1000
0001
1000
0000
0000
0000
2222
0000
0000
0000
0000
0000
3333
0000
,
1001
0001
0010
0100
1000
0010
0100
0001
,
1000
0001
1000
0001
0010
0000
0100
0000
1000
0001
1000
0001
1000
0000
0010
0000
,
0100
0001
0100
0000
0010
0000
1000
0000
0001
1000
0001
1000
0100
0000
0010
0000
,
0001
0011
0111
1111
,
1001
0001
1000
0010
0100
0001
0010
0100
,
1000
0001
1000
0001
0100
0000
0010
0000
1000
0010
1000
0000
0001
1000
0001
1000
,
0001
0000
0010
0000
0100
0000
1000
0000
0001
1000
0001
1000
0100
0000
0010
0000
,
0001
1000
1000
0010
0100
0001
0001
0010
,
0001
1000
0100
0010
0100
1000
0001
0010
0001
1000
0001
1000
0010
0100
0001
0100
,
0010
1000
0001
1000
0010
0100
0001
1000
0001
0010
0100
1000
0001
1000
0100
0010
,
0001
1000
0001
0100
0010
0100
0001
1000
0100
0010
0100
1000
0001
0100
0010
1000
,
0001
0100
0010
1000
0001
1000
0010
0100
0001
1000
0100
1000
0001
0010
0100
1000
,
0001
0100
0010
1000
0001
1000
0010
0100
0001
1000
0100
1000
0001
0100
0010
1000
,
0001
1000
0100
0010
0001
0010
0100
1000
0001
0100
0010
0100
0001
1000
0010
1000
,
0001
0010
0100
1000
0001
1000
0001
1000
0001
0100
0010
1000
0100
1000
0001
0010
,
0001
1000
0001
1000
0001
1000
0001
1000
0001
0000
0100
0000
0010
0000
1000
0000
,
0001
1000
0001
1000
0100
0000
0010
0000
0001
1000
0001
0000
0010
0000
0100
0000
,
1000
0100
1000
0000
0001
0000
1000
0000
0001
0100
0001
0100
0001
0100
0001
0100
,
0001
0100
0010
1000
0100
1000
0010
0100
,
0001
0100
0001
0100
0010
1000
0010
1000
0001
0010
0001
0010
0100
1000
0100
1000
,
0001
1000
0001
0000
1000
0000
0100
0000
0010
0001
0010
0000
0100
0000
1000
0000
,
0001
1000
0001
0000
1000
0000
0010
0000
0100
0001
0100
0001
0100
0000
0000
0000
,
0001
0000
0100
0000
0010
0000
1000
0000
0100
1000
0100
1000
0100
0000
0010
0000
,
0011
0000
1001
0000
1010
0010
0110
0100
,
0101
0000
0001
0000
0100
0000
0010
0000
1000
0010
1000
0000
0001
0000
1000
0000
,
0001
0010
0001
0000
0010
0000
0100
0000
1000
0100
1000
0000
1001
0000
0000
0000
,
1001
0000
0001
0000
0100
0000
0010
0000
1000
0001
1000
0000
0001
0000
0010
0000
,
0100
1000
0100
1000
0100
0000
0010
0000
0001
0010
0001
0000
1001
0000
0000
0000
,
1001
1000
0010
0100
0101
0000
1001
0000
,
1100
0100
0010
0001
1001
0000
0101
0000
,
0110
0010
1000
0010
0100
0001
0010
0100
,
2222
0000
3333
0000
,
1001
0000
0001
0010
0100
1000
0001
0000
,
1001
0000
1000
0010
0100
0000
0001
0000
,
1001
0000
1000
0001
0010
0100
1000
0010
,
0100
0001
0000
0001
1000
0000
0001
0000
,
0011
0000
0010
0100
1000
0000
0001
0000
,
0101
0000
0100
0010
1000
0000
0001
0000
,
1100
0000
0100
0010
0001
0000
1000
0000
,
1010
0000
1010
0000
1010
0000
0000
0000
0010
0000
0100
0000
0001
0010
0001
0010
,
0100
0000
0100
1000
0001
0100
0010
0000
,
1010
0000
0010
0100
0001
0000
1000
0000
,
1100
0000
0100
0010
0001
1000
0010
0100
,
0001
1000
0000
1000
0100
0000
0010
0000
,
0011
0000
0001
1000
0010
0000
0100
0000
,
0101
0000
0100
0010
1000
0000
0001
0000
,
0011
0000
0010
0100
1000
0000
0010
0000
,
0110
0000
0110
0000
0110
0000
0000
0000
0100
0000
0001
0000
1000
0001
0010
0100
,
2000
3000
0000
0000
MMMM
0000
1001
0001
,
0010
0000
0100
0000
1000
0000
0010
0000
0100
0000
0001
0000
1000
0001
1000
0000
,
0100
0000
0010
0000
0001
1000
0001
1000
0001
0000
0100
0000
0010
1000
0010
0000
,
0100
0000
0001
0000
1000
0001
1000
0000
0100
0000
0010
0000
2222
3333
0000
0000
,
0222
0333
0000
0000
2022
3033
0000
0000
2202
3303
0000
0000
1001
0000
0001
0000
,
1000
0000
0010
0000
0100
0000
0001
0000
0010
0000
0100
0000
1000
0001
1000
0000
,
0100
0000
0010
0000
0001
0010
0001
0010
0001
0000
1000
0000
1000
0000
0010
0000
,
0100
0000
0001
0000
0100
0000
0010
0000
1000
0000
0001
0000
1000
0001
1000
0001
,
1000
0000
2222
0000
0000
3333
1001
1000
,
0100
0000
0010
0000
0001
0000
0100
0000
0010
0000
1000
0000
0001
1000
0001
1000
,
0100
0000
0010
0000
0001
1000
0001
1000
0001
0000
0100
0000
0010
1000
0010
0000
,
0100
0000
0001
0000
1000
0001
1000
0001
0010
0000
0100
0000
1000
0000
0000
0000
,
1100
0000
1110
0000
1111
0000
1001
1000
,
0001
0000
0100
0000
0010
0000
1000
0000
0100
0000
0010
0000
0001
1000
0001
1000
,
0010
0000
0100
0000
0001
0100
0001
0000
1000
0001
1000
0001
1000
0000
0100
0000
,
0010
0000
0001
0000
1000
0001
1000
0001
0010
0000
0100
0000
1000
0000
0001
0000
,
0001
0100
0010
1000
1000
0100
0011
0000
,
0000
0000
0000
0000
0000
1100
0000
0000
0000
0000
0000
0000
0000
0000
0000
0000
0000
0000
0000
0000
1001
0000
0000
0000
0000
0000
0000
0000
0000
0000
0000
0000
,
0000
0101
0000
0000
0000
0000
0000
0000
1010
0000
0000
0000
0000
0000
0000
0000
,
0110
0000
0101
0000
,
1001
0000
0000
4400
,
0000
0000
0000
0000
,
0000
0000
0000
0000
,
0000
0000
0000
0000
,
0000
0000
0000
0000
,
0000
0000
0000
0000
,
0000
3300
2222
3333
;

//---------------dance-single - T. Moore----------------
#NOTES:
     dance-single:
     T. Moore:
     Hard:
     12:
     1.000,1.000,0.764,0.310,0.454,587.000,74.000,30.000,4.000,13.000:
0000
0000
0000
0000
,
0000
0000
0000
0000
,
0000
0000
0000
0000
,
1000
0000
0001
1000
0001
0000
1000
0000
0001
0000
0000
0000
2MM2
3003
0000
0000
,
1001
1000
0100
0010
0001
0100
0010
1000
,
0001
1000
0001
1000
0100
0000
0010
0000
0001
1000
0001
1000
0001
0000
1000
0010
,
0100
0001
0100
0000
0010
0000
1000
0000
0001
1000
0001
0000
0010
0000
0100
0000
,
1000
1100
1110
1111
,
1001
1000
0001
0100
0010
1000
0100
0010
,
0001
1000
0001
1000
0010
0000
0100
0000
0001
0100
0001
0100
0001
0000
1000
0000
,
1000
0100
0010
0001
1000
0010
0100
0001
,
1000
0001
1000
0001
1000
0000
0000
0000
2222
0000
0000
0000
0000
0000
3333
0000
,
1001
0001
0010
0100
1000
0010
0100
0001
,
1000
0001
1000
0001
0010
0000
0100
0000
1000
0001
1000
0001
1000
0000
0010
0000
,
0100
0001
0100
0000
0010
0000
1000
0000
0001
1000
0001
1000
0100
0000
0010
0000
,
0001
0011
0111
1111
,
1001
0001
1000
0010
0100
0001
0010
0100
,
1000
0001
1000
0001
0100
0000
0010
0000
1000
0010
1000
0000
0001
1000
0001
1000
,
0001
0010
0100
1000
0001
0001
0100
0000
,
0001
0010
0010
0100
0010
0001
0001
1000
,
0010
0000
0100
0000
0010
0000
0100
0000
0001
0100
0001
0000
0010
0000
0001
0000
,
0010
0100
0010
0100
1000
0000
1000
0001
,
0100
0000
0010
0000
0100
0000
0010
0000
1000
0001
1000
0000
0001
0000
0010
0000
,
0100
1000
0100
1000
0001
0100
0001
0100
,
0010
0000
1000
0010
0100
0001
1000
0001
,
0010
0000
0100
0010
0001
0000
1000
0010
,
0100
0000
0001
0000
1000
0001
1000
0001
1000
0000
0000
0000
1100
0000
0000
0000
,
0010
0001
0010
0001
0010
0001
0010
0001
0010
0000
0100
0000
1000
0000
0001
0000
,
1000
0000
0000
0000
0010
0000
1000
0000
0001
1000
0001
0000
0010
0000
0100
0000
,
1000
0100
1000
0000
0001
0000
1000
0000
0001
0100
0001
0100
0001
0000
0000
0000
,
0001
0100
0010
1000
0100
1000
0010
0100
,
0001
0100
0001
0100
0010
1000
0010
1000
0001
0010
0001
0010
0100
1000
0100
1000
,
0001
1000
0001
0000
1000
0000
0100
0000
0010
0001
0010
0000
0100
0000
1000
0000
,
0001
1000
0001
0000
1000
0000
0010
0000
0100
0001
0100
0001
0100
0000
0000
0000
,
0001
0000
0100
0000
0010
0000
1000
0000
0100
1000
0100
1000
0100
0000
0010
0000
,
0011
0000
1001
0000
1010
0010
0110
0100
,
0101
0000
0001
0000
0100
0000
0010
0000
1000
0010
1000
0000
0001
0000
1000
0000
,
0001
0010
0001
0000
0010
0000
0100
0000
1000
0100
1000
0000
1001
0000
0000
0000
,
1001
0000
0001
0000
0100
0000
0010
0000
1000
0001
1000
0000
0001
0000
0010
0000
,
0100
1000
0100
1000
0100
0000
0010
0000
0001
0010
0001
0000
1001
0000
0000
0000
,
1001
1000
0010
0100
0101
0000
1001
0000
,
1100
0100
0010
0001
1001
0000
0101
0000
,
0110
0010
1000
0010
0100
0001
0010
0100
,
2222
0000
0000
3333
0000
0000
0000
0000
,
1001
0000
0001
0010
0100
1000
0001
0000
,
1001
0000
1000
0001
0100
0000
0010
0000
,
1010
0000
1000
0010
0100
0001
0010
0100
,
1000
0001
0000
0001
0100
0000
0010
0000
,
1001
0000
1000
0100
0010
0000
0001
0000
,
0101
0000
0100
0010
1000
0000
0001
0000
,
1100
0000
0100
0010
0001
0000
0100
0000
,
0101
0000
0101
0000
0101
0000
0000
0000
0001
0000
0100
0000
0010
1000
0010
1000
,
0001
0000
1000
0100
0010
0001
0100
0000
,
0101
0000
0001
1000
0100
0000
0010
0000
,
1001
0000
1000
0001
0100
0010
1000
0100
,
0010
0001
0000
0001
0100
0000
0010
0000
,
1001
1001
1100
0010
,
0011
0011
0101
0100
,
0110
0110
1010
1000
,
1001
0000
1001
0000
1001
0000
0000
0000
0001
0000
0010
0000
0100
1000
0100
1000
,
0002
0003
0000
0000
M00M
0000
1001
0001
,
0010
0000
0100
0000
1000
0000
0010
0000
0100
0000
0001
0000
1000
0001
1000
0000
,
0100
0000
0010
0000
0001
1000
0001
1000
0001
0000
0100
0000
0010
1000
0010
0000
,
0100
0000
0001
0000
1000
0001
1000
0000
0100
0000
0010
0000
0022
0033
0000
0000
,
2220
3330
0000
0000
0222
0333
0000
0000
2202
3303
0000
0000
1001
0000
0001
0000
,
1000
0000
0010
0000
0100
0000
0001
0000
0010
0000
0100
0000
1000
0001
1000
0000
,
0001
0000
0100
0000
0010
1000
0010
1000
0010
0000
0100
0000
0100
0000
0001
0000
,
1000
0000
0001
0000
0001
0000
1000
0000
0100
0000
0010
0000
0001
1000
0001
1000
,
0001
0000
2222
0000
0000
3333
1001
1000
,
0100
0000
0010
0000
0001
0000
0100
0000
0010
0000
1000
0000
0001
1000
0001
1000
,
0100
0000
0010
0000
0001
1000
0001
1000
0001
0000
0100
0000
0010
1000
0010
0000
,
0100
0000
0001
0000
1000
0001
1000
0001
0010
0000
0100
0000
1000
0000
0000
0000
,
1100
0000
1110
0000
1111
0000
1001
1000
,
0001
0000
0100
0000
0010
0000
1000
0000
0100
0000
0010
0000
0001
1000
0001
1000
,
0010
0000
0100
0000
0001
0100
0001
0000
1000
0001
1000
0001
1000
0000
0100
0000
,
0010
0001
1000
1000
0010
0000
1000
0100
,
0100
0010
0100
1000
1000
0001
0101
0000
,
0000
0000
0000
0000
0000
1010
0000
0000
0000
0000
0000
0000
0000
0000
0000
0000
0000
0000
0000
0000
1001
0000
0000
0000
0000
0000
0000
0000
0000
0000
0000
0000
,
0000
1100
0000
0000
0000
0000
0000
0000
0011
0000
0000
0000
0000
0000
0000
0000
,
1001
0000
0101
0000
,
1010
0000
0000
4004
,
0000
0000
0000
0000
,
0000
0000
0000
0000
,
0000
0000
0000
0000
,
0000
0000
0000
0000
,
0000
0000
0000
0000
,
0000
3003
2222
3333
;

//---------------dance-single - T. Moore----------------
#NOTES:
     dance-single:
     T. Moore:
     Medium:
     10:
     0.922,1.000,0.795,0.723,0.119,477.000,77.000,70.000,20.000,0.000:
0000
0000
0000
0000
,
0000
0000
0000
0000
,
0000
0000
0000
0000
,
0001
0000
1000
0001
1000
0000
0001
0000
1000
0000
0000
0000
2MM2
3003
0000
0000
,
1001
0001
0010
0100
1000
0010
0100
0001
,
2000
0000
3010
0100
0002
0000
1003
0100
,
0020
0000
0031
1000
0002
0000
0103
0010
,
1000
1001
0011
1100
,
1001
0001
1000
0010
0100
0001
0010
0100
,
2000
0000
3001
0100
0020
0000
1030
1000
,
0020
0000
0130
0001
1000
0100
0010
0001
,
1000
0001
1000
0001
1000
0000
0000
0000
M22M
0000
0000
0000
0000
0000
0330
0000
,
1001
1000
0100
0010
0001
0100
0010
1000
,
0002
0000
1003
0100
0020
0000
0031
0010
,
0200
0000
1300
0001
2000
0000
3001
0100
,
0110
1010
1100
0011
,
1001
1000
0001
0100
0010
1000
0100
0010
,
0002
0000
0000
0000
1003
0000
0001
0000
0200
0000
0000
0000
0310
1000
0010
1000
,
0020
0000
0130
0001
1000
1000
0100
0010
,
0001
1000
1000
0010
0100
0001
0001
1000
,
0100
0000
0010
0000
0100
0000
0010
0000
0001
0010
0001
0000
0100
0000
0001
0000
,
1000
0010
1000
0010
0100
0000
0001
1000
,
0100
0000
0010
0000
0100
0000
0010
0000
0001
1000
0001
0000
0100
0000
0010
0000
,
1000
0010
1000
0010
1000
0001
1000
0001
,
0010
0000
0001
0010
0100
1000
0001
1000
,
0010
0000
1000
0010
0100
0000
0001
0100
,
0010
0000
1000
0000
0001
1000
0001
1000
0001
0000
0000
0000
0010
0000
0000
0000
,
0001
1000
0001
1000
0001
1000
0001
1000
0001
0000
0010
0000
0100
0000
1000
0000
,
0002
0000
0103
0010
2000
0000
3001
0010
,
0200
0000
1300
0001
0200
0000
0301
0000
,
0100
0001
1000
0100
0010
0001
0100
0010
,
2020
0000
0000
3030
2200
0000
0000
3300
0220
0000
0000
0330
0022
0000
0000
0033
,
2001
0000
3001
0010
0200
0000
0310
0001
,
2000
0000
3001
1000
0020
0000
0130
0000
,
0010
1000
0001
0010
0100
1000
0100
0010
,
0011
0000
1001
0000
0101
0100
0010
1000
,
1002
0000
1003
0100
0020
0000
0130
1000
,
0002
0000
1003
0010
0200
0000
0301
0000
,
1002
0000
1003
0100
0020
0000
0130
1000
,
0001
0001
1000
0010
0200
0000
0301
0000
,
1001
0000
1000
0010
0110
0000
1001
0000
,
0011
0010
0100
1000
1001
0000
1010
0000
,
0110
0100
0001
0100
0010
1000
0100
0010
,
2MM2
0000
3003
0000
,
1001
0000
1000
0100
0010
0001
1000
0000
,
1001
0000
0001
1000
0010
0000
0100
0000
,
0101
0000
0001
0100
0010
1000
0100
0010
,
0001
1000
0000
1000
0010
0000
0100
0000
,
1001
0000
0001
0010
0100
0000
1000
0000
,
1010
0000
0010
0100
0001
0000
1000
0000
,
0011
0000
0010
0100
1000
0000
0010
0000
,
1010
0000
1010
0000
1010
0000
0000
0000
1000
0000
0010
0000
0100
0001
0100
0001
,
1000
0000
0001
0010
0100
1000
0010
0000
,
1010
0000
1000
0001
0010
0000
0100
0000
,
1001
0000
0001
1000
0010
0100
0001
0010
,
0100
1000
0000
1000
0010
0000
0100
0000
,
1001
1001
0011
0100
,
1100
1100
1010
0010
,
0110
0110
0101
0001
,
1001
0000
1001
0000
1001
0000
0000
0000
1000
0000
0100
0000
0010
0001
0010
0001
,
2000
3000
0000
0000
M00M
0000
1001
1000
,
0100
0010
0001
0100
0010
1000
0002
0000
,
0103
0010
2000
0000
3001
0010
0200
0000
,
1300
0001
2000
0000
3010
0100
M2M2
0303
,
2M2M
3030
22MM
3300
MM22
0033
1001
1000
,
0001
0100
0010
1000
0100
0010
0002
0000
,
1003
0010
0200
0000
0301
0001
0200
0000
,
0310
0000
1000
0000
0001
0000
0010
0000
0100
0000
1000
0000
0001
1000
0001
1000
,
0001
0000
M22M
0000
0000
0330
1001
0001
,
0010
0100
1000
0010
0100
0001
2000
0000
,
3001
0010
0200
0000
1300
0100
0020
0000
,
0031
1000
0002
0000
1003
0010
0110
0000
,
0101
0000
0011
0000
1100
0000
1001
0001
,
1000
0010
0100
0001
0010
0100
2000
0000
,
3001
0000
1000
0000
0020
0000
0000
0000
0130
0001
0100
0001
0200
0000
0000
0000
,
0310
1000
0001
0001
0010
0100
1000
0001
,
0001
0100
0010
1000
1000
0001
0101
0000
,
0000
0000
0000
0000
0000
1010
0000
0000
0000
0000
0000
0000
0000
0000
0000
0000
0000
0000
0000
0000
1001
0000
0000
0000
0000
0000
0000
0000
0000
0000
0000
0000
,
0000
1100
0000
0000
0000
0000
0000
0000
0011
0000
0000
0000
0000
0000
0000
0000
,
1001
0000
0101
0000
,
1010
0000
0000
4004
,
0000
0000
0000
0000
,
0000
0000
0000
0000
,
0000
0000
0000
0000
,
0000
0000
0000
0000
,
0000
0000
0000
0000
,
0000
3003
M22M
0330
;
