#TITLE:Canon-D;
#SUBTITLE:;
#ARTIST:BanYa;
#TITLETRANSLIT:;
#SUBTITLETRANSLIT:;
#ARTISTTRANSLIT:;
#CREDIT:;
#BANNER:Canon-D.png;
#BACKGROUND:Canon-D bg.png;
#LYRICSPATH:;
#CDTITLE:2kM Spread.png;
#MUSIC:Canon-D.mp3;
#OFFSET:-0.080;
#SAMPLESTART:36.000;
#SAMPLELENGTH:12.000;
#SELECTABLE:YES;
#BPMS:0.000=40.000,8.000=80.000,40.000=160.020;
#STOPS:;
#BGCHANGES:;
// cache tags:
#FIRSTBEAT:0.000;
#LASTBEAT:212.000;
#SONGFILENAME:Songs/Fabulously Fresh Flock of Fantastic Files F5/(2kM) Canon-D/canon.sm;
#HASMUSIC:1;
#HASBANNER:1;
#MUSICLENGTH:103.583;
// end cache tags

//---------------dance-single - Copied from----------------
#NOTES:
     dance-single:
     Copied from:
     Hard:
     11:
     1.000,1.000,0.512,0.782,1.000,626.000,53.000,81.000,0.000,0.000:
0001
0010
0100
1000
0010
0100
0001
1000
0001
0010
0001
0010
0100
1000
0010
0100
,
0010
1000
0001
1000
0100
0010
0100
1000
0001
1000
0100
0010
0100
1000
0010
0100
,
0002
0000
0003
0000
0020
0000
0030
0000
0200
0000
0300
0000
1000
0001
1000
0001
2000
0000
3000
0000
0020
0000
0030
0000
0200
0000
0300
0000
0001
1000
0001
1000
,
0002
0000
0003
0000
2000
0000
3000
0000
0200
0000
0300
0000
0010
0001
0010
0001
0020
0000
0030
0000
0002
0000
0003
0000
2000
0000
3000
0000
0010
1000
0010
1000
,
0020
0000
0030
0000
2000
0000
3000
0000
0200
0000
0300
0000
0010
0100
0010
0100
0020
0000
0030
0000
0002
0000
0003
0000
0200
0000
0300
0000
0010
0100
0010
0100
,
0020
0000
0030
0000
2000
0000
3000
0000
0002
0000
0003
0000
1000
0010
1000
0010
2000
0000
3000
0000
0200
0000
0300
0000
0020
0000
0030
0000
0001
1000
0001
1000
,
0001
0010
0100
0000
1000
0100
0010
0000
0001
0010
0100
0000
1000
0100
0010
0000
0001
0100
0010
0000
1000
0010
0100
0000
0001
0100
0010
0000
1000
0010
0100
0000
,
0010
1000
0100
0000
0010
0001
0100
0000
0010
1000
0100
0000
0010
0001
0100
0000
0100
0001
0010
0000
0100
1000
0010
0000
0100
0001
0010
0000
0100
1000
0010
0000
,
1000
0100
1000
0000
0001
0100
0001
0000
1000
0100
1000
0000
0001
0100
0001
0000
1000
0010
1000
0000
0001
0010
0001
0000
1000
0010
1000
0000
0001
0010
0001
1000
,
0001
0000
0000
0000
0000
0000
0100
0000
0000
0000
0000
0000
0010
0000
0000
0000
0000
0000
1000
0000
0000
0000
0000
0000
0010
0000
0000
0000
0000
0000
0100
0000
0000
0000
0000
0000
0001
0000
0000
0000
0000
0000
0100
0000
0000
0000
0000
0000
0010
0000
0000
0000
0000
0000
1000
0000
0000
0000
0000
0000
0010
0000
0000
0000
0000
0000
0100
0000
0000
0000
0000
0000
0001
0000
0000
0000
0000
0000
0100
0000
0000
0000
0000
0000
0010
0000
0000
0000
0000
0000
1000
0000
0000
0000
0000
0000
0001
0000
0000
0000
0000
0000
1000
0000
0000
0000
0000
0000
0001
0000
0000
0000
0000
0000
1000
0000
0000
0000
0000
0000
0001
0000
0000
0000
0000
0000
1000
0000
0000
0000
0000
0000
0001
0000
0000
0000
0000
0000
1000
0000
0000
0000
0000
0000
0001
0000
0000
0000
1000
0000
0000
0000
0001
0000
0000
0000
1000
0000
0000
0000
0001
0000
0000
0000
1000
0000
0000
0000
0001
0000
0000
0000
1000
0000
0000
0000
0001
0000
0000
0000
1000
0000
0000
0000
0001
0000
0000
0000
1000
0000
0000
0000
,
0002
0000
0000
0000
0000
0000
0000
2003
,
3020
0000
0000
0000
0000
0000
2030
0000
3002
0000
0023
0230
2300
3000
0002
0000
,
0023
0000
0000
0000
0000
0000
0032
2003
,
3020
0000
0000
0000
0000
0000
0000
0230
,
0302
0000
0000
0023
0000
0000
0230
0000
0320
0000
0000
0000
0000
0000
0032
0000
,
2003
0000
0000
3020
0230
0000
0000
0320
,
2030
0000
3000
0002
0023
0000
0000
0000
,
0032
0000
0000
0203
0320
0000
0000
0030
,
2002
3003
1000
0010
2200
3300
0100
0010
,
1001
0100
0010
1000
0110
0001
0100
0001
,
2020
3030
0100
0010
0202
0303
1000
0010
,
0101
0010
1000
0001
0110
0001
0100
0010
,
2002
3003
1010
0100
0022
0033
1100
0001
,
0110
1000
0101
0010
1001
0100
0011
1000
,
0202
0303
1010
0001
2200
3300
0101
0010
,
1001
0010
1100
0001
0110
1000
0011
0100
,
2002
0000
3003
0000
0000
0000
0100
0010
0001
0010
0100
1000
0100
0010
0001
0010
,
0100
1000
0010
0100
0001
0100
0010
1000
0100
0010
0100
1000
0001
0010
0100
0010
,
2002
0000
0000
0000
3003
0000
0100
0000
0010
0001
0010
0100
0010
0100
1000
0100
,
0010
0100
0001
0100
1000
0100
0010
0100
1000
0100
0010
0001
1000
0010
0100
0001
,
1000
0100
0010
0001
0010
0001
1000
0100
1000
0100
0010
0100
1000
0001
0010
0001
,
0010
0100
0010
0001
1000
0010
0100
0001
0100
0010
1000
0100
0010
0100
1000
0001
,
0010
0100
0010
0001
1000
0100
0010
0001
2000
0000
0000
0000
0000
0000
3002
0000
,
0023
0230
0000
2300
3020
0000
0000
0030
,
1000
0100
1000
0100
0011
0000
1000
0100
1000
0100
0011
0000
1000
0100
0010
0000
,
0001
0010
0001
0010
1100
0000
0001
0010
0001
0010
1100
0000
0001
0010
0100
0000
,
1000
0010
1000
0010
0101
0000
1000
0010
1000
0010
0101
0000
1000
0010
0100
0000
,
0001
0100
0001
0100
1010
0000
0001
0100
0001
0100
1010
0000
0001
0100
0010
0000
,
1000
0001
0010
0100
1001
0010
1000
0001
0010
0100
0011
1000
0010
0100
0001
0010
,
0100
0010
0001
1000
0110
0001
0010
0100
1000
0100
0011
1000
0001
0010
0100
0010
,
0001
1000
0010
0100
1001
0010
0100
0001
0010
0001
1010
0100
0001
0010
0100
1000
,
0010
0100
0001
0010
1100
0001
1000
0100
0010
0100
1001
0100
0011
1000
0101
0010
,
1001
0100
0010
1000
0010
0100
0001
0100
0010
1000
0010
0100
0010
1000
0010
0100
,
0001
0100
0010
1000
0100
0010
0001
1000
0100
0010
0001
1000
0001
0100
0010
1000
,
0010
0100
0001
0100
0001
0100
0010
1000
0010
1000
0010
0100
0001
0100
0010
1000
,
0100
0010
0100
1000
0001
0010
0100
0010
0001
0100
0010
1000
0010
0100
0001
0100
,
1001
0100
0010
1000
0001
0010
0100
0010
0001
0010
0001
0100
0010
0100
0010
1000
,
0100
1000
0100
0010
0001
0010
0001
1000
0100
0010
0001
0100
0010
1000
0001
0010
,
1001
0100
0010
0100
0001
1000
0100
0010
0001
1000
0100
0010
0001
0010
0100
0010
,
1001
0100
0010
1000
0001
0010
0100
0010
1100
0010
1001
0100
0011
0100
1001
0010
,
2002
0000
0000
0000
,
0000
0000
0000
0000
,
0000
0000
0000
0000
,
3003
0000
0000
0000
;
