#TITLE:Click Clock Wood Summer;
#SUBTITLE:Banjo-Kazooie;
#ARTIST:Rareware;
#TITLETRANSLIT:;
#SUBTITLETRANSLIT:;
#ARTISTTRANSLIT:;
#CREDIT:;
#BANNER:ccwsu.PNG;
#BACKGROUND:ccws-bg.png;
#LYRICSPATH:;
#CDTITLE:kyka06.png;
#MUSIC:ClickCLockWoodsSummer.mp3;
#OFFSET:-0.740;
#SAMPLESTART:59.647;
#SAMPLELENGTH:12.500;
#SELECTABLE:YES;
#BPMS:0.000=60.000;
#STOPS:;
#BGCHANGES:;
// cache tags:
#FIRSTBEAT:0.000;
#LASTBEAT:136.000;
#SONGFILENAME:Songs/new/BK - CCW summer/ccwsu.sm;
#HASMUSIC:1;
#HASBANNER:1;
#MUSICLENGTH:146.416;
// end cache tags

//---------------dance-single - ----------------
#NOTES:
     dance-single:
     :
     Hard:
     6:
     0.381,0.302,0.000,0.000,0.813,391.000,0.000,0.000,0.000,0.000:
0001
0010
0100
1000
0010
0100
0001
0010
0100
1000
0010
1000
,
0100
0000
0000
0010
1000
0100
0001
0000
0000
0001
0100
1000
0010
0000
1000
0000
0100
0000
0010
0000
0000
0000
0001
0000
,
0100
0000
0001
0010
0100
1000
0010
0010
0001
0001
0010
0100
,
0010
0000
0000
1000
0100
0010
0001
0000
0000
0001
0010
1000
0100
0000
1000
0000
0010
0000
0100
0000
0000
0000
0001
0000
,
0010
0000
0100
1000
0010
0100
0001
1000
0001
1000
0100
0010
,
0001
0000
0000
1000
0100
0001
0010
0000
0000
0010
0001
0100
1000
0000
0100
0000
0001
0000
1000
0000
0000
0000
0010
0000
,
0001
0000
0010
1000
0001
0100
1000
0001
0010
1000
0100
0001
,
1000
0000
0000
0100
0001
1000
0010
0000
0000
0010
0100
1000
0001
0000
0100
0000
1000
0000
0001
0000
0000
0000
0010
0000
,
1000
0000
0001
0100
1000
0001
0010
1000
0001
0010
0001
0100
,
0001
0100
0010
0001
0100
0010
0001
0010
0001
0010
1000
0100
,
0001
0100
1000
0010
0001
0010
0001
0010
0001
0100
0010
1000
,
0001
0010
1000
0100
0001
0010
0001
0010
0100
0010
0001
1000
,
0010
0100
0001
0010
0100
0010
0001
0010
1000
0001
0100
0010
,
0001
0010
1000
0010
0001
0100
0010
0100
0010
0001
0010
1000
,
0100
0000
0000
0001
0010
0100
1000
0000
0000
0010
1000
0100
1000
0000
0001
0000
0100
0000
0010
0000
0000
0000
0010
0000
,
0001
0000
0001
0010
0100
0010
0001
1000
0010
0100
0010
0001
,
0100
0000
0000
0001
0010
1000
0001
0000
0000
0100
1000
0010
0100
0000
0001
0000
1000
0000
0100
0000
0000
0000
0001
0000
,
1000
0000
0100
0010
0001
0100
0010
0100
0001
0010
0001
0010
,
0001
0000
0000
0100
0010
0100
0010
0000
0000
0001
0010
0100
1000
0000
0010
0000
1000
0000
0100
0000
0000
0000
0001
0000
,
0100
0000
0010
0001
1000
0010
0001
0100
0010
0001
0010
0001
,
0100
0000
0000
0100
1000
0010
0100
0000
0000
0001
0010
0100
1000
0000
0010
0000
0100
0000
0001
0000
0000
0000
0100
0000
,
1000
0000
0010
0100
0001
0010
1000
0100
0001
0010
0001
0010
,
0001
0100
0010
0100
0010
0001
0010
0100
0001
0100
0010
0100
,
0001
0100
1000
0010
0100
0001
0010
0001
0100
0010
0001
0010
,
0001
0100
1000
0010
0100
0010
0001
0100
0010
0001
0010
1000
,
0001
0000
0000
0000
0000
0000
0000
0000
0000
0000
0000
0000
0000
0000
0000
0000
0100
0000
0000
0000
0000
0000
0000
0000
0000
0000
0000
0000
0000
0000
0000
0000
0010
0000
0000
0000
0000
0000
0000
0000
0000
0000
0000
0000
0000
0000
0000
0000
1000
0000
0000
0000
0000
0000
0000
0000
0000
0000
0000
0000
0000
0000
0000
0000
0100
0000
0000
0000
0000
0000
0000
0000
0000
0000
0000
0000
0000
0000
0000
0000
0001
0000
0000
0000
0000
0000
0000
0000
0000
0000
0100
0000
0000
0000
0000
0000
1000
0000
0000
0000
0000
0000
0000
0000
0000
0000
0000
0000
0000
0000
0000
0000
0010
0000
0000
0000
0000
0000
0000
0000
0000
0000
0000
0000
0000
0000
0000
0000
0001
0000
0000
0000
0000
0000
0000
0000
0000
0000
0000
0000
0000
0000
0000
0000
0010
0000
0000
0000
0000
0000
0000
0000
0000
0000
0000
0000
0000
0000
0000
0000
0001
0000
0000
0000
0000
0000
0000
0000
0000
0000
0000
0000
0000
0000
0000
0000
0010
0000
0000
0000
0000
0000
0000
0000
0000
0000
0000
0000
0000
0000
0000
0000
,
0100
0010
0001
1000
0100
0010
0100
0010
0001
0010
0000
0001
,
0100
0000
0001
0010
0001
0010
0001
0100
1000
0010
0100
1000
,
0001
0000
0010
0100
0000
0001
0010
0100
0010
0001
0000
0010
,
0001
0000
0100
0010
0001
0010
0100
0001
0010
0100
1000
0010
,
0100
0001
0010
0100
0010
0001
0010
0000
0001
0100
0000
0000
,
0001
0000
0000
0010
0001
0100
0010
0001
0100
0001
0010
0100
,
0010
0000
0000
0001
0010
0100
0010
0000
0001
0010
0000
0000
,
0001
0000
0000
0000
0000
0000
0000
0000
0000
0000
0000
0000
0000
0000
0000
0000
0000
0000
0000
0000
0000
0000
0000
0000
0000
0000
0000
0000
0000
0000
0000
0000
0100
0000
0000
0000
0000
0000
0000
0000
0000
0000
0000
0000
0000
0000
0000
0000
0010
0000
0000
0000
0000
0000
0000
0000
0000
0000
0000
0000
0000
0000
0000
0000
0000
0000
0000
0000
0000
0000
0000
0000
0000
0000
0000
0000
0000
0000
0000
0000
0001
0000
0000
0000
0000
0000
0000
0000
0000
0000
0010
0000
0000
0000
0000
0000
0100
0000
0000
0000
0000
0000
0000
0000
0000
0000
0000
0000
0000
0000
0000
0000
0000
0000
0000
0000
0000
0000
0000
0000
0000
0000
0000
0000
0000
0000
0000
0000
0001
0000
0000
0000
0000
0000
0000
0000
0000
0000
0000
0000
0000
0000
0000
0000
1000
0000
0000
0000
0000
0000
0000
0000
0000
0000
0000
0000
0000
0000
0000
0000
0000
0000
0000
0000
0000
0000
0000
0000
0000
0000
0000
0000
0000
0000
0000
0000
0001
0000
0000
0000
0000
0000
0000
0000
0000
0000
0000
0000
0000
0000
0000
0000
,
0010
0000
0000
0000
;

//---------------dance-single - ----------------
#NOTES:
     dance-single:
     :
     Medium:
     5:
     0.236,0.255,0.184,0.034,0.287,210.000,27.000,5.000,0.000,0.000:
1000
0100
1000
0100
1000
0100
0010
0001
0010
0001
0010
0001
,
1000
0000
0010
0100
0000
0001
0010
0100
1000
0010
0000
0100
,
0001
0000
1000
0001
0000
0000
0000
1000
0100
1000
0010
0100
,
0001
0000
1000
0010
0000
0100
0001
0000
0000
1001
0000
0000
,
1000
0000
0000
0100
0000
0000
0000
1000
0001
1000
0010
0100
,
0001
0000
0000
0010
0000
0000
1000
0100
1000
0100
0000
0000
,
0010
0000
0000
0001
0000
0000
0000
1000
0010
1000
0100
1000
,
0010
0000
0000
1000
0000
0000
0100
1000
0100
1000
0000
0000
,
0010
0000
0000
0100
0000
0000
0000
1000
0001
0010
0100
1000
,
0010
0000
0000
1000
0000
0001
1000
0000
0010
0200
0000
0000
,
0310
0000
0000
1000
0000
0000
0000
1000
0010
0100
0001
0010
,
0100
0000
0000
1000
0000
0010
1000
0000
0001
1000
0000
0000
,
1100
0101
0110
1001
,
1001
0110
1100
0011
,
1000
0000
0100
0010
0000
0001
1000
0000
0000
0010
0000
0000
,
1000
0000
0000
0100
0000
0000
0000
1000
0001
0010
0100
1000
,
0010
0000
0000
1000
0000
0000
0100
0000
0010
0001
0000
0000
,
0100
0000
0000
0010
0000
0000
0000
1000
0100
1000
0010
0100
,
0001
0000
0000
0010
0000
0000
0100
0000
1000
0010
0000
0000
,
0001
0000
0000
0100
0000
0000
0000
1000
0010
0100
0001
1000
,
0010
0000
0000
1000
0000
0000
0001
0000
1000
0010
0000
0000
,
0100
0000
0000
0001
0000
0000
0000
1000
0010
0100
0001
0010
,
0100
0000
0000
1000
0000
0010
1000
0000
0010
0200
0000
0000
,
0301
0000
0000
0010
0100
1000
0020
0000
0000
0000
0000
0030
,
1000
0000
0000
0001
0000
0100
0010
0000
1000
0100
0000
0000
,
1001
1100
1001
0110
,
1001
0000
0000
1100
0000
0000
0010
0001
0010
0001
0000
0000
,
0110
1100
1000
0001
,
0110
0000
0000
1100
0000
0000
0001
0000
1000
0010
0000
0000
,
1000
0001
0110
1001
,
1100
0000
0000
0010
0000
1000
0100
0000
0100
0002
0000
0000
,
0013
0000
0000
0100
1000
0010
0200
0000
0000
0000
0000
0300
,
0001
0000
0000
1000
0000
0010
1000
0000
0100
0010
0000
0000
,
1001
0000
1000
1100
0000
0010
0110
0000
0001
0101
0000
1000
,
1001
0000
0000
0000
;

//---------------dance-single - ----------------
#NOTES:
     dance-single:
     :
     Challenge:
     7:
     0.556,0.499,1.000,0.000,0.813,391.000,179.000,0.000,0.000,0.000:
1000
0100
0010
0001
0100
0010
1000
0100
0010
0001
0100
0001
,
0010
0000
0000
0100
0001
0010
1000
0000
0000
1000
0010
0001
0100
0000
0001
0000
0010
0000
0100
0000
0000
0000
1000
0000
,
0010
0000
1000
0100
0010
0001
0100
0110
1001
1100
0110
0011
,
0100
0000
0000
0001
0010
0100
1000
0000
0000
1000
0100
0001
0010
0000
0001
0000
0100
0000
0010
0000
0000
0000
1000
0000
,
0100
0000
0010
0001
0100
0010
1000
1001
1010
1100
0011
0110
,
1000
0000
0000
0001
0010
1000
0100
0000
0000
0100
1000
0010
0001
0000
0010
0000
1000
0000
0001
0000
0000
0000
0100
0000
,
1000
0000
0100
0001
1000
0010
0001
1001
0110
0101
1001
1010
,
0001
0000
0000
0010
1000
0001
0100
0000
0000
0100
0010
0001
1000
0000
0010
0000
0001
0000
1000
0000
0000
0000
0100
0000
,
0001
0000
1000
0010
0001
1000
0100
0110
1100
0101
1010
1001
,
1001
0010
0100
1100
0011
0110
1001
0100
1010
0101
0100
0010
,
1100
0010
0001
0110
1000
0101
1010
0110
1001
0011
0110
1100
,
1010
0100
0001
0011
1010
0101
1010
0100
0011
0110
1000
0100
,
0101
1000
1010
0101
0010
0110
1001
0100
0110
1100
0010
0101
,
1010
0100
0001
0110
1000
0010
0101
0010
0100
1010
0100
0001
,
0011
0000
0000
1000
0100
0010
0001
0000
0000
0100
0010
0010
0001
0000
1000
0000
0010
0000
0101
0000
0000
0000
0110
0000
,
1001
0000
1010
0101
0010
0100
1000
1010
0101
0011
0110
1100
,
0011
0000
0000
1000
0100
0001
1000
0000
0000
0010
0001
0100
0010
0000
1000
0000
0001
0000
0010
0000
0000
0000
1000
0000
,
0001
0000
0010
0100
1000
0010
0100
0011
1001
0110
1001
0110
,
1100
0000
0000
0010
0100
0010
0100
0000
0000
1000
0100
0010
0001
0000
0100
0000
0001
0000
0011
0000
0000
0000
1100
0000
,
0011
0000
0100
1010
1000
0100
0010
0011
0110
1001
0110
1001
,
1100
0000
0000
0010
0001
0100
0010
0000
0000
1000
0100
0010
0001
0000
0100
0000
0010
0000
1100
0000
0000
0000
0010
0000
,
0011
0000
0100
0110
1000
0100
0010
0011
1100
0110
1001
0110
,
1001
1000
0100
0011
0110
1001
0110
1000
1100
0011
0100
0010
,
1100
0010
0001
0101
0011
1010
0101
1100
0011
0110
1001
0110
,
1100
0010
0001
0101
0011
0110
1100
0010
0101
1010
0100
0001
,
1100
0000
0000
0000
0000
0000
0000
0000
0000
0000
0000
0000
0000
0000
0000
0000
0010
0000
0000
0000
0000
0000
0000
0000
0000
0000
0000
0000
0000
0000
0000
0000
0011
0000
0000
0000
0000
0000
0000
0000
0000
0000
0000
0000
0000
0000
0000
0000
0110
0000
0000
0000
0000
0000
0000
0000
0000
0000
0000
0000
0000
0000
0000
0000
1000
0000
0000
0000
0000
0000
0000
0000
0000
0000
0000
0000
0000
0000
0000
0000
1100
0000
0000
0000
0000
0000
0000
0000
0000
0000
0010
0000
0000
0000
0000
0000
0001
0000
0000
0000
0000
0000
0000
0000
0000
0000
0000
0000
0000
0000
0000
0000
0110
0000
0000
0000
0000
0000
0000
0000
0000
0000
0000
0000
0000
0000
0000
0000
1001
0000
0000
0000
0000
0000
0000
0000
0000
0000
0000
0000
0000
0000
0000
0000
0110
0000
0000
0000
0000
0000
0000
0000
0000
0000
0000
0000
0000
0000
0000
0000
1000
0000
0000
0000
0000
0000
0000
0000
0000
0000
0000
0000
0000
0000
0000
0000
0100
0000
0000
0000
0000
0000
0000
0000
0000
0000
0000
0000
0000
0000
0000
0000
,
0011
0100
1010
1100
0010
0101
0011
0110
1001
0110
0000
1100
,
0011
0000
1001
0110
1001
0110
1100
0010
0001
0100
0010
1000
,
1100
0000
0101
0011
0000
1010
0101
0011
0110
1001
0000
0110
,
1100
0000
0011
0101
1010
0101
0011
1000
0100
0010
0001
0100
,
0110
1000
0100
0011
0110
1001
0110
0000
1100
0011
0000
0000
,
1001
0000
0000
0110
1100
0011
0101
1000
0010
1000
0100
0010
,
0101
0000
0000
1010
0101
0011
0110
0000
1001
0110
0000
0000
,
1100
0000
0000
0000
0000
0000
0000
0000
0000
0000
0000
0000
0000
0000
0000
0000
0000
0000
0000
0000
0000
0000
0000
0000
0000
0000
0000
0000
0000
0000
0000
0000
0011
0000
0000
0000
0000
0000
0000
0000
0000
0000
0000
0000
0000
0000
0000
0000
0110
0000
0000
0000
0000
0000
0000
0000
0000
0000
0000
0000
0000
0000
0000
0000
0000
0000
0000
0000
0000
0000
0000
0000
0000
0000
0000
0000
0000
0000
0000
0000
1001
0000
0000
0000
0000
0000
0000
0000
0000
0000
0100
0000
0000
0000
0000
0000
0010
0000
0000
0000
0000
0000
0000
0000
0000
0000
0000
0000
0000
0000
0000
0000
0000
0000
0000
0000
0000
0000
0000
0000
0000
0000
0000
0000
0000
0000
0000
0000
1100
0000
0000
0000
0000
0000
0000
0000
0000
0000
0000
0000
0000
0000
0000
0000
1001
0000
0000
0000
0000
0000
0000
0000
0000
0000
0000
0000
0000
0000
0000
0000
0000
0000
0000
0000
0000
0000
0000
0000
0000
0000
0000
0000
0000
0000
0000
0000
1001
0000
0000
0000
0000
0000
0000
0000
0000
0000
0000
0000
0000
0000
0000
0000
,
0110
0000
0000
0000
;

//---------------dance-single - ----------------
#NOTES:
     dance-single:
     :
     Easy:
     4:
     0.183,0.209,0.198,0.055,0.171,151.000,29.000,8.000,0.000,0.000:
1000
0001
1000
0001
1000
0001
1000
0001
1000
0001
1000
0001
,
1000
0001
0100
0010
,
1001
0000
0000
0000
0000
0000
0000
0100
0100
0100
0100
0100
,
0100
0010
1000
0001
,
0110
0000
0000
0000
0000
0000
0000
0001
0001
0001
0001
0001
,
1000
0110
1000
1100
,
1001
0000
0000
0000
0000
0000
0000
0010
0010
0010
0010
0010
,
1001
0000
0000
0100
0000
0000
0010
0000
1000
0100
0000
0000
,
0110
0000
0000
0000
0000
0000
0000
1000
1000
1000
1000
1000
,
1000
0001
0200
0000
,
0310
0000
0000
1000
0000
0000
0000
0001
0001
0001
0010
0010
,
0010
1000
0020
0000
,
1030
0001
2000
0100
,
3002
2003
3020
0230
,
0301
1000
0010
1000
,
0011
0000
0000
0000
0000
0000
0000
1000
1000
0001
0001
0010
,
0010
0100
1000
0001
,
0110
0000
0000
0000
0000
0000
0000
1000
1000
1000
0001
0001
,
0001
0010
1000
0001
,
1100
0000
0000
0000
0000
0000
0000
0010
0010
0001
0001
1000
,
0001
0010
0100
1000
,
0101
0000
0000
0000
0000
0000
0000
1000
1000
0001
0001
1000
,
0010
0000
0000
0100
0000
0000
0001
0000
1000
0002
0000
0000
,
1003
0010
1000
0000
,
0100
0001
1000
0010
,
1100
0000
0011
0000
,
1001
0000
1100
0000
,
0110
0000
1001
0000
,
0011
0000
0110
0000
,
1010
0000
0110
0000
,
0011
0000
1100
0000
,
0110
0000
0011
0000
,
1100
0000
0110
0000
,
1001
0000
1000
1000
0000
0010
0010
0000
0100
0100
0000
0001
,
1001
0000
0000
0000
;
