#TITLE:Heretics & Killers;
#SUBTITLE:Kezia (2005);
#ARTIST:Protest the Hero;
#TITLETRANSLIT:;
#SUBTITLETRANSLIT:;
#ARTISTTRANSLIT:;
#CREDIT:;
#BANNER:heretics-bn.png;
#BACKGROUND:heretics-bg.png;
#LYRICSPATH:;
#CDTITLE:!CDTitle.PNG;
#MUSIC:02 Heretics & Killers.mp3;
#OFFSET:1.480;
#SAMPLESTART:88.940;
#SAMPLELENGTH:12.000;
#SELECTABLE:YES;
#BPMS:0.000=148.000,66.000=125.000,76.000=125.000,114.000=128.000,116.000=128.000,238.000=129.000,266.500=234.000,299.500=232.000,300.000=232.000,304.000=240.000,304.500=240.000,308.000=479.997,309.000=240.000,320.000=232.000,323.500=116.000,328.000=117.000,334.000=116.500,339.500=117.000,370.000=100.000,371.000=95.000,371.667=90.000,372.000=148.000;
#STOPS:180.000=0.820
,237.000=0.240
,266.500=0.090
,304.000=0.020
,309.000=0.080
;
#BGCHANGES:;
// cache tags:
#FIRSTBEAT:4.000;
#LASTBEAT:406.167;
#SONGFILENAME:Songs/Astronomic Metal Collection 2/(EnR) Heretics & Killer/02 Heretics & Killers.sm;
#HASMUSIC:1;
#HASBANNER:1;
#MUSICLENGTH:188.700;
// end cache tags

//---------------pump-single - ----------------
#NOTES:
     pump-single:
     :
     Challenge:
     1:
     0.266,0.382,0.535,0.000,0.236,231.000,101.000,0.000,0.000,19.000:
00000
00000
00000
00000
,
00101
00000
10000
10000
10000
10000
10000
10000
01100
10000
10000
01100
10000
10000
01100
00000
,
01100
00000
10000
10000
10000
10000
10000
10000
00101
00000
00000
00000
00101
00000
00000
00000
,
00101
00000
10000
10000
10000
10000
10000
10000
01100
10000
10000
01100
10000
10000
01100
00000
,
01100
00000
10000
10000
10000
10000
10000
10000
01100
10000
10000
10000
01000
01000
00010
00010
,
00101
00000
00000
00100
11000
00000
00100
00000
01100
10000
10000
01100
10000
10000
01100
00000
,
10000
10000
01100
00000
01100
00000
00000
00000
00101
00000
00000
00100
11000
00000
00100
00000
,
01100
10000
10000
01100
10000
10000
01100
00000
00101
00000
00000
00000
10110
00000
00000
00000
,
00101
00000
00000
00100
11000
00000
00100
00000
01100
10000
10000
01100
10000
10000
01100
00000
,
10000
10000
01100
00000
01100
00000
00000
00000
00101
00000
00000
00100
11000
00000
00100
00000
,
01100
10000
10000
10000
10000
10000
10000
10000
00101
00000
00000
00000
00000
00000
00000
00000
,
00000
00000
00000
00000
,
00000
00000
00000
00000
00000
00000
00000
00000
00000
00000
00000
00000
00000
00000
00000
01000
00000
00000
00000
00000
00000
00000
00000
00000
00000
00000
00000
00000
00000
00000
00000
00000
00101
00000
00000
00000
00000
00000
00000
00000
00000
00000
00000
00000
00000
00000
00000
00000
00001
00000
00000
00000
00000
00000
00000
00000
00100
00000
00000
00000
00000
00000
00000
00000
,
10001
00000
00000
00000
00000
00000
00000
00000
00000
00100
00000
00000
00100
00000
00000
00000
00001
00000
00000
00000
00100
00000
00000
00100
00000
00000
00000
00000
00000
00000
00000
00000
00101
00000
00000
00000
00000
00000
00000
00000
00000
00000
00000
00000
00100
00000
00000
00000
00001
00000
00000
00000
00000
00000
00000
00000
00100
00000
00000
00000
00000
00000
00000
00000
,
10010
00100
10010
00000
00101
00000
00001
00100
,
10001
00000
00000
00000
00000
00000
00000
00000
00000
00100
00000
00000
00100
00000
00000
00000
00001
00000
00000
00000
00100
00000
00000
00100
00000
00000
00000
00000
00000
00000
00000
00000
00101
00000
00000
00000
00000
00000
00000
00000
00000
00000
00000
00000
00100
00000
00000
00000
00001
00000
00000
00000
00000
00000
00000
00000
00100
00000
00000
00000
00000
00000
00000
00000
,
10010
00100
10010
00000
00101
00000
00000
00000
,
00000
00000
00000
00000
,
00000
00000
00000
00000
,
00000
00000
00000
00000
00000
00000
00000
00000
00101
00100
00101
00100
00101
00100
10101
00000
,
00101
00000
00101
00000
00001
00000
00101
00100
00101
10100
00101
00100
00101
10100
00101
00100
,
00101
00100
00101
00100
00101
00100
10101
00000
00101
00000
00101
00000
11100
00100
00111
00100
,
01110
00100
11100
00100
00111
00100
01110
00100
11100
00000
00000
00000
00000
00000
00000
00000
,
00000
00000
00000
00000
,
00000
00000
00000
00010
00000
00000
00000
00000
,
00000
00000
00000
00000
00000
00000
00000
00000
00101
00100
00101
00100
00101
00100
10101
00000
,
00101
00000
00101
00000
00001
00000
00101
00100
00101
10100
00101
00100
00101
10100
00101
00100
,
00101
00100
00101
00100
00101
00100
10101
00000
00101
00000
00101
00000
11100
00100
00111
00100
,
01110
00100
11100
00100
00111
00100
01110
00100
11100
00000
00000
00000
00000
00000
00000
00000
,
00100
00000
00000
00100
00000
00100
00000
00100
00000
00000
00000
00000
00000
00000
00000
00000
;

//---------------dance-single - ----------------
#NOTES:
     dance-single:
     :
     Hard:
     12:
     1.000,1.000,1.000,0.244,1.000,1073.000,315.000,46.000,0.000,14.000:
0000
0000
0000
0000
,
1100
0000
0001
0010
0001
0010
0101
0010
1100
0010
0001
1100
0010
0001
1100
0000
,
1010
0000
0001
0010
0001
0010
0001
0010
1100
0010
0100
0001
1100
0001
0010
0100
,
1010
0000
0001
0010
0001
0010
0101
0010
1100
0010
0001
1100
0010
0001
1100
0000
,
1010
0000
0001
0010
0001
0010
0001
0010
1000
0100
0001
0000
1000
0100
0001
0000
,
1100
0000
0000
1000
0011
0000
1100
0000
1000
0001
0010
1000
0001
0010
1000
0000
,
0001
0010
1100
0000
1010
0000
0000
0000
1100
0000
0000
1000
0011
0000
1100
0000
,
1000
0000
0000
0000
0001
0000
0000
0000
0010
0000
0000
0000
1000
0000
0000
0000
0001
0000
0000
0000
0010
0000
0000
0000
1100
0000
0000
0000
0000
0000
0000
0000
1010
0000
0000
0000
0000
0000
0000
0000
0000
0000
0000
0000
0000
0000
0000
0000
0010
0000
0000
0000
0000
0001
0000
0000
0000
0010
0000
0000
0000
0001
0000
0000
,
1100
0000
0000
0000
0000
0000
0000
0000
0000
0000
0000
0000
1000
0000
0000
0000
0011
0000
0000
0000
0000
0000
0000
0000
1100
0000
0000
0000
0000
0000
0000
0000
1000
0000
0000
0000
0001
0000
0000
0000
0010
0000
0000
0000
0000
1000
0000
0000
0001
0000
0000
0000
0010
0000
0000
0000
1000
0000
0000
0000
0000
0000
0000
0000
,
0001
0010
1100
0000
1010
0000
0000
0000
1100
0000
0000
1000
0011
0000
1100
0000
,
1000
0000
0000
0000
0001
0000
0000
0000
0010
0000
0000
0000
0001
0000
0000
0000
0010
0000
0000
0000
0001
0000
0000
0000
0010
0000
0000
0000
0001
0000
0000
0000
1100
0000
0000
0000
0000
0000
0000
0000
0000
0000
0000
0000
0000
0000
0000
0000
0100
0000
0000
0000
0000
0000
0000
0000
0000
1000
0000
0000
0000
0000
0000
0000
,
0000
0001
0000
0000
0000
0000
0000
0000
0000
0000
0000
0000
0000
0000
0000
0000
0000
0000
0000
0000
0000
0000
0000
0000
1000
0000
0000
0000
0000
0000
0000
0000
0000
0000
0000
0000
0000
0000
0000
0000
0000
0000
0000
0000
0000
0000
0000
0000
0100
0000
0000
0000
0000
0000
0000
0000
0000
1000
0000
0000
0000
0000
0000
0000
,
0001
0000
0000
0000
0000
0000
0000
0010
0200
0000
0000
0000
0000
0000
0300
0000
2001
0000
0000
0000
0000
0000
0000
0000
3100
0000
0000
0000
1100
0000
0000
0000
,
0011
0000
0000
0000
0000
0000
0000
0000
0000
1000
0000
0000
1000
0000
0000
0000
0000
0000
0000
0000
1000
0000
0000
1000
0000
0000
0000
0000
0000
0000
0000
1100
0000
0000
0000
0000
0000
0000
0000
0000
0000
0000
0000
0000
1020
0000
0000
0000
0000
0000
0000
0000
0030
0000
0000
0000
1100
0000
0000
0000
0000
0000
0000
0000
,
0011
0000
0000
0000
0000
0000
1000
0000
0010
0000
1000
0000
0201
0000
0000
0000
0000
0000
0000
0000
0000
0300
0000
0000
2100
0000
0000
0000
0000
0000
0000
0000
0000
0000
0000
0000
3100
0000
0000
0000
0000
0000
1100
0000
0000
0000
0000
0000
,
0011
0000
0000
0000
0000
0000
0000
0000
0000
1000
0000
0000
1000
0000
0000
0000
0000
0000
0000
0000
1000
0000
0000
1000
0000
0000
0000
0000
0000
0000
0000
1100
0000
0000
0000
0000
0000
0000
0000
0000
0000
0000
0000
0000
1020
0000
0000
0000
0000
0000
0000
0000
0030
0000
0000
0000
1100
0000
0000
0000
0000
0000
0000
0000
,
0011
0000
0000
0000
0000
0000
1000
0000
0100
0000
1000
0000
0012
0000
0000
0000
0000
0000
0000
0000
0000
0003
0000
0000
1001
0000
0000
0000
0000
0000
0000
0000
0000
0000
0000
0000
0000
0000
0000
0000
0000
0000
0000
0000
0000
0000
0000
0000
,
0000
0000
0000
0100
0000
0000
0000
0000
1000
0000
0000
0000
0010
0000
0000
0000
0100
0000
0000
0000
0001
0000
0000
0000
1000
0000
0000
0000
0100
0000
0000
0000
,
0010
0000
1000
0000
0020
0000
0000
0030
0100
0000
1000
0000
0002
0000
0000
0000
,
0003
0000
0000
0000
0110
0000
0011
0000
1010
0100
1000
0100
1000
0100
0011
0000
,
1000
0000
1000
0000
0000
0000
1000
0100
1000
0101
1000
0100
1000
0101
1000
0100
,
1000
0100
1000
0100
1000
0100
0011
0000
1000
0000
1000
0000
1001
0010
1100
0010
,
1100
0010
1001
0010
1100
0010
1100
0010
1002
0000
0003
0100
0000
0000
0010
0000
,
1000
0000
0100
0000
0020
0000
0000
0000
0000
0000
0030
0000
0020
0000
0000
0030
,
0200
0000
0000
0300
0002
0000
0010
0000
0000
0000
0000
0003
0202
0000
0000
0000
,
0303
0000
0022
0000
0000
0000
0033
0000
1001
0100
1000
0100
1000
0100
0011
0000
,
1000
0000
1000
0000
0000
0000
1000
0100
1000
0101
1000
0100
1000
0101
1000
0100
,
1000
0100
1000
0100
1000
0100
0011
0000
1000
0000
1000
0000
1001
0010
1100
0010
,
1100
0010
1001
0010
1100
0010
1100
0001
0110
0000
0010
0000
0001
0000
1000
0000
,
1010
0000
0000
0100
1001
0100
0001
1000
0010
1000
0100
1000
0011
0100
0010
0100
,
1010
0000
0000
0100
0011
1000
0100
1000
0010
0100
0001
0100
0011
1000
0101
0000
,
0011
0000
0100
0000
1000
0000
0100
0000
1001
0000
0100
0000
0001
0000
1000
0000
0010
0000
1000
0000
0100
0000
1000
0100
0011
0000
0100
0000
0010
0000
1000
0000
,
0101
0000
1000
0000
0000
0000
1000
0000
0101
0000
1000
0000
0010
0000
1000
0000
0101
0000
1000
0000
0010
0000
0100
0010
1001
0000
0010
0000
1000
0000
0000
0000
,
1010
0000
0000
0100
1001
0100
0001
1000
0010
1000
0100
1000
0011
0100
0010
0100
,
1010
0000
0000
0100
0011
1000
0100
1000
0010
0100
0001
0100
0011
1000
0101
0000
,
0011
0100
1000
0100
1001
0100
0001
1000
0010
1000
0100
1000
0011
0100
0010
1000
,
0100
0000
1000
0000
0001
0010
0001
0010
0001
0000
0100
0000
0010
0100
0010
0000
0100
0000
1000
0000
0100
0000
1000
0000
0001
0000
0010
0000
0100
0000
0010
0000
,
1200
0000
0000
0000
0311
0010
0000
1100
0000
0100
1100
0000
0011
0010
0000
0100
,
2002
0000
0000
0000
0000
0000
0000
0000
0000
0100
0000
0000
3003
0000
0000
1000
0000
0000
0202
0000
0000
0000
0000
0000
0000
0000
0000
0010
0000
0000
0303
0000
0000
0010
0000
0000
0001
0000
1000
0000
0001
0000
1000
0000
0001
0000
1000
0000
,
0210
0000
0000
0000
0311
0010
0000
1100
0000
0100
1100
0000
0011
0010
0000
0100
,
1010
0000
1000
0000
1001
0010
1001
0010
1100
0000
1100
0000
1010
0000
1010
0000
,
1010
0000
0000
0100
1001
0100
0001
1000
0010
1000
0100
1000
0011
0100
0010
0100
,
1001
0000
0000
1001
0000
0000
1001
1000
,
1010
0000
0000
0100
1001
0100
0001
1000
0010
1000
0100
1000
0011
0100
0010
0100
,
1010
0000
0100
0000
0000
0000
0100
0000
0011
0000
0000
0000
1000
0000
0000
0000
1000
0000
1000
0000
0001
0010
0001
0010
1100
0000
0000
0000
1100
0000
0000
0000
,
1100
0000
0000
0000
0000
0000
0000
0000
0000
0000
0000
0000
0000
0000
0000
0000
0001
0000
0000
0000
0000
0010
0000
0000
0000
0000
0000
0100
0000
0000
0000
0000
0000
1000
0000
0000
0000
0000
0000
0200
0000
0000
0000
0000
0000
0000
0000
0000
,
0000
0000
0000
0000
0000
0000
0300
0000
0000
0020
0001
0000
0000
0000
0000
0000
0000
0000
0000
0000
0000
0000
0000
0000
0030
0000
0000
0002
0000
0000
0000
0000
0000
0000
0000
0000
0000
0000
0000
0000
0000
0000
0000
0000
0000
0003
0000
0000
,
1001
0000
0000
0000
0000
0000
1100
0010
0100
0011
1000
0100
0011
0100
1000
0011
,
1000
0100
0011
0100
1000
0100
1000
0100
0011
1000
0011
0100
1000
0011
1000
0100
,
0011
0000
0100
0000
1000
0000
0011
0000
1000
0000
0100
0000
0001
0010
0001
0000
0100
0010
0100
0000
1000
0100
1000
0100
0011
0000
0000
0000
1001
0000
0100
0000
,
1000
0011
1000
0100
0011
0100
1000
0011
1000
0100
0011
0100
1000
0011
1000
0100
,
0011
0100
0011
0100
0011
0011
0100
0011
0011
1000
0011
0100
0011
0100
1010
0100
,
1010
0000
0100
0010
0100
0000
0010
0100
1011
0000
0000
0000
1000
0000
0000
0000
0001
0000
1000
0000
0000
0000
1000
0000
0001
0000
1000
0000
0000
0000
1000
0000
,
0001
0000
0000
0000
0000
0000
1000
0100
0001
0000
0000
0000
1100
0000
0000
0000
0001
0000
0000
0000
0000
0000
1000
0000
0001
0000
1000
0000
0000
0000
1000
0000
,
0001
1000
0000
1000
0001
0000
1000
0010
0010
0001
0010
0010
1000
0010
0010
0001
,
0010
0000
0000
0000
0001
0000
0000
0000
1000
0000
0000
0000
0000
0000
0000
0000
0010
0000
0000
0000
0010
0000
0000
0000
0001
0000
0000
0000
0001
0000
0000
0000
1100
0000
0000
0000
0000
0000
0000
0000
1100
0000
0000
0000
0000
0000
0000
0000
0001
0000
0000
0010
0000
0000
0000
0000
0000
0000
0000
0000
1000
0000
0000
0000
,
0001
0000
1000
0000
0000
0000
1000
0000
0001
0000
0000
0000
0000
0000
1000
0100
0001
0000
0000
0000
1100
0000
0000
0000
0001
0000
0000
0000
0000
0000
1000
0000
,
0001
0000
1000
0000
0000
0000
1000
0000
0001
0000
1000
0000
0000
0000
1000
0100
0001
0000
0000
0000
1000
0000
0100
0000
0100
0000
0001
0000
0100
0000
0001
0000
,
1000
0100
0100
0001
0100
0001
1100
0010
1100
0010
1100
0010
1101
0000
1101
0000
,
0000
0000
0000
0000
1000
0100
1000
0100
0011
0000
0000
0000
0000
0000
0000
0000
1011
0000
0000
0000
0100
0000
0000
0000
1010
0000
0000
0000
0011
0000
0000
0000
,
0010
0100
1001
0100
0010
0011
0010
0100
,
1100
0011
0101
1000
0011
0101
1000
0011
0101
0000
1011
0000
0100
0000
0010
0000
,
0011
0000
0010
0000
0100
0000
1001
0000
0101
0000
1100
0011
0101
1000
0011
0101
,
1010
0000
0100
0000
0010
0000
0011
0000
0010
0000
1100
0011
0101
1000
0101
0110
,
1000
0000
0110
0000
1010
0000
0001
0000
1010
0000
1100
0000
0011
0000
0000
0000
0100
0000
0000
0000
1010
0000
0000
0010
0001
0000
0000
0000
0110
0000
0000
0000
,
1010
0000
1100
0001
0010
1000
0001
0010
1000
0001
0010
1000
0001
0010
1100
0001
,
0010
0100
0001
0010
0100
0001
0010
0100
0001
0010
1202
0000
0000
0000
0000
0000
,
1303
0000
0000
0110
0000
0000
0001
0010
0000
1100
0000
0000
0010
0000
0000
0101
0000
0000
1000
0001
0000
0110
0000
0000
,
1000
0000
0011
0000
0001
0010
0001
0010
1100
0000
0000
0000
0000
0000
0000
0000
,
1000
0000
0000
0110
0000
0000
0001
0010
0000
1100
0000
0000
0010
0000
0000
0101
0000
0000
1000
0001
0000
0110
0000
0000
,
0001
0010
0001
0010
0001
0010
0001
0010
1100
0000
0000
0000
0000
0000
0000
0000
,
1000
0000
0000
0110
0000
0000
0001
0000
0000
1100
0000
0000
0010
0000
0000
0101
0000
0000
1000
0001
0000
0110
0000
0000
,
1000
0000
0000
0000
0000
0000
0011
0000
0000
0000
0000
0000
0100
0000
0001
0000
0000
0000
1010
0000
0000
0000
0000
0000
0001
0000
0000
0000
0000
0000
0110
0000
0000
0000
0000
0000
1000
0000
0000
0100
0000
0000
0011
0000
0000
0000
0000
0000
,
0100
0000
0000
0000
0000
0000
1010
0000
0000
0000
0000
0000
0001
0000
0000
0010
0000
0000
1100
0000
0000
0000
0000
0000
0010
0000
0000
0000
0000
0000
0101
0000
0000
0000
0000
0000
1000
0000
0100
0000
0000
0000
0011
0000
0000
0000
0000
0000
,
1000
0000
0000
0000
0000
0000
0110
0000
0000
0000
0000
0000
0001
0000
0010
0000
0000
0000
1100
0000
0000
0000
0000
0000
0001
0000
0000
0000
0000
0000
0110
0000
0000
0000
0000
0000
1000
0000
0000
0100
0000
0000
0011
0000
0000
0000
0000
0000
,
1100
0010
0100
0010
0100
0010
1100
0010
0100
0010
0100
0010
1100
0010
0100
0010
,
1102
0000
0000
0003
0000
0000
0000
0000
,
1110
0000
0000
0000
,
0000
0000
0000
0000
,
0000
0000
0000
0000
,
0100
0010
0101
0000
1000
0000
0010
0000
1000
0000
0100
0000
1000
0000
0011
0000
,
1010
0000
1000
0000
0100
0000
1000
0100
0001
0000
0000
0000
0010
0000
0010
0000
1001
0000
1000
0000
0010
0000
1000
0000
0101
0000
1000
0000
0010
0000
0000
0000
,
1001
1000
0010
1000
0011
0000
0100
0000
1000
1000
0100
1000
0001
1000
0000
0000
,
1010
1000
0100
1000
0001
0000
0010
0010
1001
1000
0010
1000
0101
1000
0010
0000
,
1001
0000
0000
0000
1000
0000
0000
0000
0010
0000
0000
0000
1000
0000
0000
0000
0101
0000
0000
0000
0000
0000
0000
0000
0010
0000
0000
0000
1000
0000
0000
0000
0001
0000
0000
0000
1000
0000
0000
0000
0101
0000
0000
0000
1000
0000
0000
0000
0010
0000
0000
1000
0000
0100
0000
0000
0011
0000
0000
0000
0000
0000
0000
0000
,
1010
0000
0100
0000
0010
0000
0100
0010
1001
0000
0010
0000
0200
0000
0000
0000
0000
0000
0300
0000
1000
0000
0100
0000
1010
0000
0001
0000
0001
0000
0001
0000
,
1000
0000
0100
0000
0010
0000
0100
0010
1001
0000
0010
0000
0002
0000
0000
0000
0000
0000
0003
0000
0020
0000
0030
0000
0101
0000
0010
0000
0001
0000
0100
0000
,
1010
0000
0100
0000
0010
0000
0100
0010
1001
0000
0010
0000
0200
0000
0000
0000
0000
0000
0300
0000
1000
0000
0100
0000
1010
0000
0001
0000
0001
0000
0001
0000
,
1000
0000
0100
0000
0010
0000
0100
0010
1001
0000
0010
0000
0002
0000
0000
0000
1013
0000
0100
0010
0100
0000
0010
0000
0100
0000
0010
0100
0010
0000
0100
0000
,
1010
0100
0010
0100
1001
0010
0101
0110
0000
0000
1000
0100
1010
0001
0001
0001
,
1000
0000
0000
0100
0000
0000
0010
0000
0000
0100
0000
0000
1001
0000
0000
0010
0000
0000
0001
0000
0000
0000
0000
0000
0011
0000
0000
0000
1000
0000
0000
0000
1000
0000
0000
0000
0011
0000
0000
0000
1000
0000
0000
0000
1000
0000
0000
0000
,
1010
0100
0010
0100
1001
0010
0101
0110
0000
0000
1000
0100
1010
0001
0001
0001
,
1000
0000
0000
0100
0000
0000
0010
0000
0000
0100
0000
0000
1001
0000
0000
0010
0000
0000
0001
0000
0000
0000
0000
0000
1001
0000
0000
0000
0010
0000
0000
0000
0010
0000
0000
0000
0100
0000
0000
0000
0100
0000
0000
0000
1000
0000
0000
0000
,
2001
0000
0000
0000
0000
0000
0000
0000
0000
0000
0000
0000
0000
0001
3000
0000
,
2001
0000
0000
0000
0000
0000
0000
0000
0000
0000
0000
0000
0000
0000
0000
0000
3100
0000
0000
0000
0000
0000
0000
0000
1100
0000
0000
0000
0000
0000
0000
0000
0011
0000
0000
0000
0000
0000
0000
0000
0000
1000
0000
0000
1000
0000
0000
0000
0000
0000
0000
0000
1000
0000
0000
1000
0000
0000
0000
0000
0000
0000
0000
1100
,
0000
0000
0000
0000
0000
0000
0000
0000
0000
1020
0000
0000
0000
0000
0000
0030
0000
0000
1100
0000
0000
0000
0000
0000
0011
0000
0000
0000
0000
0000
1000
0000
0010
0000
1000
0000
0201
0000
0000
0000
0000
0000
0000
0000
0000
0300
0000
0000
,
2100
0000
0000
0000
0000
0000
0000
0000
0000
0000
0000
0000
0000
0000
0000
0000
3100
0000
0000
0000
0000
0000
0000
0000
1100
0000
0000
0000
0000
0000
0000
0000
0011
0000
0000
0000
0000
0000
0000
0000
0000
1000
0000
0000
1000
0000
0000
0000
0000
0000
0000
0000
1000
0000
0000
1000
0000
0000
0000
0000
0000
0000
0000
1100
,
0000
0000
0000
0000
0000
0000
0000
0000
0000
1020
0000
0000
0000
0000
0000
0030
0000
0000
1100
0000
0000
0000
0000
0000
0011
0000
0000
0000
0000
0000
1000
0000
0100
0000
1000
0000
0012
0000
0000
0000
0000
0000
0000
0000
0000
0003
0000
0000
,
2001
0000
0000
0000
0000
0000
0000
0000
0000
0000
0000
0000
0000
0000
0000
0000
3100
0000
0000
0000
0000
0000
0000
0000
1100
0000
0000
0000
0000
0000
0000
0000
0011
0000
0000
0000
0000
0000
0000
0000
0000
1000
0000
0000
1000
0000
0000
0000
0000
0000
0000
0000
1000
0000
0000
1000
0000
0000
0000
0000
0000
0000
0000
1100
,
0000
0000
0000
0000
0000
0000
0000
0000
0000
1020
0000
0000
0000
0000
0000
0030
0000
0000
1100
0000
0000
0000
0000
0000
0011
0000
0000
0000
0000
0000
1000
0000
0010
0000
1000
0000
0201
0000
0000
0000
0000
0000
0000
0000
0000
0300
0000
0000
,
2100
0000
0000
0000
0000
0000
0000
0000
0000
0000
0000
0000
0000
0000
0000
0000
3100
0000
0000
0000
0000
0000
0000
0000
1100
0000
0000
0000
0000
0000
0000
0000
0011
0000
0000
0000
0000
0000
0000
0000
0000
1000
0000
0000
1000
0000
0000
0000
0000
0000
0000
0000
1000
0000
0000
1000
0000
0000
0000
0000
0000
0000
0000
1100
,
0000
0000
0000
0000
0000
0000
0000
0000
0000
0000
0000
0000
0000
0000
0000
0000
0000
0000
0000
0000
0000
0000
0000
0000
0000
0000
0000
0000
0000
0000
0000
0000
0000
0000
0000
0000
1010
0000
0000
0000
0000
0000
0001
0000
0000
0000
0000
0000
0010
0000
0000
0000
0000
0000
0000
0000
0000
0000
0000
0000
0000
0000
0000
0000
0000
0000
0000
0000
0000
0000
0000
0000
1000
0000
0000
0000
0000
0000
0000
0000
0000
0000
0000
0000
0000
0000
0000
0000
0000
0000
0000
0000
0000
0000
0000
0000
0000
0000
0000
0000
0000
0000
0000
0000
0110
0000
0000
0000
0000
0000
0000
0000
0000
0000
0000
0000
0000
0000
0000
0000
0000
0000
0000
0000
0000
0000
0000
0000
0000
0000
0000
0000
0000
0000
0000
0000
0000
0000
0000
0000
0000
0000
0000
0000
0000
0000
0000
0000
0000
0000
0000
0000
0000
0000
0000
0000
0000
0000
0000
0000
0000
0000
0000
0000
0000
0000
0000
0000
0000
0000
0000
0000
0000
0000
0000
0000
0000
0000
0000
0000
0000
0000
0000
0000
0000
0000
0000
0000
0000
0000
0000
0000
;
