#TITLE:Kirby's Kirakira Kids;
#SUBTITLE:Kirby's Kirakira Kids;
#ARTIST:Nintendo/HAL Laboratory, Inc.;
#TITLETRANSLIT:;
#SUBTITLETRANSLIT:;
#ARTISTTRANSLIT:;
#CREDIT:;
#BANNER:banner.png;
#BACKGROUND:bg.png;
#LYRICSPATH:;
#CDTITLE:cdtitle.png;
#MUSIC:kirakids2_battle.ogg;
#OFFSET:-0.800;
#SAMPLESTART:0.440;
#SAMPLELENGTH:12.000;
#SELECTABLE:YES;
#BPMS:0.000=192.400;
#STOPS:;
#BGCHANGES:;
// cache tags:
#FIRSTBEAT:0.000;
#LASTBEAT:191.000;
#SONGFILENAME:Songs/in the groove2/kirakids2_battle/kirakids2_battle.sm;
#HASMUSIC:1;
#HASBANNER:1;
#MUSICLENGTH:64.505;
// end cache tags

//---------------dance-single - ----------------
#NOTES:
     dance-single:
     :
     Easy:
     3:
     0.283,0.367,0.341,0.186,0.000,94.000,22.000,12.000,0.000,0.000:
1000
0000
0010
0000
,
0100
0000
0000
1001
0000
0000
0000
0000
,
0001
0000
0010
0000
,
0100
0000
0000
0010
0000
1001
0000
0000
,
0100
0000
0010
0000
,
0100
0000
0000
0001
0000
0000
0000
0000
,
1000
0000
0000
0000
0010
0000
0000
1001
,
0000
0000
0000
0000
,
1000
0000
0010
0000
,
0001
0000
0000
0110
0000
0000
0000
0000
,
0001
0000
0010
0000
,
1000
0000
0000
0000
0000
0110
0000
0000
,
0100
0000
0010
0000
,
0100
0000
0000
1010
0000
0000
0000
0000
,
1000
0000
0000
0001
0000
0000
1000
0000
,
0100
0000
0000
0011
0000
0000
0000
0000
,
0002
0000
0000
0003
,
0100
0000
0000
0010
0000
0000
0000
0000
,
2000
0000
0000
3000
,
0010
0000
0000
0100
0000
0000
0000
0000
,
0002
0000
0003
0110
,
2000
0000
3000
0110
,
2002
0000
3003
0100
,
0010
0000
0000
1001
0000
0000
0000
0000
,
1000
0000
0010
0000
,
0100
0000
0000
1001
0000
0000
0000
0000
,
0001
0000
0010
0000
,
0100
0000
0000
0010
0000
1001
0000
0000
,
0100
0000
0010
0000
,
0100
0000
0000
0001
0000
0000
0000
0000
,
1000
0000
0000
0000
0010
0000
0000
1001
,
0000
0000
0000
0000
,
1000
0000
0010
0000
,
0001
0000
0000
0110
0000
0000
0000
0000
,
0001
0000
0010
0000
,
1000
0000
0000
0000
0000
0110
0000
0000
,
0100
0000
0010
0000
,
0100
0000
0000
1010
0000
0000
0000
0000
,
1000
0000
0000
0001
0000
0000
1000
0000
,
0100
0000
0000
0011
0000
0000
0000
0000
,
0002
0000
0000
0003
,
0100
0000
0000
0010
0000
0000
0000
0000
,
2000
0000
0000
3000
,
0010
0000
0000
0100
0000
0000
0000
0000
,
0002
0000
0003
0110
,
2000
0000
3000
0110
,
2002
0000
3003
0100
,
0010
0000
0000
1001
0000
0000
0000
0000
;

//---------------dance-single - Copied from----------------
#NOTES:
     dance-single:
     Copied from:
     Medium:
     5:
     0.458,0.514,0.729,0.620,0.016,120.000,47.000,40.000,0.000,0.000:
1000
0000
0000
0020
0000
0030
1000
0000
,
0100
0000
0000
1001
0000
0000
0000
0000
,
0001
0000
0000
0020
0000
0030
0001
0000
,
0100
0000
0000
0110
0000
1001
0000
0000
,
0100
0000
0000
2020
0000
3030
0001
0000
,
1000
0000
0001
0100
0000
0000
0000
0000
,
1000
0000
0000
0100
0000
0000
0010
1001
,
0000
0000
0000
0000
0000
0000
0000
0000
0100
0000
0000
0010
0000
0000
0000
0000
,
1000
0000
0000
0220
0000
0330
0001
0000
,
1100
0000
0000
0110
0000
0000
0000
0000
,
0001
0000
0000
0220
0000
0330
1000
0000
,
0011
0000
0000
0010
0000
0110
0000
0000
,
0100
0000
0000
2020
0000
0000
3030
0000
,
0100
0000
0000
0011
0000
0000
0000
0000
,
1000
0000
0000
0100
0000
0000
0001
0000
,
0010
0000
0000
1001
0000
0000
0000
0000
,
0002
0000
0000
0000
0000
0003
0010
0000
,
0100
0000
0000
0100
0000
0000
0000
0000
,
2000
0000
0000
0000
0000
3000
0100
0000
,
0010
0000
0000
0100
0000
0000
0000
0000
,
0202
0000
0303
0110
,
2200
0000
3300
0110
,
2002
0000
3003
0100
,
0010
0000
0100
1001
0000
0000
0000
0000
,
1000
0000
0000
0220
0000
0330
1000
0000
,
0100
0000
0000
1001
0000
0000
0000
0000
,
0001
0000
0000
0220
0000
0330
0001
0000
,
0100
0000
0000
0110
0000
1001
0000
0000
,
0100
0000
0000
2020
0000
3030
0001
0000
,
0010
0000
0001
0100
0000
0000
0000
0000
,
0001
0000
0000
0010
0000
0000
0100
1001
,
0000
0000
0000
0000
0000
0000
0000
0000
0010
0000
0000
0100
0000
0000
0000
0000
,
1000
0000
0000
0022
0000
0033
1000
0000
,
0011
0000
0000
0110
0000
0000
0000
0000
,
0001
0000
0000
2020
0000
3030
0001
0000
,
1100
0000
0000
0100
0000
0110
0000
0000
,
0100
0000
0000
2200
0000
0000
3300
0000
,
0010
0000
0000
0101
0000
0000
0000
0000
,
1100
0000
0000
0101
0000
0000
0110
0000
,
1001
0000
0000
0110
0000
0000
0000
0000
,
2002
0000
0000
0000
0000
3003
0010
0000
,
0100
0000
0000
0100
0000
0000
0000
0000
,
2002
0000
0000
0000
0000
3003
0100
0000
,
0010
0000
0000
0100
0000
0000
0000
0000
,
0022
0000
0033
0110
,
2020
0000
3030
0001
,
0220
0000
0330
0001
,
0010
0000
0100
1001
0000
0000
0000
0000
;

//---------------dance-single - Copied from Copied f----------------
#NOTES:
     dance-single:
     Copied from Copied f:
     Hard:
     8:
     0.660,0.629,0.775,0.496,0.016,216.000,50.000,32.000,0.000,0.000:
1000
0000
0001
0020
0000
0030
1001
0000
,
0100
0010
0100
1001
0000
0000
0110
0000
,
0001
0000
1000
0020
0000
0030
0001
1000
,
0100
0010
0000
0110
0000
1001
0000
0000
,
0010
0000
0100
2020
0000
3030
0001
0100
,
1000
0100
0001
0100
0000
1000
0100
0000
,
1000
0100
0010
0001
0010
0100
0010
1001
,
0000
0000
0110
0000
0000
0000
0000
0000
0100
0000
0000
0011
0000
0000
0000
0000
,
1000
0100
1000
0220
0000
0330
0001
0010
,
1000
0100
0010
0001
0000
1000
0001
0000
,
0001
0100
0001
0220
0000
0330
1000
0100
,
0001
0010
0000
0100
0000
1010
0000
0000
,
0100
0010
0100
2020
0000
3030
0001
0010
,
0100
1000
0100
1010
0000
0001
0100
0000
,
1000
0100
0010
1000
0100
0010
1000
0100
,
0001
0100
0000
1001
0000
0000
0000
0000
,
0102
0000
0000
0100
0000
0000
0013
0000
,
0100
0000
0000
0001
0000
0000
0000
0000
,
2100
0000
0000
0100
0000
0000
3010
0000
,
0100
0000
0000
1001
0000
0000
0000
0000
,
0102
0000
0000
1000
0003
0000
0110
0000
,
2010
0000
0000
0001
3000
0000
0110
0000
,
2002
0000
3003
0110
,
1000
0100
0010
0001
0000
0000
0110
0000
,
1000
0000
0001
0020
0000
0030
1001
0000
,
0100
0010
0100
1001
0000
0000
0110
0000
,
0001
0000
1000
0020
0000
0030
0001
1000
,
0100
0010
0000
0110
0000
1001
0000
0000
,
0010
0000
0100
2020
0000
3030
0001
0100
,
1000
0100
0001
0100
0000
1000
0100
0000
,
1000
0100
0010
0001
0010
0100
0010
1001
,
0000
0000
0110
0000
0000
0000
0000
0000
0100
0000
0000
0011
0000
0000
0000
0000
,
1000
0100
1000
0220
0000
0330
0001
0010
,
1000
0100
0010
0001
0000
1000
0001
0000
,
0001
0100
0001
0220
0000
0330
1000
0100
,
0001
0010
0000
0100
0000
1010
0000
0000
,
0100
0010
0100
2020
0000
3030
0001
0010
,
0100
1000
0100
1010
0000
0001
0100
0000
,
1000
0100
0010
1000
0100
0010
1000
0100
,
0001
0100
0000
1001
0000
0000
0000
0000
,
0102
0000
0000
0100
0000
0000
0013
0000
,
0100
0000
0000
0001
0000
0000
0000
0000
,
2100
0000
0000
0100
0000
0000
3010
0000
,
0100
0000
0000
1001
0000
0000
0000
0000
,
0102
0000
0000
1000
0003
0000
0110
0000
,
2010
0000
0000
0001
3000
0000
0110
0000
,
2002
0000
3003
0110
,
0001
0100
0010
1000
0000
0000
0110
0000
;
