#TITLE:murmur twins;
#SUBTITLE:;
#ARTIST:yu_tokiwa.djw;
#TITLETRANSLIT:;
#SUBTITLETRANSLIT:;
#ARTISTTRANSLIT:;
#CREDIT:;
#BANNER:Murmur Twins.png;
#BACKGROUND:Murmur Twins-bg.png;
#LYRICSPATH:;
#CDTITLE:!toph-cdtitle.png;
#MUSIC:yu_tokiwa.djw - Murmur Twins.mp3;
#OFFSET:-0.472;
#SAMPLESTART:30.700;
#SAMPLELENGTH:12.500;
#SELECTABLE:YES;
#BPMS:0.000=43.500,1.000=38.400,2.000=174.000,178.000=87.000,190.000=174.000,206.000=135.000,206.250=81.000,206.500=53.500,207.000=174.000,304.500=43.500;
#STOPS:;
#BGCHANGES:;
// cache tags:
#FIRSTBEAT:1.000;
#LASTBEAT:305.500;
#SONGFILENAME:Songs/Community Keyboard Megapack - Volume 1/(Toph) Murmur Twins/Murmur Twins.sm;
#HASMUSIC:1;
#HASBANNER:1;
#MUSICLENGTH:123.193;
// end cache tags

//---------------dance-single - ----------------
#NOTES:
     dance-single:
     :
     Easy:
     6:
     0.462,0.465,0.203,0.219,0.012,346.000,25.000,27.000,0.000,0.000:
0000
0100
1001
0000
,
1100
0000
0011
0000
,
0101
0100
0010
1000
,
0100
0010
0001
0100
,
0010
1000
0001
0020
0000
0000
0100
0000
,
0100
0230
1000
1000
,
1000
2300
0010
0010
,
0010
3020
0100
0100
,
0100
0230
0001
0001
,
0001
0302
0010
0010
,
0010
0013
1001
0110
,
1001
0000
0110
0000
1000
0001
1000
0001
,
1000
0001
1000
0000
0010
0000
0100
0000
,
0001
0010
0100
0000
1000
0000
0001
0000
,
1000
0001
0100
0000
0010
0000
1000
0000
,
0100
1000
0001
0000
0100
0000
0010
0000
,
1000
0100
0010
0000
0001
0000
0100
0000
,
0010
1000
0001
0000
1000
0000
0100
0000
,
1000
0010
0100
0000
0001
0000
0010
0000
,
0100
0000
1000
0000
0010
0010
0000
0000
,
0010
0010
0010
0000
0100
0000
0001
0000
,
0010
0000
0100
0000
1000
0010
1000
0000
,
0010
1000
0010
0000
0100
0000
0001
0000
,
0010
0000
0100
0000
1001
0000
0000
1001
,
0000
1001
0001
0100
,
0010
0000
1000
0000
0100
0010
0100
0000
,
0010
0100
0010
0000
0001
0000
0100
0000
,
0010
0000
1000
0000
0001
0100
0001
0100
,
0001
0100
0001
0100
0010
0000
1000
0000
,
0100
0000
0010
0001
0000
0001
0100
0000
,
0010
1000
0100
0010
,
0001
0000
0100
0010
0000
0010
1000
0000
,
0100
0010
0001
0100
,
0010
0000
1000
0001
0000
0001
1000
0000
,
0100
1000
0010
0100
,
0001
1000
1001
0110
,
1001
0100
1002
0100
,
0010
1003
2000
0100
,
0010
3001
0020
0100
,
1000
0130
0002
0010
,
0100
1003
0020
1000
,
0001
1030
0200
1000
,
0001
1300
0010
0001
,
0001
0100
0000
0100
0010
0000
0010
1000
,
0000
1000
0100
0000
1001
0000
0100
0000
,
0010
0000
0001
0000
0100
0010
1000
0100
,
0010
0001
1010
0100
,
0001
1000
0000
0001
0000
1000
0001
0000
2000
0000
0000
0000
0000
0000
3200
0000
,
0000
0000
0320
0000
0000
0032
0000
0000
,
0203
0000
0320
0000
2030
0000
3000
0220
,
0000
0330
0002
0000
0003
0220
0000
0330
,
2000
0000
0000
0000
0002
0000
0000
0000
0000
0000
0000
3003
0000
0000
1000
0000
,
0001
1000
0000
1000
0100
0000
0010
0000
,
0001
0100
0010
0100
,
0001
0001
1000
0000
0100
0000
0010
0000
,
0001
0100
0010
1000
,
0001
0001
0010
0000
0100
0000
1000
0000
,
0010
0100
0001
1000
,
0100
0100
0010
0000
0001
0000
0100
0000
,
0010
0000
1000
0000
0001
1000
0001
1000
,
0001
0000
0100
0000
0010
0000
1000
0100
,
0010
0000
0001
0000
0100
0000
0010
1000
,
0001
1000
0100
0000
0010
0000
0001
1000
,
0010
0000
0100
0000
0001
0000
0010
0100
,
0010
0100
1000
0000
0001
0000
0100
0010
,
1000
0000
0001
0000
1000
0000
0001
1000
,
0001
1000
0010
0000
1000
0000
0100
0010
,
0001
0000
1000
0001
1000
0001
1000
0001
,
1000
0010
0100
0001
,
1000
0000
0100
0010
0001
0000
1000
0100
,
0010
0001
0100
0010
,
1000
0000
1001
0000
0000
0110
0000
0000
,
1001
1000
0100
0010
,
0001
0000
0100
0010
0100
0000
0010
1000
,
0010
1000
0100
0010
,
0001
0000
1001
0000
0000
0110
0000
0000
,
1001
0200
0000
0300
0000
0000
0000
0000
;

//---------------dance-single - ----------------
#NOTES:
     dance-single:
     :
     Medium:
     8:
     0.609,0.620,0.284,0.211,0.089,464.000,35.000,26.000,0.000,0.000:
0000
0000
0100
0000
0010
1000
0100
0010
,
0001
0100
0010
0100
0001
0010
0100
1000
,
0010
0100
0010
1000
0001
0010
0100
1000
,
0010
0100
0001
0010
0100
1000
0010
0100
,
0001
1000
0100
0020
0000
0000
0030
0000
,
0001
0100
0010
1000
0000
0000
1200
0000
,
0320
0032
2003
3000
,
0010
0100
0001
0020
0000
0030
0000
0200
,
0000
1300
0000
0102
0000
0003
0000
0000
,
1000
0100
0010
0020
0000
0030
0011
0000
,
1001
1010
0200
0300
,
0001
0010
0100
1000
0100
0010
0100
1000
,
0010
0000
0100
0000
0001
0000
0010
0000
0000
0000
0100
0000
0000
1000
0000
0000
,
0001
0100
0010
1000
0000
0000
0100
0010
,
0001
1000
0010
0010
0000
0000
0100
0001
,
0010
0100
1000
0001
0000
0000
0100
0010
,
1000
0000
0100
0000
0010
0000
0010
0000
0000
0000
0001
0000
0000
0100
0000
0000
,
0010
0000
0100
0000
0001
0000
0010
0000
0000
0000
0100
0000
0000
1000
0000
0000
,
0001
0000
0100
0000
0010
0000
0010
0000
0000
0000
1000
0000
0000
0100
0000
0000
,
0010
0100
1000
0001
0100
0100
0000
0010
,
1000
0001
0010
0100
1000
0010
0100
0010
,
1000
0100
0010
0001
0100
1000
0100
0010
,
1000
0100
0010
0001
0100
0010
1000
0100
,
1000
0010
1000
0001
1000
0010
1000
0100
,
1000
0010
0100
0001
0010
0100
1000
0010
,
0100
0001
1000
0100
0010
0100
1000
0010
,
0100
0010
1000
0001
0010
0001
0100
0010
,
1000
0100
0010
0001
0100
0001
1000
0001
,
0100
0001
0010
0100
1000
0000
0001
0100
,
0010
1000
0100
0010
0000
0000
0001
0100
,
0010
1000
0001
0020
0000
0000
0000
0030
,
0000
0100
1000
0020
0000
0030
0100
0001
,
0000
0001
1000
0200
0000
0300
0011
0000
,
0001
0100
0010
1000
0000
0000
0101
0000
,
1000
0010
0000
0101
0000
0000
1100
0000
,
1000
0100
0000
0010
0001
0100
0010
0100
,
0001
0010
0100
1000
0001
0000
1000
0010
,
0100
0001
0010
0100
0000
0000
1000
0001
,
0100
0001
0010
0200
0000
0000
0000
0300
,
0000
1000
0010
0100
0000
0101
0000
1001
,
0000
1100
0000
0022
0000
0000
0000
0033
,
0000
0001
0100
0001
0010
0100
0000
1001
,
0000
0100
0000
0010
1000
0000
1001
0000
,
0010
0001
0000
0001
1000
0010
0100
0000
,
0001
0000
1000
0000
0000
0000
0110
0000
0001
0000
0000
0000
0000
1000
0100
0010
,
0000
0000
0001
0100
0000
0010
1000
0001
0010
0000
0100
0000
1000
0000
0001
0000
,
0100
0010
0000
1000
0000
0100
0000
0000
0011
0000
0000
0001
0001
1000
0010
0100
,
0000
1001
0000
1001
0000
1000
0001
0000
1000
0000
0000
0000
1000
0000
0100
0000
,
0000
0100
0010
0000
0010
0001
0000
0001
,
0100
0000
0110
0000
1001
0000
0010
0001
,
0000
0001
0100
0000
0010
1000
0000
1000
,
0100
0000
0000
0000
0110
0000
0000
0000
2002
0000
0000
3003
0100
0000
0010
0000
,
1000
0001
0000
0001
1000
0000
1000
0100
,
0010
0020
0000
0030
0011
0000
1100
0000
,
0101
0000
2010
0000
3000
0000
0001
0100
,
0010
2000
0000
3000
0000
1100
0000
1001
,
0000
0201
0000
0000
0300
0000
1000
0100
,
0010
0002
0000
0003
1010
0000
0110
0000
,
0011
0000
1200
0000
0300
0000
0010
0001
,
0100
0010
1000
0100
0010
0100
1000
0010
,
0100
0000
0001
0000
0000
0000
1000
0000
0000
0100
0000
0000
0010
0000
0001
0000
,
0100
0010
0000
0000
1000
0100
0010
0001
,
0100
0100
0000
0000
0010
1000
0100
1000
,
0010
0100
0000
0000
0001
0010
0100
1000
,
0010
0000
0010
0000
0000
0000
0100
0000
0000
0001
0000
0000
0010
0000
0001
0000
,
1000
0000
0010
0000
0000
0000
0100
0000
0000
0001
0000
0000
0010
0000
0100
0000
,
1000
0000
1000
0000
0000
0000
0010
0000
0000
0100
0000
0000
0001
0000
0100
0000
,
0010
1000
0001
0001
0000
1000
0100
0010
,
0001
0100
0010
0100
0001
1000
0100
0010
,
0100
1000
0010
0001
0010
1000
0100
0001
,
0100
0010
0001
0100
0010
1000
0100
0010
,
0001
0100
0010
0100
0001
0100
0010
0100
,
1000
0100
0001
1000
0100
0010
0100
1000
,
0010
0100
0001
0010
0100
1000
0010
0100
,
0001
1000
0100
0010
0001
0100
0001
0010
,
0001
0100
0010
1000
0100
0010
0001
0100
,
0010
2002
0000
3003
0000
0000
0000
0000
;

//---------------dance-single - ----------------
#NOTES:
     dance-single:
     :
     Hard:
     9:
     0.761,1.000,0.438,0.032,0.321,598.000,54.000,4.000,0.000,0.000:
0000
0000
1001
0000
0001
0100
0010
1000
,
0100
0010
0100
1000
0001
0100
1000
0100
,
0010
0000
1000
0000
0100
0010
0100
0000
1000
0000
0001
0000
0100
0000
0010
0000
,
1000
0000
0100
0000
0001
0000
0100
0000
1000
0010
1000
0000
0001
0100
0001
0000
,
1000
0001
1000
0001
1000
0000
1001
0000
0000
0000
1000
0000
1000
0000
0100
0000
,
1000
1000
0010
0100
0000
0001
0001
1000
,
0001
0001
0010
0100
1000
0010
0010
0100
,
0010
0010
1000
0001
0000
0010
0010
0001
,
0010
0010
0100
1000
0010
0100
0100
0001
,
0100
0100
0010
1000
0000
0001
0001
1000
,
0001
0001
1000
0100
0011
0000
0101
0000
,
1010
0000
0000
0000
1100
0000
0000
0000
0010
0000
0001
0000
0001
0000
1000
0010
,
1000
0000
0100
0000
0010
0000
1001
0000
0000
0000
1010
0000
0000
0011
0000
0000
,
0010
0000
0001
0000
0100
0000
0100
0000
0000
0000
0010
0000
1000
0100
1000
0100
,
0010
0000
0001
0000
1000
0000
1000
0000
0010
0000
0100
0000
0010
0000
1000
0100
,
0010
0000
0001
0000
0010
0000
0100
0000
0000
0000
1000
0000
0001
0100
0010
1000
,
0000
0000
0001
0000
0010
0000
0010
0000
0100
0000
1100
0000
0000
0101
0000
0000
,
0001
0000
0010
0000
0100
0000
1000
0000
0001
0000
0100
0000
0010
1000
0000
0000
,
0100
0000
0010
0000
0001
0000
0001
0000
1000
0000
1001
0000
0000
0110
0000
0000
,
0001
0100
0010
1000
1001
1001
0000
0000
,
1001
0000
1001
0000
1000
0001
1000
0000
0010
0000
0100
0001
0100
0000
0010
1000
,
0010
0000
1000
0100
1000
0000
0001
0000
0001
0100
0000
0100
0010
0000
0010
1000
,
0000
1000
0100
0000
0010
0001
0010
0001
0000
0000
0100
0000
0000
0000
1000
0000
,
0100
0001
0010
0100
1100
0000
0100
0101
,
0000
0100
1100
0000
0010
0001
0100
1000
,
0100
0000
0001
0000
0010
0000
0100
0000
1000
0001
1000
0000
0010
0000
0100
0000
,
0001
0000
0010
0000
0100
0000
0010
0000
0001
0100
0001
0000
0010
0000
0100
0000
,
1000
0010
1000
0000
0100
0000
0010
0000
0001
0000
0100
0000
0010
0000
0000
1000
,
0001
0010
0100
1000
0001
0100
0010
1000
,
0000
0100
0010
0001
0000
1000
0000
0010
,
0100
0001
0010
0000
0100
1000
0010
0001
,
0000
1000
0100
0010
0000
1000
0000
0001
,
0010
0100
1000
0000
0001
0100
0010
1000
,
0000
0100
1000
0010
0000
0100
0000
0001
,
0010
0100
1000
0000
1000
0010
0100
0001
,
0000
0000
1000
0000
0100
0000
0010
0000
0001
0000
0001
0000
0001
0000
0100
0010
,
1000
0000
0001
0000
0100
0010
1000
0000
1001
0000
0000
0000
1000
0000
0100
0000
,
0010
0001
0100
0010
0000
0000
1000
0100
,
0010
0001
0100
1000
0000
0100
0001
0000
,
1000
0100
0010
0001
0000
1001
0000
0101
,
0000
1000
0100
0010
0000
0001
0100
0000
,
0010
1000
0001
1000
0100
0010
0000
0011
,
0000
1100
0000
0010
0100
0000
1001
0000
,
0001
0000
0100
0000
0010
0000
0000
1000
0100
0000
0010
0000
0001
0000
0100
0000
,
0010
0000
0000
0000
1000
0000
0000
0000
0100
0000
0010
0000
0001
0000
0000
0000
0100
0000
0000
0000
0000
0000
0010
1000
0010
0000
0000
0000
0000
0000
0000
0000
,
0100
0001
1000
0100
0010
0001
0100
0010
1000
0000
1100
0000
1001
0000
0101
0000
,
0010
0000
1000
0000
0100
0000
0010
0000
0001
0000
0100
0000
0010
0000
0100
0000
0001
0000
0000
0000
0000
0000
1000
0010
1000
0000
1000
0001
1000
0000
1000
0100
,
1000
0000
1001
0000
0000
0000
0110
0000
0000
0000
1001
0000
0100
0010
0100
0000
1001
0000
0000
0000
0100
0000
0000
0000
0010
0000
0000
0000
0001
0000
0000
0000
,
0100
0010
1000
0100
0010
0001
0100
0010
,
1000
0100
0010
0100
1000
0010
0100
1001
,
0010
0100
1000
0010
0100
1001
0010
0001
,
0100
0000
0010
0000
1001
0000
0100
0000
2002
0000
0000
3003
1000
0000
0001
0000
,
1000
0001
1000
0000
0000
0000
0010
0000
0010
0000
0100
0000
0010
0000
0010
0000
,
1000
0001
0000
0010
0010
0100
0010
0010
,
0001
0001
1000
0010
0010
0100
0010
0010
,
1000
0100
0000
0010
0010
0001
0010
0010
,
0001
0100
0010
1000
1000
0100
1000
1000
,
0010
0100
0000
0001
0001
1000
0001
0001
,
0010
0010
0100
1000
1000
0100
1000
1000
,
0010
0000
0010
0000
0100
0000
0001
0000
1000
0000
0100
0010
0001
0000
0100
0000
,
0010
0000
1001
0000
0000
0000
0101
0000
0000
1100
0000
0000
0100
0000
1000
0000
,
0001
0000
0001
0000
0000
0000
0100
0000
0010
1000
0010
1000
0001
0000
1000
0000
,
0100
0000
0100
0000
0010
0000
0001
0000
0100
0000
0001
0010
0100
0000
1000
0000
,
0010
0000
0100
0000
0000
0000
0001
0000
1000
0100
0010
0001
0000
0000
1000
0000
,
0010
0000
0010
0000
0100
0000
0101
0000
0000
1100
0000
0000
0001
0000
0100
0000
,
0010
0000
1000
0000
0001
0000
0010
0000
0100
1000
0000
0000
0010
0000
0100
0000
,
0001
0000
0001
0000
1000
0000
1001
0000
0000
0110
0000
0000
0001
0000
0010
0000
,
0100
0000
1000
0000
0001
0000
0001
0000
1001
0000
0010
0100
0010
0000
1001
0000
,
0100
0010
0100
0000
1001
0000
0001
0100
0001
0000
1000
0100
1000
0000
0010
0100
,
0010
0000
1000
0000
1000
0100
0000
0100
0010
0000
0010
0001
0000
0001
0100
0000
,
0010
1000
0010
1000
0000
0000
0001
0000
0000
0000
1000
0000
0100
0000
0010
0000
,
0001
0100
0101
0000
0100
1100
0000
0100
,
0101
0000
1000
0100
0001
0100
1000
0010
,
1000
0000
0100
0000
1000
0001
1000
0000
0010
0000
0100
0000
0001
0000
0010
0000
,
0100
0000
1000
0000
0010
0100
0010
0000
1000
0000
0001
0000
0010
0100
0010
0000
,
0001
1000
0101
0000
0001
1100
0000
1000
,
0101
2200
0000
3300
0000
0000
0000
0000
;

//---------------dance-single - ----------------
#NOTES:
     dance-single:
     :
     Challenge:
     11:
     1.000,1.000,1.000,0.032,0.710,744.000,261.000,4.000,0.000,0.000:
0000
0000
1001
0000
1010
0100
0001
0010
,
1100
0001
0100
0010
1001
0100
0010
0001
,
1010
0000
0100
0000
0001
0010
0100
1000
0101
0000
0010
0000
1001
0000
0010
0000
,
1100
0000
0010
0000
0101
0000
1000
0000
0001
0010
0100
1000
0010
0100
0001
0010
,
0100
1000
0011
0100
1001
0010
0101
0000
0000
0000
1000
0000
1000
0000
0101
0000
,
1000
1000
0011
0110
0000
0001
0001
0110
,
0001
0001
0110
1100
0101
1000
1000
0101
,
1000
1000
0101
1010
0000
0010
0010
0101
,
0010
0010
1100
0011
0000
1000
1000
0101
,
1000
1000
0011
0110
0000
1000
1000
0101
,
1000
1000
0101
1010
1001
0100
0101
1000
,
0101
0000
0100
0000
1001
0000
1000
0000
0101
0000
0011
0000
1000
0010
0100
0001
,
0010
0000
1100
0000
0001
0100
0011
0000
1000
0000
0100
0000
1000
0001
0000
0000
,
1100
0000
0010
0000
1001
0000
0010
0000
0100
0000
0001
1000
0100
0010
0001
1000
,
0110
0000
0001
0000
1010
0000
0010
0000
0101
0000
0000
0000
0001
1000
0010
0100
,
0011
0000
0100
0000
1001
0000
1100
0000
0010
0000
0000
0000
0011
0100
0001
1000
,
0010
0000
0001
0000
0110
0000
0101
0000
1000
0000
0001
0000
1000
0100
0000
0000
,
1010
0000
0100
0000
1001
0000
0110
0000
0001
0000
0010
0000
0001
0100
0000
0000
,
1001
0000
0100
0000
0011
0000
0010
0000
1100
0000
0001
0000
0100
0010
0000
0000
,
1100
0010
0101
1000
0011
0011
0000
0000
,
1010
0000
0000
0000
0011
0000
0000
0000
1000
0100
0010
0000
0001
0000
0000
0000
1001
0000
0000
0000
0001
0000
0010
0000
0001
0000
0000
0000
1000
0000
0100
0000
,
1000
0000
0010
0100
0001
0100
0010
1000
0100
0010
0000
0001
1000
0000
0010
0100
,
0000
0001
0010
0000
0100
1000
0001
0100
0000
0000
1010
0000
0100
0001
0010
0100
,
1000
0010
0100
0001
0000
0001
0100
0001
1000
0010
1000
0001
0100
0000
0010
1000
,
0010
0100
0001
0000
1000
0010
0100
0001
0010
0000
0100
0000
1000
0010
0100
0001
,
0010
0100
0000
1000
0001
0100
0000
0010
1000
0100
0010
0001
0010
0100
1000
0100
,
0010
0001
0100
0000
0001
0100
0010
1000
0100
0010
0100
1000
0001
0100
0010
1000
,
0001
0000
0101
0000
0110
0000
1010
0000
1000
0100
0010
0010
0000
0001
0100
0010
,
0010
1010
0101
0010
1001
0110
1010
0101
,
1000
0110
1001
0011
0100
1010
0001
0110
,
0011
1010
0101
1000
0110
1001
0011
1100
,
0010
1001
0110
1010
0100
0011
1000
0110
,
1001
1010
0101
0010
1100
0011
1010
0101
,
1000
0110
0011
0101
0010
1100
0001
0110
,
1010
1001
0110
0001
1100
0110
0011
1010
,
0100
0000
0010
0000
1001
0000
0101
0000
0011
0000
0101
0000
1001
0000
0010
1000
,
0011
0000
1001
0000
1010
0001
1100
0000
1001
0000
0101
0000
1010
0000
1001
0000
,
1100
0011
0110
1001
0101
1010
1100
0011
,
0101
1010
1100
0011
0101
0110
1001
1010
,
1100
0110
0011
1010
0101
1100
0011
0101
,
1001
1010
1100
1001
0011
1100
0110
1001
,
0110
0101
1010
1001
1100
0011
0101
1010
,
1001
0110
1001
1010
0101
1100
1001
0101
,
1100
0000
1001
0000
0110
0000
0010
0100
1001
0000
0101
0000
1001
0000
1100
0000
,
0110
0000
0000
0000
0011
0000
0000
0000
1010
0000
0001
0000
1100
0000
0000
0000
1001
0000
0000
0000
0000
0000
0010
0100
1000
0000
0000
0000
0000
0000
0000
0000
,
0001
0000
0100
0010
1000
0100
0010
0001
1000
0010
0100
0001
0010
0000
0000
0000
0100
0000
0000
0000
1000
0000
0000
0000
0001
0000
0100
0010
1000
0000
0000
0000
,
0001
0000
0010
0100
1000
0001
1000
0010
0100
0001
0010
0100
1000
0010
0100
0001
1000
0000
0000
0000
0000
0000
0100
0010
0001
0000
1000
0010
0100
0000
0001
1000
,
0100
0000
1000
0000
0000
0000
1010
0001
0010
0000
1001
0000
1100
0010
1001
0000
1001
0000
0000
0000
0010
0000
0000
0000
0100
0000
0000
0000
0011
0000
0000
0000
,
0100
1000
0101
0010
0100
0011
1000
0100
,
1001
0010
0100
0010
1001
0000
0100
0000
1010
0000
0001
0000
0100
0000
0011
0000
,
1000
0100
1010
0100
0001
0110
1000
0100
,
1001
0100
0010
0001
1100
0000
0010
0000
2002
0000
0000
3003
1000
0000
1000
0000
,
1000
0001
0110
0000
0000
0000
0101
0000
0101
0000
1000
0000
0101
0000
0100
0000
,
1001
0010
1000
0100
1100
0001
1100
0100
,
1001
0001
0110
1000
1010
0100
1010
1000
,
0110
0001
0100
0010
0110
0001
0110
0010
,
1100
1000
0001
0100
0101
0010
0101
0100
,
1001
1000
0010
0100
0110
0001
0110
0100
,
0011
0001
1010
0100
1100
0010
1100
0100
,
1010
0000
0010
0000
0101
0000
1000
0000
1001
0100
0010
1000
0001
0000
0100
0000
,
0101
0000
1001
0000
1100
0000
0010
0000
1001
0100
0000
0000
1000
0000
0001
0000
,
1010
0000
0100
0000
1000
0000
0010
0100
0001
0010
0100
1000
0011
0000
0100
0000
,
1001
0000
1001
0000
0110
0000
0000
0000
0100
0010
0001
1000
0101
0000
0010
0000
,
1100
0000
0011
0000
0100
0000
0000
0000
1001
0100
0010
0001
0100
0000
0010
0000
,
0101
0000
0101
0000
1000
0000
0100
0000
1000
0010
0000
0000
1001
0000
0010
0000
,
1100
0000
0011
0000
0100
0000
0001
0000
0100
0010
0000
0000
1100
0000
0010
0000
,
0101
0000
0101
0000
0010
0000
1000
0000
0010
0100
0000
0000
0011
0000
0100
0000
,
1010
0000
0100
0000
1001
0010
1000
0010
0101
0000
0010
1000
0011
0000
0101
0000
,
1001
0000
0101
1000
0011
0000
1000
0010
1000
0000
0001
0100
0001
0000
0010
0100
,
1000
0001
0100
0010
1000
0100
0000
0010
0001
0000
0100
0010
0000
1000
0001
0000
,
0010
0100
1000
0001
0000
0000
1100
0000
0001
0100
0010
1000
0001
0010
0100
1000
,
0000
1000
0100
1000
0001
0010
0001
1000
0100
0000
0010
0001
0010
0100
1000
0000
,
0001
0010
0100
1000
0010
0000
0100
0000
0001
0010
0100
1000
0010
0100
0000
0001
,
1000
0100
0000
1000
0001
0010
0100
1000
0100
0010
0001
0010
0100
1000
0010
0000
,
1000
0100
0010
0001
0100
0010
0100
0001
1000
0100
0010
0001
1000
0000
1100
0000
,
0110
0000
0011
0000
0001
0100
0010
1000
0001
0000
1000
0100
0010
0001
1000
0000
,
0010
0100
2002
0000
0000
0000
3003
0000
0000
0000
0000
0000
0000
0000
0000
0000
;
