#TITLE:Misanthropic Coil;
#SUBTITLE:Eden Fire (2005);
#ARTIST:Sonic Syndicate;
#TITLETRANSLIT:;
#SUBTITLETRANSLIT:;
#ARTISTTRANSLIT:;
#CREDIT:;
#BANNER:coil-bn.png;
#BACKGROUND:coil-bg.png;
#LYRICSPATH:;
#CDTITLE:CDTitle.png;
#MUSIC:05 Misanthropic Coil.mp3;
#OFFSET:0.000;
#SAMPLESTART:100.000;
#SAMPLELENGTH:11.980;
#SELECTABLE:YES;
#BPMS:0.000=198.247,1.000=189.977,4.000=190.004,5.000=189.977,9.000=190.004,10.000=189.977,13.000=190.004,14.000=189.977,18.000=190.004,19.000=189.977,22.000=190.004,23.000=189.977,27.000=190.004,28.000=189.977,32.000=190.004,33.000=189.977,36.000=190.004,37.000=189.977,41.000=190.004,42.000=189.977,45.000=190.004,46.000=189.977,50.000=190.004,51.000=189.977,55.000=190.004,56.000=189.977,59.000=190.004,60.000=189.977,64.000=190.004,65.000=189.977,68.000=190.004,69.000=189.977,73.000=190.004,74.000=189.977,77.000=190.004,78.000=189.977,82.000=190.004,83.000=189.977,87.000=190.004,88.000=189.977,91.000=190.004,92.000=189.977,96.000=190.004,97.000=189.977,100.000=190.004,101.000=189.977,105.000=190.004,106.000=189.977,110.000=190.004,111.000=189.977,114.000=190.004,115.000=189.977,119.000=190.004,120.000=189.977,123.000=190.004,124.000=189.977,128.000=190.004,129.000=189.977,132.000=190.004,133.000=189.977,137.000=190.004,138.000=189.977,142.000=190.004,143.000=189.977,146.000=190.004,147.000=189.977,151.000=190.004,152.000=189.977,155.000=190.004,156.000=189.977,160.000=190.004,161.000=189.977,165.000=190.004,166.000=189.977,169.000=190.004,170.000=189.977,174.000=190.004,175.000=189.977,178.000=190.004,179.000=189.977,183.000=190.004,184.000=189.977,187.000=190.004,188.000=189.977,192.000=190.004,193.000=189.977,197.000=190.004,198.000=189.977,201.000=190.004,202.000=189.977,206.000=190.004,207.000=189.977,210.000=190.004,211.000=189.977,215.000=190.004,216.000=189.977,220.000=190.004,221.000=189.977,224.000=190.004,225.000=189.977,229.000=190.004,230.000=189.977,233.000=190.004,234.000=189.977,238.000=190.004,239.000=189.977,242.000=190.004,243.000=189.977,247.000=190.004,248.000=189.977,252.000=190.004,253.000=189.977,256.000=190.004,257.000=189.977,261.000=190.004,262.000=189.977,265.000=190.004,266.000=189.977,270.000=190.004,271.000=189.977,275.000=190.004,276.000=189.977,279.000=190.004,280.000=189.977,284.000=190.004,285.000=189.977,288.000=190.004,289.000=189.977,293.000=190.004,294.000=189.977,297.000=190.004,298.000=189.977,302.000=190.004,303.000=189.977,307.000=190.004,308.000=189.977,311.000=190.004,312.000=189.977,316.000=190.004,317.000=189.977,320.000=190.004,321.000=189.977,325.000=190.004,326.000=189.977,330.000=190.004,331.000=189.977,334.000=190.004,335.000=189.977,339.000=190.004,340.000=189.977,343.000=190.004,344.000=189.977,348.000=190.004,349.000=189.977,353.000=190.004,354.000=189.977,357.000=190.004,358.000=189.977,362.000=190.004,363.000=189.977,366.000=190.004,367.000=189.977,371.000=190.004,372.000=189.977,375.000=190.004,376.000=189.977,380.000=190.004,381.000=189.977,385.000=190.004,386.000=189.977,389.000=190.004,390.000=189.977,394.000=190.004,395.000=189.977,398.000=190.004,399.000=189.977,403.000=190.004,404.000=189.977,408.000=190.004,409.000=189.977,412.000=190.004,413.000=189.977,417.000=190.004,418.000=189.977,421.000=190.004,422.000=189.977,426.000=190.004,427.000=189.977,430.000=190.004,431.000=189.977,435.000=190.004,436.000=189.977,440.000=190.004,441.000=189.977,444.000=190.004,445.000=189.977,449.000=190.004,450.000=189.977,453.000=190.004,454.000=189.977,458.000=190.004,459.000=189.977,463.000=190.004,464.000=189.977,467.000=190.004,468.000=189.977,472.000=190.004,473.000=189.977,476.000=190.004,477.000=189.977,481.000=190.004,482.000=189.977,485.000=190.004,486.000=189.977,490.000=190.004,491.000=189.977,495.000=190.004,496.000=189.977,499.000=190.004,500.000=189.977,504.000=190.004,505.000=189.977,508.000=190.004,509.000=189.977,513.000=190.004,514.000=189.977,518.000=190.004,519.000=189.977,522.000=190.004,523.000=189.977,527.000=190.004,528.000=189.977,531.000=190.004,532.000=189.977,536.000=190.004,537.000=189.977,540.000=190.004,541.000=189.977,545.000=190.004,546.000=189.977,550.000=190.004,551.000=189.977,554.000=190.004,555.000=189.977,559.000=190.004,560.000=189.977,563.000=190.004,564.000=189.977,568.000=190.004,569.000=189.977,573.000=190.004,574.000=189.977,577.000=190.004,578.000=189.977,582.000=190.004,583.000=189.977,586.000=190.004,587.000=189.977,591.000=190.004,592.000=189.977,595.000=190.004,596.000=189.977,600.000=190.004,601.000=189.977,605.000=190.004,606.000=189.977,609.000=190.004,610.000=189.977,614.000=190.004,615.000=189.977,618.000=190.004,619.000=189.977,623.000=190.004,624.000=189.977,628.000=190.004,629.000=189.977,632.000=190.004,633.000=189.977,637.000=190.004,638.000=189.977,641.000=190.004,642.000=189.977,646.000=190.004,647.000=189.977,650.000=190.004,651.000=189.977,655.000=190.004,656.000=189.977,660.000=190.004,661.000=189.977,664.000=190.004,665.000=189.977,669.000=190.004,670.000=189.977,673.000=190.004,674.000=189.977,678.000=190.004,679.000=189.977,683.000=190.004,684.000=189.977,687.000=190.004,688.000=189.977,692.000=190.004,693.000=189.977,696.000=190.004,697.000=189.977,701.000=190.004,702.000=189.977,706.000=190.004,707.000=189.977,710.000=190.004,711.000=189.977,715.000=190.004,716.000=189.977,719.000=190.004,720.000=189.977,724.000=190.004,725.000=189.977,728.000=190.004,729.000=189.977,733.000=190.004,734.000=189.977,738.000=190.004;
#STOPS:;
#BGCHANGES:;
// cache tags:
#FIRSTBEAT:1.000;
#LASTBEAT:722.000;
#SONGFILENAME:Songs/Astronomic Metal Collection 2/(IcyWorld) Misanthropic Coil/Misanthropic Coil.sm;
#HASMUSIC:1;
#HASBANNER:1;
#MUSICLENGTH:233.717;
// end cache tags

//---------------dance-single - ----------------
#NOTES:
     dance-single:
     :
     Hard:
     12:
     1.000,1.000,1.000,1.000,1.000,1809.000,695.000,323.000,0.000,181.000:
0000
0000
1000
0100
0010
0100
1000
0100
,
1000
0010
0100
1000
0100
0010
0100
0001
,
0010
0100
1011
0111
0010
0100
1000
0100
,
1000
0010
0100
1000
0100
0010
0100
0001
,
0010
0100
1012
0100
0010
0100
1000
0100
,
1003
0010
0100
1000
0100
0010
0100
0001
,
0010
0100
1000
0100
0010
0100
1000
0100
,
1000
0000
0010
0100
1001
0010
0100
1000
0101
0010
0100
1000
0011
1000
0100
1000
,
0011
0100
0010
0100
2001
0000
3200
0000
0321
0000
0231
0000
2300
0000
3201
0000
,
2301
3020
0231
2300
3200
0321
0230
1302
,
1023
0230
2301
3200
0321
0231
2300
3201
,
2301
0000
3020
0000
0231
0000
2300
0000
3200
0000
0321
0000
0230
0000
0301
0010
,
0100
1000
0010
0100
2001
0000
3200
0000
0321
0000
0231
0000
2300
0000
3201
0000
,
2301
3020
0231
2300
3200
0321
0230
1302
,
1023
0230
2301
3210
1302
2103
3002
0213
,
1302
0000
0023
0000
0231
0000
2300
0000
3210
0000
1302
0000
0203
0000
0301
0010
,
0100
1000
0010
0100
1010
0001
0110
1000
0101
1000
0011
0100
1000
0001
1010
0100
,
1000
0001
1010
0100
1010
0001
0110
1000
0101
1000
0011
0100
1000
0001
0110
1000
,
0001
0010
1100
0001
0110
1000
0101
0010
1100
0001
0110
1000
0001
0010
1100
0001
,
0010
0100
1010
0100
0011
0100
1010
0001
0110
1000
0011
0100
1000
0001
0110
1000
,
0001
0010
1100
0001
0110
1000
0101
0010
1100
0001
0110
1000
0001
0010
1100
0001
,
0010
1000
0101
1000
0011
1000
0101
0010
1100
0001
0110
1000
0001
0010
1100
0001
,
0010
1000
0110
1000
0011
1000
0101
0010
1100
0001
0110
1000
0001
0010
1100
0001
,
0010
0100
1010
0100
1001
0100
0011
1000
0101
1000
0011
0100
1000
0001
0110
1000
,
0001
0010
1100
0001
0110
1000
0101
0010
1100
0001
0110
1000
0001
0010
1100
0001
,
0010
0100
1001
0100
1010
0001
0110
1000
0110
1000
0011
0100
1000
0001
0110
1000
,
0001
0010
1100
0001
0110
1000
0101
0010
1100
0001
0110
1000
0001
0010
1100
0001
,
0010
0100
1010
0100
1001
0010
1100
0001
0110
1000
0011
0100
1000
0001
0110
1000
,
0011
0100
1001
0100
1010
0001
0110
1000
0101
1000
0011
0100
1000
0001
0110
1000
,
0001
0010
1100
0001
0110
1000
0101
0010
1100
0001
0110
1000
0001
0010
1100
0001
,
0010
1000
0101
1000
0110
1000
0101
0010
1100
0001
0110
1000
0001
0010
1100
0001
,
0010
1000
0110
1000
0011
1000
0101
0010
1100
0001
0110
1000
0001
0010
1100
0001
,
0110
1000
0011
0100
2010
0000
3200
0000
0320
0000
0230
0000
2300
0000
3200
0000
,
2300
3020
0230
2300
0000
3000
0011
0000
,
0101
0000
0011
0011
0011
0000
0000
0000
,
0011
0000
0011
0000
0000
0000
0001
0000
0110
0000
0010
0001
0110
0000
0010
0001
,
0110
0000
0111
1010
0111
0000
0101
0000
,
0011
0000
0110
0000
0001
0000
0000
0000
0111
0000
0010
0001
0110
0000
0010
0000
,
0110
1100
0011
0011
0011
0000
0100
0000
,
0011
0000
0010
0000
0001
0000
0000
0000
0011
0000
0010
0001
0110
0000
0010
0001
,
0110
0000
0101
0100
0101
0000
0100
0000
,
0101
0000
0110
0000
0001
0000
0000
0000
0101
0000
0100
0010
1100
0000
0100
0000
,
0100
0100
0110
0010
1011
0000
0101
0000
,
0011
0000
0010
0000
0001
0000
0000
0000
0011
0000
0010
0001
0110
0000
0010
0001
,
0110
0000
0101
0100
0101
0000
0101
0000
,
0101
0000
0100
0000
0001
0000
0000
0000
1100
0000
0101
0010
1100
0000
0100
0000
,
1101
0101
0010
0010
0011
0000
0101
0000
,
0011
0000
0010
0000
0001
0000
0000
0000
0011
0000
0011
0100
1010
0000
0010
0100
,
1010
0000
0101
0100
1100
0001
0100
0000
,
0101
0000
0101
0000
0001
0000
0000
0000
1100
0000
0101
0010
1100
0000
0100
0000
,
1011
0110
0010
2000
3201
0321
2030
3210
,
0312
0000
0123
0000
0000
0230
0302
0023
,
0230
2300
3001
2000
3201
0321
2030
3201
,
0321
0000
0000
0000
0132
0000
0000
0000
2103
0000
3120
0001
1230
0000
2310
0001
,
3210
0000
1320
0100
0031
0000
2000
0000
3201
0000
0321
0000
2030
0000
3210
0000
,
0312
0000
0123
0000
2030
3200
0302
0000
,
0003
0000
0001
2000
3201
0321
2030
3201
,
0321
0000
0132
0000
0000
0000
0213
0010
,
0000
0000
2301
3200
0321
0231
2300
3201
,
2301
3020
0231
2300
3200
0321
0230
1302
,
1023
0230
2301
3200
0321
0231
2300
3201
,
2301
0000
3020
0000
0231
0000
2300
0000
3200
0000
0321
0000
0230
0000
0301
0010
,
0100
1000
0010
0100
2001
0000
3200
0000
0321
0000
0231
0000
2300
0000
3201
0000
,
2301
3020
0231
2300
3200
0321
0230
1302
,
1023
0230
2301
3210
1302
2103
3002
0213
,
1302
0000
0023
0000
0231
0000
2300
0000
3210
0000
1302
0000
0203
0000
0301
0010
,
0100
1000
0010
0100
1010
0001
0110
1000
0101
1000
0011
0100
1000
0001
1010
0100
,
1000
0001
1010
0100
1010
0001
0110
1000
0101
1000
0011
0100
1000
0001
0110
1000
,
0001
0010
1100
0001
0110
1000
0101
0010
1100
0001
0110
1000
0001
0010
1100
0001
,
0010
0100
1010
0100
0011
0100
1010
0001
0110
1000
0011
0100
1000
0001
0110
1000
,
0001
0010
1100
0001
0110
1000
0101
0010
1100
0001
0110
1000
0001
0010
1100
0001
,
0010
1000
0101
1000
0011
1000
0101
0010
1100
0001
0110
1000
0001
0010
1100
0001
,
0010
1000
0110
1000
0011
1000
0101
0010
1100
0001
0110
1000
0001
0010
1100
0001
,
0010
0100
1010
0100
1001
0100
0011
1000
0101
1000
0011
0100
1000
0001
0110
1000
,
0001
0010
1100
0001
0110
1000
0101
0010
1100
0001
0110
1000
0001
0010
1100
0001
,
0010
0100
1001
0100
1010
0001
0110
1000
0110
1000
0011
0100
1000
0001
0110
1000
,
0001
0010
1100
0001
0110
1000
0101
0010
1100
0001
0110
1000
0001
0010
1100
0001
,
0010
0100
1010
0100
1001
0010
1100
0001
0110
1000
0011
0100
1000
0001
0110
1000
,
0011
0100
1001
0100
1010
0001
0110
1000
0101
1000
0011
0100
1000
0001
0110
1000
,
0001
0010
1100
0001
0110
1000
0101
0010
1100
0001
0110
1000
0001
0010
1100
0001
,
0010
1000
0101
1000
0110
1000
0101
0010
1100
0001
0110
1000
0001
0010
1100
0001
,
0010
1000
0110
1000
0011
1000
0101
0010
1100
0001
0110
1000
0001
0010
1100
0001
,
0110
1000
0011
0100
2010
0000
3200
0000
0320
0000
0230
0000
2300
0000
3200
0000
,
2300
3020
0230
2300
0000
3000
0011
0000
,
0101
0000
0011
0011
0011
0000
0000
0000
,
0011
0000
0011
0000
0000
0000
0001
0000
0110
0000
0010
0001
0110
0000
0010
0001
,
0110
0000
0111
1010
0111
0000
0101
0000
,
0011
0000
0110
0000
0001
0000
0001
0000
0110
0000
0010
0001
0110
0000
0010
0000
,
0110
1000
0011
0011
0011
0000
0100
0000
,
0010
0000
0011
0000
0000
0000
0001
0000
0011
0000
0010
0001
0110
0000
0010
0001
,
0110
0000
0101
0100
0101
0000
0101
0000
,
0101
0000
0110
0000
0001
0000
0001
0000
0100
0000
0101
0010
1100
0000
0100
0000
,
0100
0100
0111
0010
1011
0000
0100
0000
,
0011
0000
0011
0000
0000
0000
0000
0000
0011
0000
0010
0001
0110
0000
0010
0001
,
0110
0000
0101
0100
0101
0000
0100
0000
,
0101
0000
0100
0000
0001
0000
0000
0000
1101
0000
0101
0010
1100
0000
0100
0000
,
1100
0100
0010
0010
0011
0000
0100
0000
,
0011
0000
0011
0000
0001
0000
0000
0000
0011
0000
0010
0100
1010
0000
0010
0100
,
1010
0000
0101
0100
1101
0000
0101
0000
,
0101
0000
0100
0000
0001
0000
0001
0000
1100
0000
0101
0010
1100
0000
0100
0000
,
1011
0110
0001
1000
1000
0010
1000
1000
,
0001
1000
0010
1000
1000
0001
1000
1000
,
0010
1000
0100
1000
1000
0001
1000
1000
,
0010
1000
0100
0010
0100
0010
0001
0100
,
0010
0001
0010
1000
1000
0010
1000
1000
,
0001
1000
0010
1000
1000
0001
1000
1000
,
0010
1000
0100
1000
1000
0001
1000
1000
,
0010
1000
0100
0010
0100
0010
0001
0100
,
0010
0001
0010
1000
1000
0101
1000
1000
,
0011
1000
0101
1000
1000
0011
1000
1000
,
0101
1000
0110
1000
1000
0011
1000
1000
,
0101
1000
0010
0010
0100
0010
0001
0100
,
0010
0001
0010
1000
1000
0101
1000
1000
,
0011
1000
0101
1000
1000
0011
1000
1000
,
0101
1000
0110
1000
1000
0011
1000
1000
,
0101
1000
0020
0000
1000
0100
0032
2000
,
3010
0100
0013
1000
1000
0010
1000
1000
,
0001
1000
0010
1000
1000
0001
1000
1000
,
0010
1000
0100
1000
1000
0001
1000
1000
,
0010
1000
0100
1000
1000
0100
1000
1000
,
0010
1000
0001
1000
1000
0010
1000
1000
,
0100
1000
0010
1000
1000
0001
1000
1000
,
0010
1000
0100
1000
1000
0010
1000
1000
,
0100
0000
1000
0000
0010
0010
0100
0100
0010
0010
0100
0100
0001
0000
0001
0000
,
0100
0001
1000
0010
1001
0100
1010
0001
0110
0000
0000
0000
1001
0100
1010
0001
,
0110
0000
0000
0000
1001
0100
1010
0001
0110
0000
0000
0000
0100
0000
0000
0000
,
0000
0000
0000
0000
1001
0100
1010
0001
0110
0000
0000
0000
0100
0000
0000
0000
,
1001
0100
1010
0000
1001
0100
1010
0000
0000
0000
0000
0000
0100
0000
1000
0000
,
0000
0000
0000
0000
1001
0100
1010
0001
0110
0000
0000
0000
1001
0100
1010
0001
,
0110
0000
0000
0000
1001
0100
1010
0001
0110
0000
0000
0000
0100
0000
0000
0000
,
0000
0000
0000
0000
1001
0100
1010
0001
0110
0000
0000
0000
0100
0000
0000
0000
,
1001
0100
1010
0000
1001
0100
1010
0000
0000
0000
0000
0000
1001
0100
1010
0001
,
0110
1000
0101
0010
1001
0100
1010
0001
0110
0000
0000
0000
1001
0100
1010
0001
,
0110
0000
0000
0000
1001
0100
1010
0001
0110
0000
0000
0000
0100
0000
0000
0000
,
0000
0000
0000
0000
1001
0100
1010
0001
0110
0000
0000
0000
0100
0000
0000
0000
,
1001
0100
1010
0000
1001
0100
1010
0000
0000
0000
0000
0000
0100
0000
1000
0000
,
0000
0000
0000
0000
1001
0100
1010
0001
0110
0000
0000
0000
1001
0100
1010
0001
,
0110
0000
0000
0000
1001
0100
1010
0001
0110
0000
0000
0000
0100
0000
0000
0000
,
0000
0000
0000
0000
1001
0100
1010
0001
0110
0000
0000
0000
0100
0000
0000
0000
,
1001
0100
1010
0000
1001
0100
1010
0000
0000
0000
0000
0000
1001
0100
1010
0001
,
0110
1000
0101
0010
1001
0000
0000
0000
1000
0000
1000
0000
1000
0000
1000
0000
,
1000
1000
1000
1000
1000
1000
1000
1000
,
1000
1000
1000
1000
1000
1000
1000
1000
,
1000
0000
1000
0000
1000
0000
1000
0000
1000
0000
1000
0000
1000
0010
1000
0010
,
1000
0010
1000
0010
2001
0000
3200
0000
0321
0000
0231
0000
2300
0000
3201
0000
,
2301
3020
0231
2300
3200
0321
0230
1302
,
1023
0230
2301
3200
0321
0231
2300
3201
,
2301
0000
3020
0000
0231
0000
2300
0000
3200
0000
0321
0000
0230
0000
0301
0010
,
0100
1000
0010
0100
2001
0000
3200
0000
0321
0000
0231
0000
2300
0000
3201
0000
,
2301
3020
0231
2300
3200
0321
0230
1302
,
1023
0230
2301
3210
1302
2103
3002
0213
,
1302
0023
0231
2300
3210
1302
0203
0321
,
0230
0000
2300
0000
3110
1000
0110
0001
0110
1000
0011
0100
1000
0001
1010
0100
,
1000
0001
1010
0100
1010
0001
0110
1000
0101
1000
0011
0100
1000
0001
0110
1000
,
0001
0010
1100
0001
0110
1000
0101
0010
1100
0001
0110
1000
0001
0010
1100
0001
,
0010
0100
1010
0100
0011
0100
1010
0001
0110
1000
0011
0100
1000
0001
0110
1000
,
0001
0010
1100
0001
0110
1000
0101
0010
1100
0001
0110
1000
0001
0010
1100
0001
,
0010
1000
0101
1000
0011
1000
0101
0010
1100
0001
0110
1000
0001
0010
1100
0001
,
0010
1000
0110
1000
0011
1000
0101
0010
1100
0001
0110
1000
0001
0010
1100
0001
,
0010
0100
1010
0100
1001
0100
0011
1000
0101
1000
0011
0100
1000
0001
0110
1000
,
0001
0010
1100
0001
0110
1000
0101
0010
1100
0001
0110
1000
0001
0010
1100
0001
,
0010
0100
1001
0100
1010
0001
0110
1000
0110
1000
0011
0100
1000
0001
0110
1000
,
0001
0010
1100
0001
0110
1000
0101
0010
1100
0001
0110
1000
0001
0010
1100
0001
,
0010
0100
1010
0100
1001
0010
1100
0001
0110
1000
0011
0100
1000
0001
0110
1000
,
0011
0100
1001
0100
1010
0001
0110
1000
0101
1000
0011
0100
1000
0001
0110
1000
,
0001
0010
1100
0001
0110
1000
0101
0010
1100
0001
0110
1000
0001
0010
1100
0001
,
0010
1000
0101
1000
0110
1000
0101
0010
1100
0001
0110
1000
0001
0010
1100
0001
,
0010
1000
0110
1000
0011
1000
0101
0010
1100
0001
0110
1000
0001
0010
1100
0001
,
0110
1000
0011
0100
2010
0000
3200
0000
0321
0000
0231
0000
2300
0000
3201
0000
,
2301
3020
0231
2300
3200
0321
0230
1302
,
1023
0230
2301
3200
0321
0231
2300
3201
,
2301
0000
3020
0000
0231
0000
2300
0000
3200
0000
0321
0000
0230
0000
0301
0010
,
0100
1000
0010
0100
2001
0000
3200
0000
0321
0000
0231
0000
2300
0000
3201
0000
,
2301
3020
0231
2300
3200
0321
0230
1302
,
1023
0230
2301
3210
1302
2103
3002
0213
,
1302
0000
0023
0000
0231
0000
2300
0000
3210
0000
1302
0000
0203
0000
1302
0010
,
1203
0010
2300
0000
3111
0000
0020
0000
0032
0000
0023
0000
1030
0000
0200
0000
,
0320
0230
1300
1020
0032
0023
1030
0200
,
0320
0230
0311
0011
0011
0000
0000
0000
,
0000
0000
1100
1100
1100
0002
0000
0023
,
0230
0000
0000
0000
0320
0000
0000
0000
2131
0000
0000
3000
2101
0000
0000
0000
3000
0000
0000
0000
0000
0000
0000
0000
0000
0000
0000
0000
0000
0000
0000
0000
;

//---------------dance-double - ----------------
#NOTES:
     dance-double:
     :
     Challenge:
     1:
     0.000,0.000,0.000,0.000,0.000,0.000,0.000,0.000,0.000,0.000:
00000000
00000000
00000000
00000000
;
