#TITLE:EXD;
#SUBTITLE:;
#ARTIST:tio;
#TITLETRANSLIT:;
#SUBTITLETRANSLIT:;
#ARTISTTRANSLIT:;
#CREDIT:;
#BANNER:EXD-bn.png;
#BACKGROUND:EXD-bg.png;
#LYRICSPATH:;
#CDTITLE:!Dan23!.png;
#MUSIC:EXD.mp3;
#OFFSET:-0.780;
#SAMPLESTART:26.400;
#SAMPLELENGTH:12.000;
#SELECTABLE:YES;
#BPMS:0.000=160.000;
#STOPS:;
#BGCHANGES:;
// cache tags:
#FIRSTBEAT:16.000;
#LASTBEAT:294.000;
#SONGFILENAME:Songs/Fresh Flock of Fantastic Files F4/(Dan23) EXD/EXD.sm;
#HASMUSIC:1;
#HASBANNER:1;
#MUSICLENGTH:119.719;
// end cache tags

//---------------dance-single - ----------------
#NOTES:
     dance-single:
     :
     Hard:
     11:
     1.000,1.000,1.000,0.217,0.848,646.000,179.000,26.000,0.000,0.000:
0000
0000
0000
0000
,
0000
0000
0000
0000
,
0000
0000
0000
0000
,
0000
0000
0000
0000
,
1001
0000
0001
0000
1100
0000
0001
0100
0000
0100
0010
1000
0001
0000
1000
0000
,
0101
0000
1000
0000
1001
0000
0010
0100
0000
0100
0010
1000
0001
0000
0110
0000
,
1100
0000
0001
0000
0101
0000
1000
0000
1100
0000
0001
1100
0000
1000
0101
0000
,
2002
0000
0000
0000
0000
0000
0000
3003
,
0110
0000
0000
0000
0000
0000
0000
0010
,
1001
0100
0010
1000
0100
1000
0100
0010
0001
0010
0100
1000
0010
0100
0001
0010
,
0100
1000
0100
0010
0100
1000
0001
0010
0001
0100
0001
1000
0010
0100
0001
0010
,
0100
1000
0010
0100
0001
1000
0100
1000
0001
0010
0100
1000
0100
1000
0001
1000
,
0001
0100
0001
0010
0100
1000
0010
0100
0001
1000
0100
1000
0001
1000
0101
0000
,
1100
0010
0100
0001
0010
0100
0010
0001
0100
0010
1000
0100
1000
0001
0010
0100
,
1000
0001
1000
0010
1000
0010
0100
0001
0010
0100
1000
0100
1000
0100
0010
0001
,
0010
0001
0100
0010
1000
0001
0010
0100
1000
0001
1000
0010
0100
0001
0010
0100
,
1001
0000
0000
0000
1100
0000
0000
0000
1000
0100
1000
0100
0010
0001
0010
0100
,
1001
0001
1000
0101
1000
0001
1100
1100
,
0001
0000
1001
0000
0010
0000
0100
0010
0100
0000
0000
1010
0000
0000
0101
0000
,
1001
0001
1000
0110
0110
1000
0101
0101
,
1000
0000
1001
0000
0100
0000
0001
1000
0001
0000
1000
0000
1100
0000
0001
0000
,
1001
0001
0010
1100
0010
0100
1001
1001
,
0010
0000
1100
0000
1000
0000
0001
0010
0001
0000
0000
1010
0000
0000
0101
0000
,
1001
0000
0010
0100
0000
0100
0010
0000
1100
0000
0001
0100
0000
0100
0001
0000
,
2002
0000
0000
0000
3003
0000
0001
0100
0001
0000
0000
1010
0000
0000
0011
0000
,
1001
0000
0100
0000
1001
0000
0010
0000
1000
0001
0000
1100
0000
0001
0100
0010
,
1000
0000
0001
0000
1001
0000
1000
0000
0001
1000
0000
1001
0000
0100
0010
1000
,
0001
0000
1000
0000
1100
0000
0001
0000
0100
0010
0000
1100
0000
0001
0010
0100
,
1000
0000
0001
0000
1001
0000
0100
0000
0010
1000
0000
0202
0000
0303
0110
0000
,
1001
0000
0010
0000
0110
0000
1000
0000
0001
0100
0000
1010
0000
0001
0100
0010
,
1000
0000
0001
0000
1100
0000
0001
0000
1000
0001
0000
1001
0000
0010
0100
0001
,
1000
0000
0001
0000
1001
0000
1000
0000
0100
0010
0000
1100
0000
0001
0010
0100
,
1000
0000
0001
0000
0101
0000
1000
0000
1000
0001
0000
2200
0000
3300
1001
0000
,
1001
0000
0100
0010
1000
0000
1000
0000
0001
0100
0000
1010
0000
0001
1000
0001
,
1000
0000
0010
0100
0001
0000
1000
0000
0001
1000
0000
0101
0000
1000
0100
0010
,
0001
0000
1000
0001
1000
0000
0010
0000
0100
0001
0000
1001
0000
0100
0010
1000
,
0001
0000
0010
0100
1000
0000
0001
0000
1000
0100
0000
0022
0000
0033
1100
0000
,
1100
0000
0001
0100
0001
0000
1000
0000
1000
0001
0000
0110
0000
0001
0100
0010
,
0100
0000
0001
1000
0100
0000
0010
0000
0001
1000
0000
0011
0000
0100
0010
0100
,
0010
0000
1000
0001
1000
0000
0100
0000
0010
1000
0000
0101
0000
1000
0010
0100
,
0001
0000
1000
0000
1100
0000
0001
0000
1000
0100
1000
0100
0010
0001
0010
0001
,
1100
0000
0000
1100
0000
0000
2200
0000
0000
0000
0000
3300
1001
0000
0000
0000
,
1100
0000
0000
0010
0100
0000
0001
0000
1001
0000
0100
0010
0100
0000
1000
0000
,
0101
0000
0000
0101
0000
0000
0202
0000
0000
0000
0000
0303
1001
0000
0000
0000
,
0101
0000
0000
1000
0001
0000
0100
0000
0101
0000
1000
0001
1000
0000
0110
0000
,
1001
0000
0000
1001
0000
0000
2002
0000
0000
0000
0000
3003
0110
0000
0000
0000
,
1010
0000
0000
0001
0100
0000
0010
0000
1100
0000
0001
0010
0001
0000
1000
0000
,
0110
0000
0000
0110
0000
0000
0220
0000
0000
0000
0000
0330
1001
0000
0110
0000
,
1010
0000
0000
0000
0000
0000
0000
0000
0000
0101
0000
0000
0000
0000
0000
0000
0000
0000
1001
0000
0000
0000
0000
0000
1000
0000
0000
0100
0000
0000
1000
0000
0000
0001
0000
0000
0100
0000
0010
0000
1000
0000
0001
0000
0010
0000
0100
0000
,
1001
0001
1100
0001
0101
1000
1010
0001
,
0011
1000
0101
0010
0110
1000
1100
0001
,
0011
1000
1010
0001
1001
0010
0110
0001
,
1100
0001
0011
1000
0110
0100
1001
1001
,
1001
0100
0110
0001
1100
0001
0011
0100
,
0110
1000
1001
0010
0110
0001
1100
0001
,
1001
1000
0110
0001
0011
0100
0110
1000
,
1100
0000
0000
0000
0101
0000
0000
0000
1000
0100
0010
0001
0100
0010
1000
0001
,
1001
0001
1000
0101
1000
0001
1100
1100
,
0001
0000
1001
0000
0010
0000
0100
0010
0100
0000
0000
1010
0000
0000
0101
0000
,
1001
0001
1000
0101
0101
1000
0011
0011
,
1000
0000
1001
0000
0100
0000
0001
1000
0001
0000
1000
0000
1100
0000
0001
0000
,
1001
0001
0010
1100
0010
0100
1001
1001
,
0010
0000
1100
0000
1000
0000
0001
0010
0001
0000
0000
1010
0000
0000
0101
0000
,
1001
0000
0010
0100
0000
0100
0010
0000
1100
0000
0001
1000
0000
1000
0001
0000
,
0220
0000
0000
0000
0000
0330
1000
0001
1000
0000
0000
1100
0000
0000
0101
0000
,
1001
0000
0100
0000
1001
0000
0010
0000
1000
0001
0000
1100
0000
0001
0100
0010
,
1000
0000
0001
0000
1001
0000
1000
0000
0001
1000
0000
1001
0000
0100
0010
1000
,
0001
0000
1000
0000
1100
0000
0001
0000
0100
0010
0000
1100
0000
0001
0010
0100
,
1000
0000
0001
0000
1001
0000
0100
0000
0010
1000
0000
0202
0000
0303
0110
0000
,
1001
0000
0010
0000
0110
0000
1000
0000
0001
0100
0000
1010
0000
0001
0100
0010
,
1000
0000
0001
0000
1100
0000
0001
0000
1000
0001
0000
1001
0000
0010
0100
0001
,
1000
0000
0001
0000
1001
0000
1000
0000
0100
0010
0000
1100
0000
0001
0010
0100
,
1000
0000
0001
0000
0101
0000
1000
0000
0100
0010
0000
2002
0000
3003
0110
0000
,
0220
0000
0330
0000
;
