#TITLE:Boss Fight;
#SUBTITLE:Super Mario RPG;
#ARTIST:Nintendo;
#TITLETRANSLIT:;
#SUBTITLETRANSLIT:;
#ARTISTTRANSLIT:;
#CREDIT:;
#BANNER:bossrpgbn.png;
#BACKGROUND:bossrpgbg.png;
#LYRICSPATH:;
#CDTITLE:logo.png;
#MUSIC:Boss.mp3;
#OFFSET:-3.345;
#SAMPLESTART:9.285;
#SAMPLELENGTH:12.000;
#SELECTABLE:YES;
#BPMS:0.000=120.500;
#STOPS:;
#BGCHANGES:;
// cache tags:
#FIRSTBEAT:0.000;
#LASTBEAT:133.333;
#SONGFILENAME:Songs/toune 2/boss machine/Boss.sm;
#HASMUSIC:1;
#HASBANNER:1;
#MUSICLENGTH:70.426;
// end cache tags

//---------------dance-single - ----------------
#NOTES:
     dance-single:
     :
     Medium:
     10:
     0.675,0.615,0.227,0.540,1.000,279.000,16.000,38.000,0.000,1.000:
0100
0000
1000
0000
0100
0000
1000
0100
0000
1000
0000
0001
1000
0000
0100
1000
0000
0000
0001
0000
1000
0000
0100
0000
,
2000
0000
0000
0100
0001
0000
0100
0000
0001
0000
0100
0000
0001
0000
0100
0001
0000
0100
0000
0000
0010
0000
0100
0010
,
0000
0100
0001
0000
0000
0010
0000
0001
0000
0010
0001
0000
0010
0000
0100
0001
0000
0100
0001
3000
1000
0001
0000
0000
,
1000
0000
0000
0000
0100
0000
1000
0001
0000
0000
0000
1000
0000
0000
1000
0000
0100
0000
1000
0000
0000
0001
0000
0000
,
1000
0000
0000
1000
0000
0000
1100
0000
0000
0000
0100
0000
0000
0100
0000
0000
0010
0000
0001
0000
0000
0010
0000
0000
,
0220
0000
0000
0000
0000
0330
0100
1000
0000
0100
0000
0000
1000
0000
0100
0000
0000
1000
0001
0000
1000
0001
0000
1000
,
0001
0000
0000
1000
0000
0000
1000
0100
0000
0000
1000
0000
0000
0000
0100
0000
1000
0000
0100
0000
1000
0000
0000
0000
,
2200
0000
0000
0000
0000
0300
3001
0010
0000
0000
2200
0000
0000
0000
0000
0000
0000
0000
0000
0000
0000
0000
3300
0000
,
0001
0000
0000
0001
0000
0000
0010
0001
0000
0000
0010
0000
0000
2200
0000
0000
0000
0000
0000
0000
0000
0000
0000
3300
,
0001
0000
0000
0000
0001
0000
0010
0001
0000
0000
0000
0010
0000
0010
0000
0001
0000
0000
0010
0000
0000
0001
0000
0000
,
2200
0000
0000
0000
0000
0000
0000
0000
0000
0000
0000
0000
0000
0000
0000
0000
0000
0000
0000
3300
0000
0011
0000
0000
,
0000
1000
0000
0000
0000
0100
1000
0100
0000
0000
0000
1000
0000
0000
1000
0000
0100
1000
0000
0000
0100
0000
0000
0000
,
0010
0000
0000
0000
0010
0000
0001
0010
0000
0000
0000
0010
0000
0010
0000
0000
0100
0010
0000
0100
0000
0000
0000
1000
,
0000
0000
0000
1000
0000
0100
0000
1000
0000
0000
0000
0100
0000
0000
0100
0000
1000
0000
0100
0000
2000
0000
0000
0000
,
0000
3100
0000
0000
0000
0010
0100
0000
0010
0000
0000
0100
0000
0000
0100
0000
0010
0000
0001
0020
0000
0000
0000
0000
,
0030
0100
0000
0000
0100
0000
1000
0000
0100
0000
0000
1000
0000
1000
0000
0000
1000
0000
0100
0020
0000
0000
0000
0000
,
0000
0130
0000
0000
0100
0000
0000
2000
0000
0000
0000
0000
0000
3001
1000
0000
0000
2200
0000
0000
0000
0000
0000
0000
,
0300
3000
0100
0000
0000
1000
0100
0000
0000
0000
1000
0000
0000
0000
1000
0000
0100
1000
0000
0000
0000
0100
0000
0000
,
0010
0000
0000
0010
0000
0000
0000
0010
0001
0000
0000
0010
0000
0000
0010
0000
0000
0001
0010
0000
0000
0100
0000
0000
,
0220
0000
0000
0000
0000
0330
0100
1000
0000
0000
0000
0100
0000
0000
1000
0000
0000
0100
1000
0000
0100
1000
0100
0000
,
1000
0000
0000
0100
0000
1000
0100
0000
0000
1000
0000
1000
0000
0100
0000
0000
0010
0100
0000
0000
0000
0010
0000
0000
,
0022
0000
0000
0000
0000
0033
0100
1000
0000
0000
0202
0000
0000
0000
0000
0000
0000
0000
0000
0000
0000
0000
0300
0003
,
1000
0000
0000
1000
0000
1000
0000
0100
0000
0000
1000
0000
0000
2100
0000
0000
0000
0000
0000
0000
0000
0000
0000
3000
,
0100
0000
0000
0000
0100
0000
0010
0000
0100
0000
0000
0010
0000
0000
0010
0100
0000
0000
1000
0000
0000
0001
0000
0000
,
2002
0000
0000
0000
0000
0000
0000
0000
0000
0000
0000
0000
0000
0000
0000
0000
0000
0000
0000
3003
0202
0000
0000
0000
,
0300
0103
0000
0000
0000
0000
1100
0000
1000
0000
0000
0100
0000
0000
0100
0000
0010
0000
0100
0000
0020
0000
0000
0000
,
0000
0130
0000
0000
0000
0100
0000
0010
0001
0000
0000
0010
0000
0000
0010
0000
0000
0001
0000
1000
0200
0000
0000
0000
,
0000
1300
0000
0000
0000
1000
0100
0000
0010
0000
0000
0010
0000
0000
0010
0000
0001
0000
0010
0200
0000
0000
0000
0000
,
1000
0300
0000
0000
0001
0000
1000
0000
0001
0000
0000
0010
0000
0000
0010
0000
0000
0010
0000
0100
0000
2000
0000
0000
,
0000
0000
3100
0000
0000
0100
0000
0010
0000
0001
0000
0000
0010
0000
0010
0000
0000
0100
0000
0010
0002
0000
0000
0000
,
0000
1000
0003
0000
1000
0000
0000
0200
0000
0000
0000
0000
0000
1300
0001
0000
0000
2200
0000
0000
0000
0000
0000
0300
,
3000
0001
0000
0000
0001
0000
0100
0000
0010
0000
0000
0010
0000
0000
0010
0000
0001
0000
0100
0000
0000
0001
0000
0000
,
0100
0000
0000
0000
0100
0001
0000
0100
0000
0000
1000
0000
0000
0000
1000
0000
0100
0000
0010
0000
0001
0000
0000
2000
,
0200
0000
0000
0000
0000
3301
0000
0100
0001
0000
0000
0000
0000
0000
0000
0000
0000
0000
0000
0000
0000
0000
0000
0000
;
