#TITLE:Invoke;
#SUBTITLE:Gundam Seed;
#ARTIST:TM Revolution;
#TITLETRANSLIT:;
#SUBTITLETRANSLIT:;
#ARTISTTRANSLIT:;
#CREDIT:;
#BANNER:Seed - bn.jpg;
#BACKGROUND:BBground.jpg;
#LYRICSPATH:;
#CDTITLE:CDTitle.png;
#MUSIC:Invoke - TM Revolution.mp3;
#OFFSET:0.382;
#SAMPLESTART:25.000;
#SAMPLELENGTH:18.000;
#SELECTABLE:YES;
#BPMS:0.000=151.780,89.000=303.560,91.000=151.780,92.000=303.559,94.000=151.780,95.000=303.560,97.000=151.780,98.000=303.560,100.000=151.780,100.500=303.559,101.500=151.780,102.500=75.890,103.000=164.200,103.750=151.760,117.000=75.890,118.000=303.559,120.000=152.000;
#STOPS:;
#BGCHANGES:1.000=Gundam Seed.avi=1.000=1=0=0,
243.000=BBground.jpg=1.000=1=0=0,
99999=-nosongbg-=1.000=0=0=0 // don't automatically add -songbackground-
;
// cache tags:
#FIRSTBEAT:6.250;
#LASTBEAT:244.000;
#SONGFILENAME:Songs/toune/Gundam Seed - Invoke/Invoke.sm;
#HASMUSIC:1;
#HASBANNER:1;
#MUSICLENGTH:96.052;
// end cache tags

//---------------dance-single - ----------------
#NOTES:
     dance-single:
     :
     Challenge:
     11:
     0.753,0.953,0.531,0.614,0.635,396.000,51.000,59.000,105.000,0.000:
0000
0000
0000
0000
,
0000
0000
0000
0000
0000
0000
0000
0000
0000
2000
0000
0000
0000
0000
0000
0000
,
0000
0000
0000
3002
0000
0000
0000
0000
,
0000
0000
0203
0000
0000
0000
0000
0000
0000
0000
0000
0000
0000
0000
0000
0320
,
0000
0000
0000
0000
0000
0000
0000
0000
0000
0000
0000
2030
0000
0000
0000
0000
,
0000
0000
0000
0000
0000
0000
0000
3002
0000
0000
0000
0000
0000
0000
0000
0000
,
0000
0203
0000
0300
,
2002
0000
0000
0000
,
0000
0000
0000
3003
,
1000
0100
1000
0000
0001
0100
0001
0000
2100
0000
0000
0000
3001
0000
0000
0000
,
0100
0001
0100
0000
0001
1000
0001
0000
2100
0000
0000
3000
0010
0000
0000
0000
,
1000
0010
1000
0000
0010
0100
0010
0000
0100
0001
0100
0000
0001
1000
0001
0000
,
2000
3000
0000
0000
2200
3300
0000
0000
0020
0030
0000
0000
0202
0303
0000
0000
2002
3003
0000
0000
0200
0300
0000
0000
,
1000
0100
1000
0000
0001
0000
0010
0000
0000
0000
0010
0000
0001
0000
1000
0000
,
0100
0000
1000
0000
0001
0000
0100
0000
0001
0000
0010
1000
0010
0000
0001
0010
,
0001
0000
1000
0001
1000
0000
0010
0000
0000
0000
0101
0000
0000
0000
0001
0000
,
0100
1000
0100
0010
0000
0010
1000
0100
,
0010
0001
0010
0000
0001
0000
0011
0000
0000
0000
1100
0000
0000
0000
1000
0000
,
0000
1010
0000
0001
0100
0000
0101
0000
,
1000
0100
2000
0010
0000
3002
0000
2000
,
3003
0000
0000
0000
0001
0000
0100
0000
0001
1000
0001
0000
1000
0000
0100
0000
,
2000
0000
3100
0020
0000
0000
0031
0000
,
M0M1
M1M0
M0M1
00M0
10M0
00M0
01MM
00MM
10MM
000M
MM0M
MM0M
0M1M
1M0M
001M
M000
,
M100
M000
M0M1
M0M0
M1M0
M0M0
000M
0M0M
001M
100M
010M
00M0
10M0
0MM0
00M1
00M0
,
M1M0
M0MM
M0M0
MM00
M001
M010
M100
M00M
M010
0000
0M01
0M00
1MM0
0MMM
0MM0
0000
,
M001
0100
0010
000M
1M00
0MM0
0MM1
0000
10M0
00MM
01M0
00M0
10M1
0000
0000
0100
,
0001
0000
0100
0000
0002
0000
1003
0000
0000
0000
2200
3300
0000
0000
0022
0030
,
0000
2003
0000
3010
0100
0000
0110
0000
,
1000
0000
0001
1100
0000
1100
0000
0100
,
MM10
0000
MM01
0000
0M10
0000
0000
0000
00M1
1000
0001
0000
M100
0000
M010
0000
M10M
0000
M00M
0000
M0M0
0000
M0M0
0000
M1M1
0000
0000
0000
0000
0000
0000
0000
,
0001
1000
0001
0000
0100
0000
0010
0000
0100
0000
0001
0010
0000
0100
0000
1000
,
0001
0000
1000
0000
0010
0000
0100
0001
0100
0000
0001
1000
0000
0000
0000
0100
,
1000
0000
0100
0000
0010
0000
0000
0000
0022
0033
0000
0000
2200
3300
0000
0000
,
2002
3003
0000
0000
2000
3000
0000
0000
2200
3300
0000
0000
0002
0003
0000
0000
0002
0003
0000
0000
0202
0303
0000
0000
,
0001
0000
0000
0101
0000
0000
1000
0000
2200
3300
0000
0000
0022
0033
0000
0000
,
0010
0000
0100
1000
0001
0000
0000
0000
2001
0000
0000
0000
3000
0000
0001
0000
,
0102
0000
0000
0000
0000
0000
1003
0100
1000
0000
0000
0000
1100
0000
0000
0000
,
0101
0000
0000
1001
0000
0000
1000
0000
1200
0000
0000
0000
0000
0000
1300
0000
,
0001
0000
0000
0101
0000
0000
0010
0000
1000
0000
0000
0000
1020
0000
0000
0000
,
1030
0000
0000
1100
0000
0000
0001
0000
0102
0000
0000
0000
0000
0000
1003
0000
,
0100
0000
1000
0201
0000
0301
0000
1001
,
0000
0000
0001
0100
0001
0000
1000
0100
1000
0000
0001
0000
0101
0000
0001
0000
,
1000
0001
1000
0100
0010
0000
0011
0000
,
0001
0000
0010
0000
0100
0010
0100
0000
0110
0000
0000
0000
1001
0000
0000
0000
,
1000
0100
1000
0001
0100
0010
1000
0100
0010
0000
0001
0100
0010
0000
1000
0001
,
0100
0001
1000
0100
1000
0000
0000
0000
2200
0000
3300
0000
0000
0000
0001
1000
,
0200
0000
0000
0000
0300
0000
1000
0001
0100
0000
0000
0000
0101
0000
0000
0000
,
0001
0100
0010
1000
0100
0010
0001
0000
1000
0000
0000
0000
0100
0000
0001
0000
,
1001
0000
1000
0000
0100
0010
0001
1000
0010
0100
0001
1000
0100
0000
0010
0000
,
1001
0000
0000
0011
0000
0000
0010
0000
1010
0000
0000
0000
0100
1000
0100
1000
,
0001
0100
0001
0100
0010
0100
0001
1100
,
1000
0100
1000
0000
0001
0100
0010
0000
1000
0010
1000
0000
0001
0100
0001
0000
,
1000
0000
0100
0010
0001
0000
1000
0000
1001
0000
0001
0000
0100
0000
0001
0000
,
1000
0000
0100
0000
0010
0000
0001
1000
0100
0010
0001
1000
0100
0010
0001
1000
,
0100
1000
0100
0000
0010
0001
1000
0000
0010
0100
0001
0000
0010
0100
1000
0000
,
0010
0100
0001
0000
1000
0100
1000
0000
0001
0100
0001
0000
0010
0001
0010
0000
,
0001
0100
0001
0000
1000
0100
1000
0000
0010
1000
0010
0000
0100
0001
0100
0000
,
0001
1000
0100
0000
1000
0001
0100
0000
0001
1000
0100
0000
0010
0001
1000
0000
,
2002
0000
0000
0000
,
0000
0000
0000
0000
,
0000
0000
0000
0000
,
3003
0000
0000
0000
;

//---------------dance-double - ----------------
#NOTES:
     dance-double:
     :
     Challenge:
     13:
     0.977,1.000,0.479,0.198,1.000,592.000,46.000,19.000,0.000,0.000:
00000000
00000000
00000000
00000000
,
00000000
00000000
00000000
00000000
00000000
00020000
00000000
00000000
,
00000000
00000000
00000000
00002000
00000000
00000000
00000000
00030000
,
00000000
00020000
00000000
00000000
00000000
00033000
00000000
00022000
,
00000000
00000000
00000000
00000000
00000000
00000000
00000000
00033000
00000000
00000000
00000000
00020000
00000000
00000000
00000000
00000000
,
00000000
00000000
00000000
00000000
00000000
00000000
00000000
00002000
00000000
00000000
00000000
00000000
00000000
00000000
00000000
00000000
,
00030000
00020000
00000000
00033000
,
00022000
00000000
00000000
00000000
,
00000000
00000000
00000000
00033000
,
00001000
00010000
00001000
00100000
00010000
01000000
00100000
10000000
01000000
00000000
10000000
00010000
10000000
00000000
01010000
00000000
,
00010000
01000000
00001000
00010000
00001000
00000100
00000010
00000001
00000010
00000000
00000001
00000010
00000001
00000000
00000011
00000000
,
00000001
00000010
00000100
00001000
00000100
00010000
00001000
00100000
00010000
00100000
00001000
00010000
00000100
00010000
00001000
00000000
,
00011000
00000000
00110000
00000000
00011000
00000000
00001010
00000000
00011000
00000000
00110000
00000000
,
00001000
01000000
00010000
01000000
00010000
01000000
00010000
10000000
01000000
00100000
00010000
10000000
00100000
01000000
00010000
00100000
,
00001000
00010000
00001000
00010000
00001000
00010000
00000100
00000010
00000001
00001000
00000010
00000100
00000010
00001000
00000001
00001000
,
00000100
00010000
00000100
00010000
00000100
00010000
00001000
00100000
00001000
00100000
00010000
01000000
00010000
01000000
00100000
10000000
,
01000000
00100000
00010000
10000000
00100000
01000000
00010000
01000000
00010000
01000000
00010000
01000000
00001000
00010000
00000100
00001000
,
00000010
00000100
00000001
00000010
00000100
00001000
00000100
00010000
00001000
00100000
00010000
00100000
00010000
00100000
00001000
00010000
,
00000100
00010000
00000100
00010000
00001000
00010000
00000100
00001000
00000010
00000100
00000001
00000010
00000100
00001000
00000100
00010000
,
00002000
00000000
00000000
00000000
00000000
00000000
00000000
00000000
00023000
00000000
00000000
00000000
00000000
00000000
00000000
00030000
,
00002000
00003000
00011000
00011000
,
00022000
00000000
00000000
00033000
,
00010000
00001000
00010000
00001000
00010000
00000000
00000100
00000000
00010000
00000000
00000100
00000000
00001000
00000010
00001000
00000010
,
00000100
00000000
00000001
00000000
00000100
00000000
00000001
00000000
00000010
00000100
00000010
00000100
00001000
00000000
00000100
00000000
,
00001000
00000000
00000100
00000000
00010000
00001000
00100000
00010000
01000000
00000000
00100000
00000000
01000000
00000000
00010000
00000000
,
10000000
00000000
01000000
00000000
00100000
00000000
00000000
00000000
00010000
00000000
00000000
00000000
10000000
00000000
00100000
00000000
01000000
00000000
00010000
00000000
10000000
01000000
00100000
00010000
10010000
00000000
00000000
00000000
00000000
00000000
00000000
00000000
,
10000000
01000000
10000000
00100000
01000000
00010000
00100000
00001000
00010000
00000100
00001000
00000010
00000100
00000001
00000010
00000001
,
00000100
00000010
00001000
00000100
00010000
00001000
00100000
00010000
01000000
00100000
10000000
01000000
10000000
01000000
10000000
01000000
,
10000000
00000000
00010000
00100000
00000000
00110000
00000000
10000000
,
01000000
00000000
11000000
11000000
10000000
01000000
10000000
00000000
,
11000000
00000000
00010000
00000000
10000000
01000000
00100000
00010000
00001000
00000100
00000010
00000001
00001000
00000000
00001001
00000000
,
00000001
00000100
00000010
00001000
00010000
01000000
00100000
10000000
00010000
01000000
00100000
10000000
00000000
00000000
01000000
00000000
,
10000000
01010000
00011000
00001100
,
00011000
00000000
01010000
00000000
00011000
00000000
00001100
00000000
00011000
00000000
00100000
00000000
,
00011000
00000000
00001000
00010000
01000000
00001000
00010000
01000000
00010000
00001000
00000100
00010000
00001000
00000100
00010000
00000000
,
00011000
00000000
00000000
00000000
00110000
00000000
00000000
00000000
11000000
00000000
10000000
01000000
00100000
01000000
10000000
00010000
,
01000000
00100000
10000000
00010000
00100000
01000000
10000000
01000000
10000000
01000000
00100000
00010000
00100000
01000000
10000000
01000000
,
11000000
00000000
00000000
00110000
00000000
00000000
00011000
00000000
00001100
00000000
00000000
00000000
00001000
00000100
00001000
00000001
,
00000100
00000010
00000100
00000001
00000010
00000100
00001000
00000100
00000010
00000001
00001000
00000010
00000100
00000001
00000100
00000010
,
00001000
00000000
00000000
00001100
00000000
00000000
00011000
00000000
00110000
00000000
00000000
00000000
10000000
01000000
00100000
00010000
,
00100000
01000000
10000000
00010000
01000000
00100000
10000000
00100000
01000000
00010000
10000000
01000000
00100000
00010000
10000000
00010000
,
10000000
01000000
10000000
01000000
10000000
01000000
10000000
01000000
00100000
00010000
00001000
00000010
00000001
00000100
00000001
00000100
,
00000001
00000000
00000000
00000100
00000100
00000000
00001010
00000000
,
00010000
00002000
00020000
00000000
00033000
00000000
00110000
00000000
,
10000000
01000000
10000000
01000000
10000000
00010000
00100000
01000000
10000000
01000000
10000000
01000000
10000000
00010000
00100000
01000000
,
10000000
00010000
00100000
01000000
10000000
00010000
00100000
01000000
10000000
00000000
00000000
00000000
00000000
00000000
10000000
01000000
,
00100000
00010000
00100000
00010000
00001000
00000100
00001000
00000100
00000010
00000001
00001000
00000010
00000100
00000001
00001000
00000100
,
00001000
00000100
00000010
00000100
00001000
00000001
00001000
00000000
00001100
00000000
00000000
00000101
00000000
00000000
00000001
00000000
,
00001000
00000100
00001000
00000010
00010000
00001000
00010000
00001000
00100000
00010000
10000000
01000000
00100000
00010000
10000000
00000000
,
01100000
00000000
00000000
00011000
00000000
00000000
00000110
00000000
00001001
00000000
00000000
00000000
00000100
00000001
00001000
00000100
,
00000010
00000001
00000010
00000001
00000010
00000001
00000010
00000001
00000010
00000001
00000010
00000001
00000010
00000001
00000010
00000001
,
00000010
00000100
00001000
00000100
00000010
00000001
00000010
00000100
00001000
00000100
00000010
00000001
00000010
00000100
00001000
00000100
,
00010000
00001000
00100000
00010000
01000000
00100000
10000000
01000000
10000000
00100000
01000000
00010000
00100000
00001000
00010000
00000100
,
00001000
00000010
00000100
00000001
00000010
00000001
00000100
00000010
00001000
00000100
00010000
00001000
00010000
00001000
00010000
00001000
,
01000000
00001000
00100000
00000000
00000100
00010000
00000010
00000000
01000000
00001000
00100000
00000000
00000100
00010000
00000010
00000000
,
00010000
00001000
00100000
00010000
01000000
00100000
10000000
01000000
10000000
00100000
01000000
00010000
00100000
00001000
00010000
00000100
,
00001000
00000010
00000100
00000001
00000010
00000001
00000100
00000010
00001000
00000100
00010000
00001000
00100000
00010000
01000000
00100000
,
10000000
01000000
10000000
00100000
01000000
00010000
00100000
00001000
00010000
00000100
00001000
00000010
00000100
00000001
00000100
00002000
,
00020000
00000000
00000000
00000000
,
00000000
00000000
00000000
00000000
,
00000000
00000000
00000000
00033000
;
