#TITLE:Butterfly;
#SUBTITLE:(Delecation Mix);
#ARTIST:Smile.dk;
#TITLETRANSLIT:;
#SUBTITLETRANSLIT:;
#ARTISTTRANSLIT:;
#CREDIT:;
#BANNER:ButterflyDelecation-banner.png;
#BACKGROUND:ButterflyDelecation-bg.png;
#LYRICSPATH:;
#CDTITLE:cmgcdtitle.PNG;
#MUSIC:Butterfly (Delecation Mix).mp3;
#OFFSET:0.000;
#SAMPLESTART:45.380;
#SAMPLELENGTH:13.000;
#SELECTABLE:YES;
#BPMS:0.000=143.010;
#STOPS:;
#BGCHANGES:;
// cache tags:
#FIRSTBEAT:4.000;
#LASTBEAT:266.000;
#SONGFILENAME:Songs/juju step2/Butterfly (Delecation Mix)2/Butterfly (Delecation Mix).sm;
#HASMUSIC:1;
#HASBANNER:1;
#MUSICLENGTH:113.486;
// end cache tags

//---------------dance-single - ----------------
#NOTES:
     dance-single:
     :
     Beginner:
     3:
     0.224,0.352,0.308,0.211,0.000,119.000,35.000,24.000,0.000,0.000:
0000
0000
0000
0000
,
1000
0000
1000
0000
,
1000
0000
1001
0000
,
0001
0000
0001
0000
,
0001
0000
1001
0000
,
0100
0000
0100
0000
,
0100
0000
0110
0000
,
0010
0000
0010
0000
,
0010
0000
0110
0000
,
1000
0000
0000
0000
,
0001
0000
0000
0000
,
0100
0000
0000
0000
,
0010
0000
0000
0000
,
0001
0000
0000
0000
,
1000
0000
0000
0000
,
0010
0000
0000
0000
,
0100
0000
0000
0000
,
1000
1000
1000
0000
,
1001
1001
1001
0000
,
0001
0001
0001
0000
,
1001
1001
1001
0000
,
0100
0100
0100
0000
,
0110
0110
0110
0000
,
0010
0010
0010
0000
,
0110
0110
0110
0000
,
2002
0000
0000
3003
,
0110
0110
0220
0330
,
1000
0000
0100
0000
,
0010
0000
0001
0000
,
1000
0000
0010
0000
,
0100
0000
0001
0000
,
1000
0000
0100
0000
,
0001
0000
0010
0000
,
1000
0000
0010
0000
,
0001
0000
0100
0000
,
2000
0000
3000
0000
,
0002
0000
0003
0000
,
2002
0000
3003
0000
,
0000
0000
0000
0000
,
0200
0000
0300
0000
,
0020
0000
0030
0000
,
0220
0000
0330
0000
,
1001
1001
1001
0000
,
1000
0000
0001
0000
,
0001
0000
1000
0000
,
1001
0000
1001
0000
,
2002
0000
3003
0000
,
0100
0000
0010
0000
,
0010
0000
0100
0000
,
0110
0000
0110
0000
,
0220
0000
0330
0000
,
0001
0000
0010
0000
,
0100
0000
1000
0000
,
0001
0000
0100
0000
,
0010
0000
1000
0000
,
0001
0000
0010
0000
,
1000
0000
0100
0000
,
0001
0000
0100
0000
,
1000
0000
0010
0000
,
0001
0000
1000
0000
,
2002
0000
3003
0000
,
0010
0000
0100
0000
,
0220
0000
0330
0000
,
1000
0000
0001
0000
,
2002
0000
3003
0000
,
0010
0000
0100
0000
,
0220
0000
0330
0000
;

//---------------dance-single - ----------------
#NOTES:
     dance-single:
     :
     Easy:
     4:
     0.433,0.498,0.573,0.511,0.000,221.000,65.000,58.000,0.000,0.000:
0000
0000
0000
0000
,
0000
2000
3000
0002
,
0003
2000
0002
3000
,
0003
0200
0300
0020
,
0030
0200
0020
0300
,
0030
0002
0003
2000
,
3000
0002
2000
0003
,
3000
0020
0030
0200
,
0300
0020
0200
0030
,
0301
0001
0002
0000
,
1003
0001
1000
0001
,
1000
1000
2000
0000
,
3001
1000
0001
1000
,
0010
0010
0020
0000
,
0130
0010
0100
0010
,
0100
0100
0200
0000
,
0310
0100
0010
0100
,
1001
0000
1001
0000
1001
0000
0000
1000
,
0001
1000
0001
1000
0001
1000
0001
0000
,
0110
0000
0110
0000
0110
0000
0000
0100
,
0010
0100
0010
0100
0010
0100
0010
0000
,
1001
0000
1001
0000
0001
1000
0001
0000
,
0110
0000
0110
0000
0010
0100
0010
0000
,
0001
1000
0001
1000
0001
1000
0001
1000
,
0010
0100
0010
0100
0010
0100
0010
0100
,
0001
0001
1000
1000
0002
0000
2003
0000
,
0001
0001
3001
1001
,
1000
0001
2002
3003
,
0001
1000
2002
3003
,
1100
0000
0101
0000
,
1100
0101
1001
0000
,
0100
0010
0220
0330
,
0010
0100
0220
0330
,
1100
0000
1010
0000
,
1100
1010
0110
0000
,
0000
2002
0000
0000
0000
0000
3003
0000
,
0000
0220
0000
0000
0000
0000
0330
0000
,
0000
2002
0000
0000
0000
0000
3003
0000
,
0001
0010
0100
1000
,
0000
0220
0000
0000
0000
0000
0330
0000
,
0000
2002
0000
0000
0000
0000
3003
0000
,
0000
0220
0000
0000
0000
0000
0330
0000
,
1000
0100
0010
0001
,
2001
0010
3100
1100
,
1002
0100
0013
0011
,
1000
1100
0001
0011
,
1100
0000
0011
0000
0220
0300
0030
0000
,
0210
1000
0301
0101
,
0120
0001
1030
1010
,
0001
0101
1000
1010
,
0101
0000
1010
0000
0220
0030
0300
0000
,
0001
1000
2002
3003
,
1000
0001
2002
3003
,
0011
0000
1010
0000
,
0011
1010
1001
0000
,
0010
0100
0220
0330
,
0100
0010
0220
0330
,
0011
0000
0101
0000
,
0011
0101
0110
0000
,
1000
1000
0001
0001
,
1000
0001
1000
0001
,
0100
0100
0010
0010
,
0100
0010
0100
0110
,
0001
0001
1000
1000
,
0001
1000
0001
1000
,
0010
0010
0100
0100
,
0010
0100
0110
0000
;

//---------------dance-single - ----------------
#NOTES:
     dance-single:
     :
     Medium:
     6:
     0.506,0.645,0.326,0.617,0.000,295.000,37.000,70.000,8.000,0.000:
0000
0000
0000
0000
,
2000
0001
3002
1000
,
2003
3001
2002
3003
,
0200
0010
0320
0100
,
0230
0310
0220
0330
,
0002
1000
2003
0001
,
3002
1003
2002
3003
,
0020
0100
0230
0010
,
0320
0130
0220
0330
,
1000
0100
2200
3300
,
1000
0100
1000
0001
1000
0000
0000
0000
,
0001
0100
0202
0303
,
0001
0100
0001
1000
0001
0000
0000
0000
,
1000
0010
2020
3030
,
1000
0010
1000
0001
1000
0000
0000
0000
,
0001
0010
0022
0033
,
0001
0010
0001
1000
0001
0000
0000
0000
,
1100
0000
0101
0000
1001
0000
0000
1000
,
0100
1000
0001
0100
0001
1000
0001
0000
,
1010
0000
0011
0000
1001
0000
0000
0001
,
0010
0001
1000
0010
1000
0001
1000
0000
,
1100
0000
1010
0000
0100
1000
0010
0000
,
0101
0000
0011
0000
0100
0001
0010
0000
,
1000
0100
0010
0001
0001
0010
0100
1000
,
1000
0001
0100
0010
0010
0100
0001
1000
,
0010
0010
0100
0100
0220
0000
0330
0000
,
2200
3300
MM00
0000
0022
0033
00MM
0000
0202
0303
0M0M
0000
2020
3030
M0M0
0000
,
2000
0100
0010
3001
,
0200
1000
0001
0310
,
0002
0010
0100
1003
,
0020
0001
1000
0130
,
2000
0100
0001
3010
,
0200
1000
0010
0301
,
0020
0001
0100
1030
,
0002
0010
1000
0103
,
2000
0001
0010
3100
,
0020
0100
1000
0031
,
0200
0010
0001
1300
,
0002
1000
0100
0013
,
2000
0010
0001
3100
,
0020
1000
0100
0031
,
0200
0001
0010
1300
,
0002
0100
1000
0013
,
0100
0000
0001
0010
0100
0000
0011
0000
,
0100
0000
1000
0010
0100
0000
1010
0000
,
0001
0101
1000
1100
,
1000
0100
0010
0001
2002
0000
3003
0000
,
0001
0000
1000
0010
0100
0000
0011
0000
,
1000
0000
0010
0100
0001
0000
1010
0000
,
0001
0011
1000
1010
,
1000
0100
0010
0001
2002
0000
3003
0000
,
1200
0000
0001
0000
1300
0000
1000
0100
,
0010
0001
0010
0100
1000
0000
0000
0000
,
0201
0000
1000
0000
0301
0000
0001
0010
,
0100
1000
0100
0010
0001
0000
0000
0000
,
1020
0000
0001
0000
1030
0000
1000
0001
,
0100
0010
0100
0001
1000
0000
0000
0000
,
0021
0000
1000
0000
0031
0000
0001
1000
,
0010
0100
0010
1000
0001
0000
0000
0000
,
2000
3100
0002
0103
,
1000
0100
0001
0100
1000
0000
0000
0000
,
0002
0013
2000
3010
,
0001
0010
1000
0010
0001
0000
0000
0000
,
0200
1300
0020
1030
,
0100
1000
0010
1000
0100
0000
0000
0000
,
0020
0031
0200
0301
,
0010
0001
0100
0001
0010
0000
0000
0000
;

//---------------dance-single - ----------------
#NOTES:
     dance-single:
     :
     Hard:
     10:
     0.788,0.967,0.573,0.352,0.419,521.000,65.000,40.000,4.000,0.000:
0000
0000
0000
0000
,
1001
0000
1000
0100
1000
0000
0001
0100
0001
0000
1000
0010
1000
0000
0001
0010
,
0001
0000
1000
0001
1000
0000
0001
1000
0001
0010
0100
1000
0001
0000
0000
0000
,
0110
0000
0100
1000
0100
0000
0010
1000
0010
0000
0100
0001
0100
0000
0010
0001
,
0010
0000
0100
0010
0100
0000
0010
0100
0010
1000
0001
0200
0020
0000
0000
0000
,
0330
0000
1000
0100
0010
0000
0001
0010
0100
0000
1000
0010
0100
0000
0001
0100
,
0010
0000
1000
0001
0100
0000
0001
1000
0100
1000
0010
0100
0001
0000
0000
0000
,
0010
0000
0011
0000
0100
0000
0101
0000
1000
0010
0100
0002
2000
0000
3003
0000
,
1100
0010
1010
0100
0220
0000
0330
0000
,
1100
0000
0000
0000
0101
0000
0000
0000
1001
0000
0000
0001
1000
0000
0010
0000
,
0100
0001
0010
0000
0100
0000
1000
0000
0001
0000
0000
0000
1001
0000
0100
0000
,
0020
0000
0000
0000
0230
0000
0000
0000
0302
0000
0000
1003
0100
0000
1000
0000
,
0010
0100
0001
0000
0010
0000
0100
0000
1000
0000
0000
0000
1100
0000
0000
0000
,
0011
0000
0000
0000
0101
0000
0000
0000
1010
0000
0000
0100
0001
0000
0010
0000
,
0100
1000
0001
0000
0100
0000
0010
0000
0110
0000
0000
0000
1001
0000
0010
0000
,
0200
0000
0000
0000
0320
0000
0000
0000
2030
0000
0000
3001
0010
0000
0001
0000
,
0100
0010
1000
0000
0100
0000
0010
0000
0001
0000
0000
0000
0011
0000
0000
0000
,
1100
0000
0000
0000
1010
0000
0000
0000
0101
0000
0000
0010
1000
0000
0100
0000
,
1100
0000
0000
0000
0101
0000
0000
0000
1001
0000
0000
0100
0010
0000
1000
0000
,
1010
0000
0000
0000
0101
0000
0000
0000
0011
0000
0000
0100
1000
0000
0010
0000
,
1010
0000
0000
0000
0011
0000
0000
0000
0110
0000
0000
1000
0001
0000
0100
0000
,
0010
1000
0010
0001
0100
1000
0100
0001
,
1000
0010
1000
0100
0001
0010
0001
0100
,
0010
0010
1000
1000
0001
0001
0100
0100
,
0001
0001
0010
0010
0100
0100
1000
1000
,
0001
0100
0010
2000
0002
0000
3003
0000
,
2010
0000
00M0
3000
0102
0000
0M00
0003
1200
0000
M000
0300
0021
0000
000M
0030
,
1000
0100
0010
0100
1000
0000
0001
1000
,
0010
0100
0010
1000
0001
0000
0000
0000
,
1001
0000
0010
1000
0101
0000
0010
0001
,
1100
0000
0100
0000
1000
0000
0100
0000
0001
0000
1000
0001
1000
0000
1001
0000
,
0001
0010
0100
0010
0001
0000
1000
0001
,
0100
0010
0100
0001
1000
0000
0000
0000
,
0011
0000
0100
1000
1010
0000
0100
0001
,
0101
0100
0001
0100
1000
0000
0000
0000
,
1000
0100
0010
0001
1000
0100
0010
0100
1000
0001
0010
0100
1000
0010
0100
0001
,
1000
0010
1000
0010
1000
0010
0100
0010
0100
0010
0100
0010
1000
0010
0100
0001
,
0010
0001
0100
0001
0010
0001
1000
0010
1000
0100
1000
0010
0100
0001
0010
0100
,
1000
0001
0101
0000
0001
1000
1100
0000
,
0001
0010
0100
1000
0001
0010
0100
0010
0001
1000
0100
0010
0001
1000
0010
0100
,
0001
0010
0001
0010
0001
0010
0100
0010
0100
0010
0100
0010
0001
0100
0010
1000
,
0001
0100
0001
0010
0001
0100
0010
1000
0100
1000
0010
1000
0100
0010
0100
0001
,
1000
0100
0001
0010
1000
0000
0000
0000
,
2000
3100
0010
2000
3100
0010
2000
3001
,
0200
0310
1000
0200
0310
1000
0200
0310
,
2000
3001
0010
2000
3001
0010
2000
3100
,
0010
0001
0011
1000
1010
0100
0001
0010
,
0200
0301
1000
0200
0301
1000
0200
0310
,
0002
1003
0100
0002
1003
0100
0002
1003
,
0020
0130
0001
0020
0130
0001
0020
0130
,
0001
1000
1100
0001
0101
0010
1000
0100
,
0001
0100
1000
0100
0002
0000
0013
0001
,
0100
0001
0010
0001
0100
0000
0000
0000
,
1001
0000
0100
0010
1001
0000
0010
0100
,
0001
1000
0100
0010
0001
0000
0000
0000
,
1000
0100
0001
0100
2000
0000
3100
1000
,
0010
1000
0100
1000
0010
0000
0000
0000
,
0110
0000
1000
0001
0110
0000
0001
1000
,
0010
0100
0010
1000
0001
0000
0000
0000
,
1100
0000
0000
0000
0101
0000
0000
0000
1001
0000
0000
0100
0010
0000
1000
0000
,
0100
0010
0001
0000
1000
0000
0010
0000
0200
0000
0000
0000
0301
0000
0010
0000
,
0011
0000
0000
0000
1100
0000
0000
0000
0110
0000
0000
1000
0001
0000
0010
0000
,
0100
0001
0010
0000
0001
0000
0100
0000
0010
0000
0000
0000
0110
0000
0000
0000
,
0011
0000
0000
0000
1010
0000
0000
0000
1001
0000
0000
0010
0100
0000
0001
0000
,
1000
0100
0010
0000
0001
0000
0100
0000
2000
0000
0000
0000
3010
0000
0100
0000
,
1010
0000
0000
0000
1100
0000
0000
0000
0110
0000
0000
0001
1000
0000
0010
0000
,
0100
0001
0010
0000
0100
0000
1000
0000
1100
0000
0000
0000
0000
0000
0000
0000
;
