#TITLE:Manhattan Sports Club;
#SUBTITLE:;
#ARTIST:Simon;
#TITLETRANSLIT:;
#SUBTITLETRANSLIT:;
#ARTISTTRANSLIT:;
#CREDIT:;
#BANNER:mscbanner.png;
#BACKGROUND:mscBG.png;
#LYRICSPATH:;
#CDTITLE:sq3rtitle.png;
#MUSIC:simon - Manhattan Sports Club.mp3;
#OFFSET:-2.405;
#SAMPLESTART:43.146;
#SAMPLELENGTH:10.794;
#SELECTABLE:YES;
#BPMS:0.000=178.000;
#STOPS:;
#BGCHANGES:;
// cache tags:
#FIRSTBEAT:0.500;
#LASTBEAT:280.000;
#SONGFILENAME:Songs/IzzySM Keyboard Mega Pack/Manhattan Sports Club/manhattan.sm;
#HASMUSIC:1;
#HASBANNER:1;
#MUSICLENGTH:98.272;
// end cache tags

//---------------dance-single - ----------------
#NOTES:
     dance-single:
     :
     Hard:
     10:
     1.000,1.000,0.784,0.326,0.855,633.000,77.000,32.000,0.000,0.000:
0000
0000
0010
0000
1001
0000
0000
0000
1000
0100
0010
0001
0010
0000
0000
0000
,
0110
0000
0000
0000
1001
0000
0000
0000
0001
0010
0100
1000
0100
0000
0000
0000
,
0110
0000
0000
0000
1001
0000
0000
0000
1000
0100
1000
0010
1000
0000
0000
0000
,
0001
0010
0001
0100
0001
0000
1000
0000
0001
0000
1000
0000
0010
0000
0100
0010
,
0100
0000
0110
0000
1001
0000
0000
0000
0010
0001
1000
0100
0010
0000
0000
0000
,
0110
0000
0000
0000
1001
0000
0000
0000
0100
1000
0001
0010
0100
0000
0000
0000
,
0110
0000
0000
0000
1001
0000
0000
0000
0100
0001
0100
0010
0100
0000
0000
0000
,
0010
1000
0010
0100
0010
0000
0100
0000
0010
0000
0100
0000
0001
0000
1000
0001
,
1000
0000
1001
0000
0001
0010
0100
0010
0001
0010
0100
0010
0001
0010
0100
0010
,
0001
0010
0100
0010
0001
0010
0100
0010
0001
0010
0100
0010
0001
0010
0100
0010
,
0001
0010
0100
1000
0001
0010
0100
0010
0001
0010
0100
1000
0001
0010
0100
0010
,
0001
0010
0100
1000
0001
0010
0000
0000
0001
0010
0000
0000
0001
0010
0000
0000
,
0001
0010
0000
0000
1000
0100
1000
0100
1000
0100
1000
0100
1000
0100
1000
0100
,
0010
0000
0000
0001
0000
0000
0010
0000
0000
0100
0000
0000
1000
0000
0000
0000
0000
0000
0100
0000
0000
0000
0000
0000
0010
0000
0000
0000
0000
0000
0000
0000
0001
0000
0010
0000
0200
0000
0000
0000
0000
0000
0000
0000
0000
0000
0000
0000
,
0300
0000
0000
0000
1001
0000
0001
0010
0001
0000
0011
0000
0101
0000
0000
0000
,
0110
0000
0000
0000
0000
0000
1000
0100
1000
0000
1100
0000
1010
0000
0000
0000
,
0110
0000
0000
0000
0000
0000
1000
0100
0010
0000
0001
0000
0010
0000
0010
0000
,
1000
0000
1000
0000
0010
0000
0100
0000
0010
0000
0100
0000
0001
0000
0010
0100
,
1000
0000
0001
0000
0000
0000
1000
0001
0010
0000
0110
0000
1001
0000
0000
0000
,
1100
0000
0000
0000
0000
0000
0001
1000
0010
0000
0110
0000
1001
0000
0000
0000
,
0011
0000
0000
0000
0000
0000
0001
0010
0100
0000
1000
0000
1000
0000
0001
0000
,
0001
0000
1000
0000
0100
0000
0010
0000
0001
0000
0010
0000
0100
0000
1000
0001
,
1000
0000
0011
0000
1001
0000
0010
1000
0100
0000
0100
0000
0010
1000
0100
0000
,
0110
0000
0000
0000
0000
0000
0010
0100
0001
0000
0001
0000
0010
0100
0001
0000
,
1001
0000
0000
0000
0000
0000
1000
0100
0010
0000
0001
0000
0001
0000
0100
0000
,
0100
0000
0010
0000
1000
0000
0010
0000
1000
0000
0001
0000
0100
0000
0010
0100
,
0001
0000
1100
0000
0000
0000
0001
1000
0010
0000
0011
0000
0010
0001
0010
0000
,
1010
0000
0000
0000
0000
0000
1000
0100
0010
0000
0110
0000
0010
0100
1000
0000
,
0101
0000
0000
0000
0000
0000
0100
0010
0100
0000
0010
0000
0010
0000
1000
0000
,
1000
0000
0001
0000
0100
0000
0010
0000
1000
0000
0100
0000
0010
0000
0001
0010
,
0100
1000
2010
0000
0000
3010
0020
0000
,
0130
0000
0100
0000
0110
0000
0010
1000
0010
0000
2000
0000
3002
0000
0003
0000
,
0010
0010
0012
0000
0000
1003
2000
0000
,
3100
0000
0100
0000
0110
0000
0010
0001
0010
0000
0002
0000
2003
0000
3000
0000
,
1100
0110
2100
0000
0000
3001
0012
0000
,
1003
0000
1000
0000
1001
0000
1000
0010
1000
0000
0020
0000
0230
0000
0300
0000
,
0011
0110
0012
0000
0000
1003
2000
0000
,
3001
0001
0011
0011
0010
0010
0110
0110
,
0100
0100
1200
0000
0000
0310
0021
0000
,
0130
0000
0010
0000
0100
0000
1000
0010
0100
0000
0002
0000
0023
0000
0030
0000
,
0001
0010
1020
0000
0000
0130
0201
0000
,
0310
0000
0100
0000
0010
0000
1000
0001
0010
0000
0200
0000
2300
0000
3000
0000
,
0011
0110
2010
0000
0000
3001
1020
0000
,
1030
0000
1000
0000
0011
0000
1000
0100
1000
0000
2000
0000
3200
0000
0300
0000
,
0001
0010
0200
0000
0000
0320
0230
0000
,
0301
1000
1001
1001
0010
0010
0000
0000
,
0110
0000
0110
0000
0001
0000
1000
0000
0010
0000
0100
0000
0001
0010
0100
1000
,
0100
0000
0000
0010
0000
0000
0001
0000
0000
0010
0000
0000
0100
0000
0000
0000
0000
0000
1000
0000
0000
0000
0000
0000
1000
0000
0000
0000
0000
0000
0000
0000
1000
0000
0100
0000
0020
0000
0000
0000
0000
0000
0000
0000
0000
0000
0000
0000
,
0030
0000
0000
0000
1001
0000
0010
0001
1000
0000
0001
0000
0001
0000
0000
0000
,
1001
0000
0000
0000
0000
0000
0100
1000
0001
0000
1000
0000
1000
0000
0000
0000
,
1001
0000
0000
0000
0000
0000
0010
0001
0100
0000
0010
0000
1000
0000
0010
0000
,
0100
0000
0001
0000
0010
0000
0001
0000
0100
0000
0010
0000
1000
0000
0100
1000
,
0010
0000
0100
0000
0000
0000
0001
0010
0100
0000
1000
0000
1000
0100
0010
0000
,
0110
0000
0000
0000
0000
0000
1000
0100
0010
0000
0001
0000
0001
0010
0100
0000
,
0110
0000
0000
0000
0000
0000
0100
0010
0100
0000
0001
0000
0100
0000
0010
0000
,
0100
0000
1000
0000
0100
0000
0010
0000
0100
0000
0001
0000
0100
0000
0100
1000
,
0100
0000
0010
0000
1100
0000
1000
0100
1000
0000
0100
0000
1000
0100
1000
0000
,
1010
0000
1000
0000
1000
0100
1000
0000
1010
0000
1000
0000
1000
0100
1000
0000
,
0001
1000
0001
1000
0001
0000
0001
0010
0001
0000
0001
0000
0001
0010
0001
0000
,
0101
0000
0001
0000
0001
0010
0001
0000
0101
0000
0001
0000
0001
0010
0001
0000
,
0001
1000
0001
1000
0001
0000
0010
0100
0001
0100
0010
0100
0001
0010
0001
0000
,
1001
0000
1000
0000
0010
0100
0010
0000
1001
0000
0001
0000
0100
0010
0100
0000
,
0010
0100
0010
0100
0010
0000
1000
0100
0010
0100
0010
0100
1000
0001
0010
0000
,
0110
0000
0001
0000
1000
0100
0010
0001
1000
0100
0010
0001
1000
0010
1000
0100
,
0010
0001
0010
0100
1000
0010
1000
0001
1000
0010
1000
0001
1000
0010
1000
0001
,
1000
0010
1000
0001
1000
0010
1000
0001
1000
0010
1000
0001
1000
0100
1000
0010
,
0100
0001
0010
0001
1000
0100
1000
0010
0100
0001
0010
0001
1000
0100
1000
0010
,
0100
0001
0010
0001
1000
0010
0100
0000
1000
0010
0100
0000
1000
0010
0100
0000
,
1000
0010
0100
0000
0001
1000
0001
1000
0001
1000
0001
1000
0001
1000
0001
0010
,
0100
0000
0000
1000
0000
0000
0100
0000
0000
0010
0000
0000
0001
0000
0000
0000
0000
0000
0010
0000
0000
0000
0000
0000
0100
0000
0000
0000
0000
0000
0000
0000
1000
0000
0100
0000
0020
0000
0000
0000
0000
0000
0030
0000
0000
0000
0000
0000
,
0110
0000
0000
0000
;
