#TITLE:A Kidney Stone;
#SUBTITLE:;
#ARTIST:Draigun;
#TITLETRANSLIT:;
#SUBTITLETRANSLIT:;
#ARTISTTRANSLIT:;
#CREDIT:;
#BANNER:../fallback - bn.png;
#BACKGROUND:../fallback - bg.png;
#LYRICSPATH:;
#CDTITLE:;
#MUSIC:draigun - a kidney stone.ogg;
#OFFSET:-0.035;
#SAMPLESTART:18.400;
#SAMPLELENGTH:13.370;
#SELECTABLE:YES;
#BPMS:0.000=210.000,196.000=105.000,228.000=210.000;
#STOPS:;
#BGCHANGES:;
// cache tags:
#FIRSTBEAT:4.000;
#LASTBEAT:420.000;
#SONGFILENAME:Songs/Beast Aoreo BEAST!/A Kidney Stone - [Aoreo]/draigun - a kidney stone.sm;
#HASMUSIC:1;
#HASBANNER:1;
#MUSICLENGTH:132.593;
// end cache tags

//---------------dance-single - J. Nero----------------
#NOTES:
     dance-single:
     J. Nero:
     Challenge:
     15:
     1.000,1.000,0.747,0.000,1.000,966.000,99.000,0.000,40.000,56.000:
0000
0000
0000
0000
,
1001
0000
0000
0000
,
0000
0000
0000
0000
,
1001
0000
0000
0000
,
0101
0000
1100
0000
,
1010
0000
0000
0000
,
0000
0000
0000
0000
,
0101
0000
0000
0000
,
1001
0000
1100
0000
,
1000
0100
1000
0000
0100
1000
0100
0000
1000
0001
1000
0000
0001
0100
0001
0000
,
0100
0000
0000
0101
0000
0000
0001
1000
,
0100
1000
0100
0000
1000
0001
1000
0000
0001
0100
0001
0000
0100
0010
0100
0000
,
0010
0000
0000
1000
0100
0000
1000
0010
,
0100
0010
0100
0000
0001
0100
0001
0000
1000
0001
1000
0000
0100
1000
0100
0000
,
1000
0000
0000
1001
0000
0000
0001
0100
,
0010
0100
0010
0000
0100
0001
0100
0000
0001
1000
0001
0000
1000
0010
1000
0000
,
0100
0000
0000
0000
1000
0100
1000
0000
0010
0000
0000
0000
0100
0000
0001
0000
,
11M1
0000
0000
0000
0000
0000
1M11
0000
0000
0000
0000
0000
1000
0001
1000
0000
,
1M11
0000
0000
111M
0000
0000
0001
0100
,
M111
0001
0000
111M
0000
0001
0000
1000
,
1M11
0000
0000
1111
0001
0000
1000
0001
,
11M1
0000
0100
11M1
0001
1000
0010
0100
,
M111
0000
0000
1111
0000
0000
1000
0010
,
1110
0100
0000
11M1
0000
0001
0000
1000
,
11M1
0000
0000
11M1
0001
0000
0100
0001
,
11M1
0000
0000
0000
0000
0000
1M11
0000
0000
0000
0000
0000
1000
0001
1000
0000
,
1M11
0000
0000
111M
0000
0000
0001
0100
,
M111
0001
0000
111M
0000
0001
0000
1000
,
1M11
0000
0000
1111
0001
0000
1000
0001
,
11M1
0000
0100
11M1
0001
1000
0010
0100
,
M111
0000
0000
1111
0000
0000
1000
0010
,
1110
0100
0000
11M1
0000
0001
0000
1000
,
11M1
0000
0000
11M1
0001
0000
1001
0000
,
1000
0100
1000
0000
0010
1000
0010
0000
0100
0001
0100
0000
0001
1000
0001
0000
,
1000
0001
1000
0000
0100
1000
0100
0000
1000
0001
1000
0000
0001
0100
0001
0000
,
1000
0100
0010
0000
0100
1000
0010
0000
0100
0001
1000
0000
0001
0100
0001
0000
,
1000
0000
0000
0100
0000
0000
0010
0000
0000
0000
0000
0000
0100
0000
0000
1000
0000
0000
0001
0000
0000
0000
0000
0000
0100
0000
0000
0000
0000
0000
0001
0000
0100
0000
0001
0000
0100
0000
0000
0000
0000
0000
0001
0000
1000
0000
0001
0000
,
1000
0000
0000
1100
0000
0000
1010
0000
,
0101
0000
1001
0000
1001
0001
0011
0010
,
0100
1000
0010
0000
0100
0001
0100
0000
0001
1000
0100
0000
1000
0010
0100
0000
,
0010
0000
0000
0100
0000
0000
0001
0000
0000
0000
0000
0000
1000
0000
0000
0000
0000
0000
0000
0000
0000
0000
0000
0000
0001
0000
0000
0000
0000
0000
0100
0000
0000
0000
0000
0000
0001
0000
1000
0000
0001
0000
1000
0000
0001
0000
1000
0000
,
0001
0000
0000
0000
1000
0100
1000
0000
0010
0100
0010
0000
0100
0001
0100
0000
,
0001
1000
0001
0000
1000
0100
1000
0000
0010
1000
0010
0000
0100
0001
0100
0000
,
0101
0001
0000
1000
0000
0010
1010
0000
,
0000
0000
0000
1001
0000
0000
0000
0000
0000
0101
0000
0000
0000
0000
0000
0110
0000
0000
0010
0000
0000
1000
0010
1000
,
0010
0000
1010
0000
0101
0101
1001
1001
,
1100
0000
0000
1000
0100
0000
0110
0000
0000
0010
0001
0000
0011
0000
0000
0000
,
0101
0101
0000
1001
0000
1010
0010
0100
,
0101
0000
0000
0000
0000
0000
0001
0000
0000
1000
0000
0000
0100
0000
0000
0000
0000
0000
1000
0100
1000
0100
1000
0100
,
1000
0000
0100
0000
1000
0000
0010
0000
0100
0000
0001
1000
0001
0000
1000
0100
1000
0000
0010
0000
0100
0000
0001
0000
1000
0000
0010
0000
0100
0000
0100
0000
,
0001
0000
0001
0000
0010
0000
0010
0000
0100
0000
0100
0000
1000
0100
1000
0100
1000
0000
0010
0000
0100
0000
0001
0000
1000
0000
0000
0000
0010
0000
0100
0000
,
0111
0000
0000
0000
0000
0000
1101
0000
0000
0000
1000
0100
1000
0000
0010
1000
0010
0000
0100
0000
0001
0000
0010
0000
0100
0000
1000
0000
0010
0000
0010
0000
,
0100
0000
0100
0000
0001
0000
0001
0000
1000
0000
1000
0000
0001
0100
0001
0100
0001
0000
0100
0000
0010
0000
1000
0000
0100
0000
0000
0000
1000
0000
0001
0000
,
1101
0000
0000
0000
0000
0000
0111
0000
0000
0000
0100
0010
0100
0000
0010
1000
0010
0000
1000
0000
0100
0000
1000
0000
0001
0000
0100
0000
0010
0000
0010
0000
,
1000
0000
1000
0000
0100
0000
0100
0000
0010
0000
0010
0000
0001
0100
0001
0100
0001
0000
1000
0000
0100
0000
1000
0000
0010
0000
0000
0000
0100
0000
0001
0000
,
1101
0000
0000
0000
0000
0000
1110
0000
0000
0000
1000
0100
1000
0000
0010
1000
0010
0000
0100
0000
0001
0000
0010
0000
0100
0000
1000
0000
0010
0000
0010
0000
,
0100
0000
0000
0000
0000
0000
0000
0000
0000
0000
0000
0000
0100
0000
0000
0000
0000
0000
0000
0000
0000
0000
0000
0000
0001
0000
0000
0000
0000
0000
0000
0000
0000
0000
0000
0000
0001
0000
0000
0000
0000
0000
0000
0000
0000
0000
0000
0000
1000
0000
0000
0000
0000
0000
0000
0000
0000
0000
0000
0000
1000
0000
0000
0000
0000
0000
0000
0000
0000
0000
0000
0000
0010
0000
0000
0000
0000
0000
1000
0000
0000
0000
0000
0000
0010
0000
0000
0000
0000
0000
1000
0000
0000
0000
0000
0000
0010
0000
0000
0000
0000
0000
0000
0000
0000
0000
0000
0000
0000
0000
0000
0000
0000
0000
0000
0000
0000
0000
0000
0000
0100
0000
0000
0000
0000
0000
0000
0000
0000
0000
0000
0000
0001
0000
0000
0000
0000
0000
0000
0000
0000
0000
0000
0000
1000
0000
0000
0000
0000
0000
0000
0000
0000
0000
0000
0000
0000
0000
0000
0000
0000
0000
0000
0000
0000
0000
0000
0000
0100
0000
0000
0000
1000
0000
0000
0000
0100
0000
0000
0000
1000
0000
0000
0000
0100
0000
0000
0000
1000
0000
0000
0000
,
0100
1000
0100
1000
0100
0010
0001
0100
0001
0100
0001
0100
0010
1000
0010
1000
,
0010
1000
0100
0010
0001
0100
0010
0100
0001
1000
0001
1000
0100
1000
0100
0010
,
0001
1000
0001
1000
0001
0100
0001
0100
0001
0100
0001
1000
0001
1000
0010
0100
,
0001
0000
0000
1000
0000
0000
0100
0000
0000
1000
0000
0000
0001
0000
0000
1000
0000
0000
0001
0000
0000
0100
0000
0000
0001
0000
0000
1000
0000
0000
0001
0000
1000
0000
0001
0000
1000
0000
0000
0000
0000
0000
0001
0000
1000
0000
0001
0000
,
1000
0000
0000
0000
0001
0010
0100
1000
0100
1000
0100
1000
0001
1000
0001
1000
,
0001
0010
0001
0010
0001
0010
0001
1000
0001
1000
0001
1000
0010
1000
0010
1000
,
0010
1000
0100
0010
0001
0010
0001
1000
0001
1000
0001
1000
0010
1000
0010
1000
,
0010
0000
0000
1000
0000
0000
0001
0000
0000
0000
0000
0000
1000
0000
0000
0001
0000
0000
1000
0001
1000
0001
1000
0001
,
1000
0000
0000
0000
0001
1000
0001
1000
0100
1000
0100
0010
0001
0010
0001
0100
,
0001
0100
0001
0100
0010
1000
0010
1000
0010
0100
0010
0100
0010
0100
0001
1000
,
0001
0100
0010
1000
0001
0100
0010
1000
0010
1000
0010
1000
0100
0010
0001
0010
,
0001
0010
0100
0010
0100
1000
0100
1000
0001
1000
0001
1000
0100
0010
0001
0010
,
0100
1000
0100
1000
0100
1000
0001
1000
0001
1000
0001
1000
0001
0100
0001
0100
,
0001
0100
0001
0100
0010
0100
0010
0100
0010
0100
0001
0100
0001
0100
0001
1000
,
0001
1000
0001
1000
0001
1000
0100
0010
0001
1000
0100
1000
0100
1000
0100
1000
,
0100
0000
0000
1000
0000
0000
0010
0000
0000
0100
0000
0000
0001
0000
0000
1000
0000
0000
0001
0000
0000
1000
0001
1000
,
0001
0000
0000
0000
1000
0001
1000
0100
0010
0001
1000
0100
0010
0001
0010
0100
,
1000
0010
0100
0001
1000
0010
0100
0001
1000
0001
1000
0001
0010
0100
1000
0001
,
1000
0001
1000
0010
0100
0001
1000
0100
0010
0001
1000
0010
0100
0010
1000
0001
,
1000
0001
1000
0100
0010
0001
1000
0010
1000
0010
0100
0001
0100
0001
0010
0100
,
1000
0001
0010
0100
1000
0010
1000
0010
0100
0001
0100
0001
1000
0010
0100
0001
,
1000
0100
0010
0001
1000
0010
0100
0001
1000
0100
0010
0001
0010
0100
1000
0001
,
1000
0001
0010
0100
1000
0001
1000
0001
0100
0001
0100
0001
0010
0100
1000
0100
,
1000
0000
0000
1010
0000
0000
0100
0000
0001
0100
0000
0001
,
1000
0001
0100
0010
1000
0001
0100
0010
1000
0100
0010
0001
1000
0100
0010
0001
,
1000
0010
0100
0001
1000
0100
0010
0001
0010
0100
1000
0100
1000
0001
1000
0001
,
0100
0001
0100
0001
1000
0010
1000
0010
1000
0100
0010
0001
0100
0001
1000
0010
,
0100
0001
1000
0100
0010
0001
0010
0100
1000
0001
0010
0100
1000
0001
0100
0010
,
0100
0001
0100
0010
1000
0100
1000
0001
1000
0100
1000
0001
1000
0100
0010
0001
,
1000
0010
0100
0001
0010
0100
1000
0001
1000
0100
0010
0100
1000
0010
0100
0001
,
0010
0100
0010
0001
1000
0100
1000
0001
1000
0100
0010
0001
0100
0010
1000
0100
,
1000
0000
0000
1100
0000
0000
1010
0000
0000
0101
0000
0000
1001
0000
0000
1010
0000
0000
0110
0000
0000
0100
0001
0100
,
0001
0000
0100
0000
0001
0000
1000
0000
0100
0000
1000
0000
0010
0100
0001
0000
,
11M1
0000
0000
M111
0000
0000
0001
1000
,
11M1
0001
0000
M111
0000
0100
0000
0001
,
11M1
0000
0000
11M1
1000
0000
1010
0010
,
M111
0000
0000
0000
0000
0000
11M1
0000
0001
0000
1000
0000
0100
1000
0100
0000
,
111M
0000
0000
M111
0000
0000
0001
0100
,
M111
0000
0001
0000
0000
0000
11M1
0000
0000
0000
1000
0000
0010
1000
0010
0000
,
111M
0000
0000
M111
0000
0000
0000
0000
,
1111
0000
0000
1111
0000
0000
0000
0000
,
0000
0000
0000
0000
,
1000
0000
0000
0000
,
0001
0000
0100
0000
,
1111
0000
0000
1111
0000
0000
0000
0000
,
0000
0000
0000
0000
,
0001
0000
0000
0000
,
1000
0000
0010
0000
,
0100
0000
0000
0000
;
