#TITLE:Miota Nim Jak Szatan;
#SUBTITLE:;
#ARTIST:Loffciamcore;
#TITLETRANSLIT:;
#SUBTITLETRANSLIT:;
#ARTISTTRANSLIT:;
#CREDIT:Mad Matt;
#BANNER:../Tachyon Spectrum-bn.png;
#BACKGROUND:../Tachyon Spectrum-bg.png;
#LYRICSPATH:;
#CDTITLE:;
#MUSIC:Miota Nim Jak Szatan.ogg;
#OFFSET:-0.181;
#SAMPLESTART:34.070;
#SAMPLELENGTH:12.000;
#SELECTABLE:YES;
#DISPLAYBPM:260.000;
#BPMS:0.000=260.000,124.000=130.002,126.000=260.000,154.000=64.997,155.000=260.000,531.000=130.000;
#STOPS:;
#BGCHANGES:;
// cache tags:
#FIRSTBEAT:0.000;
#LASTBEAT:537.000;
#SONGFILENAME:Songs/Tachyon Spectrum/Miota Nim Jak Szatan - [Mad Matt]/Miota Nim Jak Szatan.sm;
#HASMUSIC:1;
#HASBANNER:1;
#MUSICLENGTH:127.350;
// end cache tags

//---------------dance-single - Mad Matt----------------
#NOTES:
     dance-single:
     Mad Matt:
     Challenge:
     18:
     1.000,1.000,0.212,0.188,1.000,1209.000,27.000,24.000,26.000,0.000:

1000
0001
1000
0001
0010
0200
0310
0200
,
0310
0001
1000
1000
0001
0100
0010
0010
,
1000
0001
0010
0001
0100
0001
1000
1000
,
0001
1000
0001
0001
0010
0100
1000
1000
,
0001
0010
0001
0010
0100
2000
3100
2000
,
3001
0100
0001
0001
0010
0100
1000
1000
,
0002
0003
0020
0230
,
2300
0000
0000
0000
0000
0000
0000
0000
3000
0000
0000
0000
0000
0000
0000
0000
0004
0000
0000
0000
0000
0000
0000
0000
4003
0000
0000
0000
0000
0000
0000
3000
,
0MM1
1000
0001
0010
0100
0010
0100
1000
,
0100
0000
1000
0000
0001
0000
1000
0000
0001
1000
0100
1000
0001
0100
0010
0100
,
0001
1000
0010
1000
0100
0010
0100
1000
,
0100
0000
0010
0000
0001
0000
0100
0000
0010
0000
1000
0001
1000
0000
0001
0100
,
0001
1000
0001
0100
0001
1000
0010
0100
,
0001
0000
0000
0000
1000
0000
0000
0000
0001
0100
0010
0100
0001
1000
0100
1000
,
0040
0030
4000
0000
3010
0100
0010
0100
,
0001
0000
0100
0000
0010
0000
1000
0000
0001
1000
0100
0010
0100
1000
0001
0100
,
0010
1000
0001
1000
0100
0010
0001
1000
,
0100
0000
0010
0000
0001
0000
1000
0000
0040
0000
0000
0000
0130
0001
0100
0000
,
0001
1000
0100
0010
0001
0100
0010
1000
,
0001
0000
1000
0000
0001
0000
0010
0000
0001
0100
0010
0100
0001
0000
4000
0000
,
3010
0100
0010
0100
0001
1000
0001
0010
,
0100
0000
0010
0000
0001
0000
1000
0000
0001
0010
0001
1000
0010
0100
0010
1000
,
0100
0000
0000
0000
0000
0000
0000
0000
0010
0001
1000
0010
0100
0010
1000
0100
,
0040
0000
0230
0000
1300
0001
1000
0000
,
0001
0100
0001
0010
0001
1000
0010
0100
0001
1000
0100
1000
0010
1000
0001
0010
,
0100
1000
0001
0100
0001
0010
0001
1000
0010
0100
0001
1000
0100
1000
0010
1000
,
0001
0010
0100
1000
0001
0100
0001
0010
0001
1000
0010
0100
0001
1000
0100
1000
,
0010
1000
0001
0010
0100
1000
0001
0100
0001
0000
1000
0000
0004
0000
0003
0000
,
1000
0100
1000
0010
0100
0010
1000
0100
1000
0001
0100
0010
1000
0001
0010
0001
,
0100
0010
0100
0001
0010
0001
1000
0010
0100
0001
1000
0100
1000
0010
1000
0001
,
0100
0001
0010
0001
1000
0010
0100
0010
1000
0100
0010
0100
1000
0010
0100
0001
,
2M00
0000
00M0
0000
0M00
0000
00M0
0000
3001
0100
0010
1000
0001
1000
0100
0010
,
0001
1000
0001
0100
0010
0100
0001
1000
0001
0010
0100
1000
0001
1000
0010
0100
,
0001
1000
0001
0010
0100
0010
0001
1000
0001
0000
1000
0000
0100
0000
1000
0000
,
0001
0000
1000
0000
0100
0000
0010
0000
0001
0000
1000
0000
0010
0100
0010
0000
,
1000
0000
0001
0000
4000
0000
3000
0000
0001
0010
0100
1000
0010
0100
0001
1000
,
0001
0010
0100
1000
0010
0100
0001
1000
0001
0010
0100
0010
0001
1000
0001
0100
,
0010
1000
0100
0010
0001
1000
0001
0100
0010
0000
1000
0000
0100
0000
0010
0000
,
0001
0010
0100
1000
0004
0000
0000
0003
M000
0000
0M00
00M0
0001
0000
0000
0000
,
1000
0000
1100
0000
0100
1000
0001
0010
,
0100
0000
1100
0000
1000
0001
0100
0000
,
0010
0000
0110
0000
0100
0001
0010
0100
,
1000
0000
1100
0100
0010
0001
1000
0001
,
0010
0000
0110
0000
0100
1000
0001
0100
,
0001
0000
0000
0000
0101
0000
0000
0000
1000
0010
0100
0001
1000
0000
0000
0000
,
0001
0000
0011
0000
0010
0001
1000
0001
,
0100
0000
0000
0000
0001
0100
0010
0100
0001
1000
0100
0010
0001
0000
0000
0000
,
1000
0000
1001
0000
0001
0010
0100
0010
,
0001
0000
1001
0000
1000
0010
0100
0000
,
0010
0000
0110
0000
0100
0001
0010
0100
,
1000
0000
1100
0100
0010
0001
1000
0000
,
0010
0000
0110
0000
0100
0001
0010
0100
,
1000
0000
0000
0000
1100
0000
0000
0000
0001
0010
0100
0010
0001
0000
0000
0000
,
0010
0000
0000
0000
0100
0000
0000
0000
1000
0000
0000
0000
0001
1000
0010
0100
,
0001
0000
0000
0000
0200
0000
0000
0000
0302
0000
0000
0003
1000
0000
0001
0000
,
1000
0001
0100
0010
1000
0001
1000
0001
,
0010
0000
0001
0000
1000
0000
0100
0000
1000
0000
0001
0100
0001
0000
1000
0000
,
0100
0000
1000
0000
0100
0000
0010
0000
0100
0000
0010
0001
1000
0000
0010
0000
,
0100
0000
0001
0100
0010
0100
0001
1000
0100
0010
0100
1000
0002
0000
0000
0000
,
4003
0000
3001
0100
0001
1000
0001
1000
,
0001
0000
0010
0000
0001
0000
1000
0000
0100
0000
0010
0001
1000
0000
0001
0000
,
1000
0000
0010
0000
0100
0000
0001
0000
1000
0000
0001
1000
0002
0000
0000
0003
,
0000
0000
0000
0000
0020
0000
0000
0030
0400
0000
0000
0000
1300
0000
0001
0000
,
0100
0000
0001
0000
1000
0000
0001
0000
1000
0000
0001
1000
0001
0000
1000
0000
,
0001
0000
1000
0000
0100
0000
0010
0000
0001
0000
1000
0010
1000
0000
0001
0000
,
0100
0000
0010
0000
1000
0000
0001
0000
0100
0000
0001
1000
0001
0000
0010
0000
,
0001
1000
0040
0030
0400
0300
0001
1000
,
0001
0000
0010
0000
0001
0000
1000
0000
0001
0000
0010
0001
0010
0000
0001
0000
,
1000
0000
0000
0010
0000
0000
1000
0000
0010
0000
1000
0000
0001
0000
0100
0000
0010
0000
4000
0000
0000
0000
0000
0000
,
3002
0000
0043
0000
0430
0000
1300
0001
,
1000
0100
0010
0001
0100
0001
1000
0001
,
1000
0001
0010
0200
0310
0200
0310
0001
,
1000
1000
0001
0100
0010
0010
1000
0001
,
0010
0001
0100
0001
1000
1000
0001
1000
,
0001
0001
0010
0100
1000
1000
0001
0010
,
0001
0010
0100
2000
3100
2000
3001
0100
,
0001
0001
0010
0100
1000
1000
0001
0100
,
0001
0100
0010
1000
0001
0001
0010
0100
,
1000
1000
0001
0100
0010
0010
1000
0001
,
0000
1000
0100
1000
0000
0001
0000
0100
,
0000
0001
1000
0100
0000
0000
1000
0001
,
0000
0000
0100
0000
0001
0000
0000
0000
1000
0001
1000
0000
0000
0000
0001
0000
,
0000
0000
1000
0000
0001
0010
0100
1000
0001
0100
0010
0100
0001
0000
1000
0000
,
0000
0001
0010
0100
0000
1000
0000
0001
,
0000
0100
0010
1000
0000
0000
0001
1000
,
0000
0000
0001
0000
1000
0000
0001
0000
0100
0001
0100
0000
0001
0000
0010
0000
,
0100
1000
0100
0010
0004
0000
1003
0010
,
1000
0001
1000
0001
0010
0001
1000
0001
,
1000
0000
0001
0000
1000
0010
0100
0001
1000
0100
0010
0100
1000
0000
0001
0000
,
1000
0000
0001
0000
1000
0000
0001
0000
0010
0001
0010
0000
0001
0000
0010
0000
,
0001
0000
0000
1000
0000
0000
0010
0000
1000
0000
0001
0000
0100
0000
0001
0000
1000
0000
0100
0000
0000
0000
0000
0000
,
0010
0000
0001
0000
0010
0000
0001
0000
1000
0000
0001
1000
0001
0000
1000
0000
,
0001
0000
1000
0000
0001
0010
0100
1000
0001
0100
0010
0100
0001
0000
0000
0000
,
1000
0000
0100
0000
0010
0000
0100
0000
1000
0100
0010
0001
1000
0000
0000
0000
,
0010
0000
0000
0000
1000
0010
0100
0001
1000
0100
0010
0100
1000
0000
0001
0000
,
1000
0010
1000
0001
1000
0001
0010
0100
,
1000
0000
0001
0000
1000
0010
0100
0001
1000
0100
0010
0100
1000
0000
0100
0000
,
0010
0000
0001
0000
1000
0000
0001
0000
0100
0001
0100
0000
0001
0000
0100
0000
,
0010
0000
1000
0000
0001
0010
0100
0010
0001
1000
0010
0100
0001
0000
0100
0000
,
0001
0100
0010
1000
0001
1000
0001
0100
,
0010
0000
0100
0000
0001
0100
0010
0100
0001
1000
0100
0010
0001
0000
1000
0000
,
0010
0000
0100
0000
0001
0000
1000
0000
0001
1000
0010
1000
0001
0000
0000
0000
,
MMMM
0000
0M00
M0MM
0M0M
M000
0001
0100
,
0001
1000
0100
0010
0001
1000
0001
0010
,
0001
0000
1000
0000
0001
0100
0010
0100
0001
0010
0100
1000
0001
0100
0010
0100
,
0001
0010
0100
1000
0001
0000
0100
0000
0010
0000
1000
0000
0001
0000
1000
0000
,
0010
0000
1000
0000
0100
1000
0001
1000
0100
0000
1000
0000
0100
0000
0010
0000
,
0001
1000
0001
0100
0010
1000
0001
0000
,
0010
0000
0000
0000
0001
0100
0010
1000
0001
0010
0100
0010
0002
0000
0000
0000
,
0043
0000
0031
0010
0001
0100
0010
0100
,
0001
0000
1000
0000
0001
0100
0010
0100
0001
1000
0100
0010
0001
0000
1000
0000
,
0001
0010
0001
1000
0001
1000
0010
0100
,
0001
0000
1000
0000
0001
0100
0010
1000
0004
0000
0000
0000
0103
0000
0001
0000
,
1000
0001
0100
0001
1000
0001
0010
0100
,
1000
0000
0001
0000
1000
0100
0010
0100
1000
0001
0100
0000
0010
0000
0100
0000
,
0010
1000
0001
1000
0100
0010
0001
1000
,
0001
0000
0100
0000
0001
0100
0010
1000
0001
0010
0100
0010
0001
0000
1000
0000
,
0001
0000
0000
1000
0100
0010
0001
1000
0010
0200
0000
0000
,
0340
0000
0000
0000
1030
0000
0000
0000
0002
0000
0000
0000
1003
0010
0100
0001
,
0010
0001
1000
0010
0100
0001
0010
0001
1000
0100
1000
0010
0100
0001
1000
0100
,
1000
0010
0100
0001
1000
0100
0010
0001
0100
0001
1000
0100
0010
0001
0100
0001
,
1000
0010
1000
0001
0010
0100
1000
0010
1000
0001
0010
0100
1000
0010
1000
0001
,
0010
0100
1000
0001
1000
0000
0010
0000
4000
0000
3000
0000
0001
0100
0010
1000
,
0010
0100
0001
0010
0100
0010
0001
1000
0010
0100
0001
0100
0010
1000
0100
0010
,
0100
1000
0001
0100
0010
0100
0001
1000
0100
0010
0001
0010
0100
1000
0001
0100
,
0010
0100
0001
0010
0100
1000
0100
0010
0001
1000
0010
0100
0001
0000
0000
0000
,
0000
0000
0000
0000
0000
0000
0000
0000
0000
0000
0000
0000
1000
0100
0010
0001
,
0100
0010
1000
0001
1000
0100
0010
0001
0100
0010
1000
0001
1000
0100
0010
0100
,
1000
0010
0100
0001
1000
0001
0010
0100
4000
0000
0000
0000
3001
0100
0010
0100
,
0001
0000
0000
1000
0000
0000
0100
0000
0000
0010
0000
0000
0001
0000
0000
0000
0100
0000
0000
0000
0001
0000
0000
0000
1000
0000
0000
0000
0100
0000
0000
0000
0010
0000
0000
0000
0001
0000
0000
0000
1000
0000
0000
0000
0001
0000
0000
0000
,
1000
0000
0000
0000
0001
0100
0001
1000
0400
0000
0000
0000
1300
0010
0100
0010
,
1000
0100
1000
0010
1000
0001
0010
0100
0010
0001
0100
0001
0010
0001
1000
0010
,
0100
0010
1000
0100
1000
0010
1000
0001
0010
0100
0010
0001
1000
0000
0MM0
0000
,
M00M
0MM0
0001
0000
1000
0100
0020
0000
,
0000
0030
0000
0000
;

//---------------dance-single - Tachyon Delta----------------
#NOTES:
     dance-single:
     Tachyon Delta:
     Easy:
     17:
     1.000,1.000,0.204,0.188,1.000,1209.000,26.000,24.000,26.000,0.000:





1000
0001
1000
0001
0010
0200
0310
0200
,
0310
0001
1000
1000
0001
0100
0010
0010
,
1000
0001
0010
0001
0100
0001
1000
1000
,
0001
1000
0001
0001
0010
0100
1000
1000
,
0001
0010
0001
0010
0100
2000
3100
2000
,
3001
0100
0001
0001
0010
0100
1000
1000
,
0002
0003
0020
0230
,
2300
0000
0000
0000
0000
0000
0000
0000
3000
0000
0000
0000
0000
0000
0000
0000
0004
0000
0000
0000
0000
0000
0000
0000
4003
0000
0000
0000
0000
0000
0000
3000
,
0MM1
1000
0001
0010
0100
0010
0100
1000
,
0100
0000
1000
0000
0001
0000
1000
0000
0001
0100
0010
1000
0001
0100
0010
1000
,
0001
1000
0010
1000
0100
0010
0100
1000
,
0100
0000
0010
0000
0001
0000
0100
0000
0010
0000
1000
0001
1000
0000
0001
0100
,
0001
1000
0001
0100
0001
1000
0010
0100
,
0001
0000
0000
0000
1000
0000
0000
0000
0001
0010
0100
1000
0001
0010
0100
1000
,
0004
0003
4000
0000
3010
0100
0010
0100
,
0001
0000
0100
0000
0010
0000
1000
0000
0010
1000
0010
0100
0001
1000
0001
0100
,
0001
0100
0001
1000
0100
0010
0001
1000
,
0100
0000
0010
0000
0001
0000
1000
0000
0040
0000
0000
0000
0130
0001
0100
0000
,
0001
1000
0100
0010
0001
0100
0010
1000
,
0001
0000
1000
0000
0001
0000
0010
0000
0001
0010
0100
1000
0001
0000
4000
0000
,
3010
0100
0010
0100
0001
1000
0001
0010
,
0100
0000
0010
0000
0001
0000
1000
0000
0010
0100
0001
1000
0010
0100
0001
0100
,
0010
0000
0000
0000
0000
0000
0000
0000
0010
0100
0010
1000
0001
0100
0001
1000
,
0040
0000
0230
0000
0301
1000
0001
0000
,
1000
0010
0100
0001
1000
0010
0100
0001
0100
0010
1000
0001
1000
0010
1000
0001
,
0100
0001
1000
0100
1000
0100
0010
0001
0010
0100
1000
0100
0010
0001
1000
0001
,
1000
0001
0100
0010
1000
0010
0100
0001
1000
0010
0100
0001
1000
0010
1000
0001
,
0100
0001
1000
0001
0100
0010
1000
0001
0100
0000
0001
0000
4000
0000
3000
0000
,
0001
0100
0010
1000
0001
0100
0010
1000
0001
1000
0010
0100
0001
0100
0001
1000
,
0010
1000
0001
0010
0001
1000
0001
1000
0100
1000
0001
0010
0100
1000
0001
0010
,
0100
1000
0001
0100
0001
1000
0010
0100
0001
1000
0001
0100
0010
1000
0001
1000
,
00M2
0000
0M00
0000
00M0
0000
0M00
0000
1003
0010
1000
0001
0100
0001
1000
0010
,
0100
0001
1000
0010
0100
0001
0100
0001
1000
0001
0100
0010
0100
0001
1000
0001
,
1000
0100
0010
0001
1000
0001
1000
0100
0010
0000
0001
0000
0010
0000
0001
0000
,
1000
0000
0001
0000
0010
0000
0100
0000
1000
0000
0001
0000
0100
0010
0100
0000
,
0001
0000
1000
0000
0004
0000
0003
0000
1000
0001
1000
0100
0010
0001
0010
0100
,
1000
0100
0010
0001
0010
0100
1000
0100
0010
0001
1000
0001
0010
0001
1000
0100
,
1000
0001
0010
0100
1000
0001
1000
0001
0100
0000
0001
0000
0010
0000
0100
0000
,
1000
0001
1000
0001
0400
0000
0000
0300
M000
0000
00M0
0M00
0001
0000
0000
0000
,
1000
0000
1100
0000
0100
1000
0001
0010
,
0100
0000
1100
0000
1000
0001
0100
0000
,
0010
0000
0110
0000
0100
0001
0010
0100
,
1000
0000
1100
0100
0010
0001
1000
0001
,
0010
0000
0110
0000
0100
1000
0001
0100
,
0001
0000
0000
0000
0101
0000
0000
0000
0100
0001
0100
0001
1000
0000
0000
0000
,
0100
0000
0110
0000
0010
0001
1000
0001
,
0100
0000
0000
0000
0001
0100
0010
1000
0001
1000
0001
1000
0001
0000
0000
0000
,
1000
0000
1001
0000
0001
0010
0100
0010
,
0001
0000
1001
0000
1000
0010
0100
0000
,
0010
0000
0110
0000
0100
0001
0010
0100
,
1000
0000
1100
0100
0010
0001
1000
0000
,
0010
0000
0110
0000
0100
0001
0010
0100
,
1000
0000
0000
0000
1100
0000
0000
0000
0100
0010
0100
0010
0001
0000
0000
0000
,
0010
0000
0000
0000
0100
0000
0000
0000
1000
0000
0000
0000
0001
1000
0010
0100
,
0001
0000
0000
0000
0200
0000
0000
0000
0302
0000
0000
0003
1000
0000
0001
0000
,
1000
0001
0100
0010
1000
0001
1000
0001
,
0010
0000
0001
0000
1000
0000
0100
0000
1000
0000
0001
0100
0001
0000
1000
0000
,
0100
0000
1000
0000
0100
0000
0010
0000
0100
0000
0010
0001
1000
0000
0010
0000
,
0100
0000
0010
1000
0001
0100
0001
1000
0001
0100
0001
1000
0020
0000
0000
0000
,
4030
0000
3001
0100
0001
1000
0001
1000
,
0001
0000
0010
0000
0001
0000
1000
0000
0100
0000
0010
0001
1000
0000
0001
0000
,
1000
0000
0010
0000
0100
0000
0001
0000
1000
0000
0001
1000
0002
0000
0000
0003
,
0000
0000
0000
0000
0020
0000
0000
0030
0400
0000
0000
0000
1300
0000
0001
0000
,
0100
0000
0001
0000
1000
0000
0001
0000
1000
0000
0001
1000
0001
0000
1000
0000
,
0001
0000
1000
0000
0100
0000
0010
0000
0001
0000
1000
0010
1000
0000
0001
0000
,
0100
0000
0010
0000
1000
0000
0001
0000
0100
0000
0001
1000
0001
0000
0010
0000
,
0001
1000
0040
0030
0400
0300
0001
1000
,
0001
0000
0010
0000
0001
0000
1000
0000
0001
0000
0010
0001
0010
0000
0001
0000
,
1000
0000
0000
0010
0000
0000
1000
0000
0010
0000
1000
0000
0001
0000
0100
0000
0010
0000
4000
0000
0000
0000
0000
0000
,
3002
0000
0043
0000
0430
0000
1300
0001
,
1000
0100
0010
0001
0100
0001
1000
0001
,
1000
0001
0010
0200
0310
0200
0310
0001
,
1000
1000
0001
0100
0010
0010
1000
0001
,
0010
0001
0100
0001
1000
1000
0001
1000
,
0001
0001
0010
0100
1000
1000
0001
0010
,
0001
0010
0100
2000
3100
2000
3001
0100
,
0001
0001
0010
0100
1000
1000
0001
0100
,
0001
0100
0010
1000
0001
0001
0010
0100
,
1000
1000
0001
0100
0010
0010
1000
0001
,
0000
1000
0100
1000
0000
0001
0000
0100
,
0000
0001
1000
0100
0000
0000
1000
0001
,
0000
0000
0100
0000
0001
0000
0000
0000
1000
0001
1000
0000
0000
0000
0001
0000
,
0000
0000
1000
0000
0001
0010
0100
1000
0001
1000
0001
1000
0001
0000
1000
0000
,
0000
0001
0010
0100
0000
1000
0000
0001
,
0000
0100
0010
1000
0000
0000
0001
1000
,
0000
0000
0001
0000
1000
0000
0001
0000
0100
0001
0100
0000
0001
0000
0010
0000
,
0100
1000
0100
0010
0004
0000
1003
0010
,
1000
0001
1000
0001
0010
0001
1000
0001
,
1000
0000
0001
0000
0100
0001
0100
0001
0100
0001
0100
0001
0100
0000
0001
0000
,
1000
0000
0001
0000
1000
0000
0001
0000
0010
0001
0010
0000
0001
0000
0010
0000
,
0001
0000
0000
1000
0000
0000
0010
0000
1000
0000
0001
0000
0100
0000
0001
0000
1000
0000
0100
0000
0000
0000
0000
0000
,
0010
0000
0001
0000
0010
0000
0001
0000
1000
0000
0001
1000
0001
0000
1000
0000
,
0001
0000
1000
0000
0001
0010
0001
0010
0100
1000
0001
1000
0001
0000
0000
0000
,
1000
0000
0100
0000
0010
0000
0100
0000
1000
0100
0010
0001
1000
0000
0000
0000
,
0010
0000
0000
0000
0100
0010
0100
0010
1000
0001
0100
0001
1000
0000
0010
0000
,
1000
0010
1000
0001
1000
0001
0010
0100
,
1000
0000
0001
0000
1000
0001
1000
0001
1000
0001
1000
0001
1000
0000
0100
0000
,
0010
0000
0001
0000
1000
0000
0001
0000
0100
0001
0100
0000
0001
0000
0100
0000
,
0010
0000
1000
0000
0100
0010
0001
1000
0001
1000
0010
0100
0001
0000
0100
0000
,
0001
0100
0010
1000
0001
1000
0001
0100
,
0010
0000
0100
0000
0010
1000
0001
1000
0010
0100
0010
1000
0001
0000
1000
0000
,
0010
0000
0100
0000
0001
0000
1000
0000
0001
1000
0001
1000
0001
0000
0000
0000
,
MMMM
0000
0M00
M0MM
0M0M
M000
0001
0100
,
0001
1000
0100
0010
0001
1000
0001
0010
,
0001
0000
1000
0000
0001
0100
0001
0100
0001
0100
0001
0100
0001
1000
0010
1000
,
0001
1000
0010
0100
0001
0000
0100
0000
0010
0000
1000
0000
0001
0000
1000
0000
,
0010
0000
1000
0000
0100
1000
0100
1000
0100
0000
1000
0000
0100
0000
0010
0000
,
0001
1000
0001
0100
0010
1000
0001
0000
,
0010
0000
0000
0000
0001
1000
0001
1000
0010
1000
0010
1000
0002
0000
0000
0000
,
0043
0000
0031
0010
0001
0100
0010
0100
,
0001
0000
1000
0000
0001
1000
0001
1000
0001
1000
0001
1000
0001
0000
1000
0000
,
0001
0010
0001
1000
0001
1000
0010
0100
,
0001
0000
1000
0000
0010
0100
0010
0100
0004
0000
0000
0000
0103
0000
0001
0000
,
1000
0001
0100
0001
1000
0001
0010
0100
,
1000
0000
0001
0000
1000
0100
0010
0001
1000
0001
1000
0000
0010
0000
0100
0000
,
0010
1000
0001
1000
0100
0010
0001
1000
,
0001
0000
0100
0000
0010
1000
0010
1000
0001
1000
0001
1000
0100
0000
1000
0000
,
0001
0000
0000
1000
0100
0010
0001
1000
0010
0200
0000
0000
,
0340
0000
0000
0000
1030
0000
0000
0000
0002
0000
0000
0000
1003
0010
0100
0001
,
1000
0010
0100
0001
1000
0010
1000
0010
0100
0001
1000
0001
1000
0001
0010
0100
,
1000
0001
0010
0100
1000
0100
0010
0001
1000
0100
0010
0001
0010
0001
1000
0001
,
0100
0010
0100
0001
0100
0010
1000
0010
1000
0010
0100
0001
1000
0001
1000
0010
,
1000
0001
1000
0001
0100
0000
0010
0000
4000
0000
3000
0000
0001
1000
0001
0100
,
0010
1000
0001
0100
0001
1000
0001
0010
0100
1000
0001
0010
0001
1000
0100
0010
,
0001
0010
0100
1000
0100
0010
0001
1000
0001
1000
0010
1000
0001
0100
0001
1000
,
0010
0100
0001
1000
0001
1000
0001
0100
0010
1000
0010
0100
0001
0000
0000
0000
,
0000
0000
0000
0000
0000
0000
0000
0000
0000
0000
0000
0000
1000
0001
1000
0001
,
0100
0010
1000
0010
0100
0001
1000
0001
0100
0010
1000
0001
1000
0100
0010
0001
,
1000
0100
0010
0001
1000
0001
1000
0001
4000
0000
0000
0000
3001
0100
0001
0100
,
0001
0000
0000
0100
0000
0000
0001
0000
0000
0100
0000
0000
0001
0000
0000
0000
0100
0000
0000
0000
0001
0000
0000
0000
1000
0000
0000
0000
0100
0000
0000
0000
0010
0000
0000
0000
0001
0000
0000
0000
1000
0000
0000
0000
0001
0000
0000
0000
,
1000
0000
0000
0000
0001
0100
0001
0100
0040
0000
0000
0030
0100
0010
1000
0010
,
1000
0001
0100
0010
1000
0001
1000
0001
0010
0100
1000
0001
0010
0001
1000
0100
,
1000
0001
1000
0001
0100
0010
1000
0001
1000
0010
0100
0001
1000
0000
0MM0
0000
,
M00M
0MM0
0001
0000
1000
0100
0020
0000
,
0000
0030
0000
0000
;

//---------------dance-single - Mad Matt----------------
#NOTES:
     dance-single:
     Mad Matt:
     Medium:
     17:
     1.000,1.000,0.204,0.188,1.000,1209.000,26.000,24.000,26.000,0.000:





1000
0001
1000
0001
0010
0200
0310
0200
,
0310
0001
1000
1000
0001
0100
0010
0010
,
1000
0001
0010
0001
0100
0001
1000
1000
,
0001
1000
0001
0001
0010
0100
1000
1000
,
0001
0010
0001
0010
0100
2000
3100
2000
,
3001
0100
0001
0001
0010
0100
1000
1000
,
0002
0003
0020
0230
,
2300
0000
0000
0000
0000
0000
0000
0000
3000
0000
0000
0000
0000
0000
0000
0000
0004
0000
0000
0000
0000
0000
0000
0000
4003
0000
0000
0000
0000
0000
0000
3000
,
0MM1
1000
0001
0010
0100
0010
0100
1000
,
0100
0000
1000
0000
0001
0000
1000
0000
0001
0100
0010
1000
0001
0100
0001
1000
,
0001
1000
0010
1000
0100
0010
0100
1000
,
0100
0000
0010
0000
0001
0000
0100
0000
0010
0000
1000
0001
1000
0000
0001
0100
,
0001
1000
0001
0100
0001
1000
0010
0100
,
0001
0000
0000
0000
1000
0000
0000
0000
0001
0010
0100
1000
0001
1000
0100
1000
,
0004
0003
4000
0000
3010
0100
0010
0100
,
0001
0000
0100
0000
0010
0000
1000
0000
0010
0100
0001
1000
0010
1000
0001
1000
,
0010
0100
0001
1000
0100
0010
0001
1000
,
0100
0000
0010
0000
0001
0000
1000
0000
0040
0000
0000
0000
0130
0001
0100
0000
,
0001
1000
0100
0010
0001
0100
0010
1000
,
0001
0000
1000
0000
0001
0000
0010
0000
0001
0010
0100
1000
0001
0000
4000
0000
,
3010
0100
0010
0100
0001
1000
0001
0010
,
0100
0000
0010
0000
0001
0000
1000
0000
0010
0100
0001
1000
0010
1000
0001
1000
,
0010
0000
0000
0000
0000
0000
0000
0000
0001
0010
0100
1000
0001
0010
0001
1000
,
0400
0000
0320
0000
0031
1000
0001
0000
,
1000
0010
0100
0001
1000
0010
1000
0001
1000
0100
1000
0001
0010
0100
1000
0001
,
0010
0001
1000
0001
0100
0001
1000
0100
0010
0001
1000
0100
1000
0001
1000
0010
,
1000
0001
0100
0010
0100
0001
1000
0010
1000
0001
1000
0100
1000
0001
0010
0100
,
1000
0001
0010
0100
1000
0001
0100
0001
1000
0000
0001
0000
4000
0000
3000
0000
,
0001
0100
0010
0100
0001
1000
0010
1000
0001
1000
0100
0010
0001
1000
0100
0010
,
0001
1000
0100
1000
0001
1000
0010
1000
0001
0100
0010
0100
0001
1000
0010
0100
,
0001
1000
0010
1000
0001
1000
0100
1000
0001
0010
0100
1000
0001
0010
0100
1000
,
00M2
0000
0M00
0000
00M0
0000
0M00
0000
1003
0010
0100
0001
1000
0010
1000
0001
,
0100
0001
1000
0001
0010
0100
1000
0001
0010
0100
0010
0001
1000
0100
1000
0001
,
1000
0010
1000
0001
0100
0010
1000
0001
0100
0000
0001
0000
0100
0000
0001
0000
,
1000
0000
0001
0000
0010
0000
0100
0000
1000
0000
0001
0000
0100
0010
0100
0000
,
0001
0000
1000
0000
0004
0000
0003
0000
1000
0001
0010
0100
1000
0001
0010
0001
,
1000
0001
0100
0001
1000
0010
0100
0001
1000
0010
0100
0010
1000
0001
1000
0100
,
1000
0001
0010
0100
1000
0001
0010
0100
1000
0000
0001
0000
0010
0000
0100
0000
,
1000
0001
0100
0010
0400
0000
0000
0300
M000
0000
00M0
0M00
0001
0000
0000
0000
,
1000
0000
1100
0000
0100
1000
0001
0010
,
0100
0000
1100
0000
1000
0001
0100
0000
,
0010
0000
0110
0000
0100
0001
0010
0100
,
1000
0000
1100
0100
0010
0001
1000
0001
,
0010
0000
0110
0000
0100
1000
0001
0100
,
0001
0000
0000
0000
0101
0000
0000
0000
0100
0010
0100
0001
1000
0000
0000
0000
,
0100
0000
0110
0000
0010
0001
1000
0001
,
0100
0000
0000
0000
0001
0100
0010
1000
0001
0100
0001
1000
0001
0000
0000
0000
,
1000
0000
1001
0000
0001
0010
0100
0010
,
0001
0000
1001
0000
1000
0010
0100
0000
,
0010
0000
0110
0000
0100
0001
0010
0100
,
1000
0000
1100
0100
0010
0001
1000
0000
,
0010
0000
0110
0000
0100
0001
0010
0100
,
1000
0000
0000
0000
1100
0000
0000
0000
0100
0010
0100
1000
0001
0000
0000
0000
,
0010
0000
0000
0000
0100
0000
0000
0000
1000
0000
0000
0000
0001
1000
0010
0100
,
0001
0000
0000
0000
0200
0000
0000
0000
0302
0000
0000
0003
1000
0000
0001
0000
,
1000
0001
0100
0010
1000
0001
1000
0001
,
0010
0000
0001
0000
1000
0000
0100
0000
1000
0000
0001
0100
0001
0000
1000
0000
,
0100
0000
1000
0000
0100
0000
0010
0000
0100
0000
0010
0001
1000
0000
0010
0000
,
0100
0000
0010
1000
0010
0100
0001
1000
0001
0100
0001
1000
0020
0000
0000
0000
,
4030
0000
3001
0100
0001
1000
0001
1000
,
0001
0000
0010
0000
0001
0000
1000
0000
0100
0000
0010
0001
1000
0000
0001
0000
,
1000
0000
0010
0000
0100
0000
0001
0000
1000
0000
0001
1000
0002
0000
0000
0003
,
0000
0000
0000
0000
0020
0000
0000
0030
0400
0000
0000
0000
1300
0000
0001
0000
,
0100
0000
0001
0000
1000
0000
0001
0000
1000
0000
0001
1000
0001
0000
1000
0000
,
0001
0000
1000
0000
0100
0000
0010
0000
0001
0000
1000
0010
1000
0000
0001
0000
,
0100
0000
0010
0000
1000
0000
0001
0000
0100
0000
0001
1000
0001
0000
0010
0000
,
0001
1000
0040
0030
0400
0300
0001
1000
,
0001
0000
0010
0000
0001
0000
1000
0000
0001
0000
0010
0001
0010
0000
0001
0000
,
1000
0000
0000
0010
0000
0000
1000
0000
0010
0000
1000
0000
0001
0000
0100
0000
0010
0000
4000
0000
0000
0000
0000
0000
,
3002
0000
0043
0000
0430
0000
1300
0001
,
1000
0100
0010
0001
0100
0001
1000
0001
,
1000
0001
0010
0200
0310
0200
0310
0001
,
1000
1000
0001
0100
0010
0010
1000
0001
,
0010
0001
0100
0001
1000
1000
0001
1000
,
0001
0001
0010
0100
1000
1000
0001
0010
,
0001
0010
0100
2000
3100
2000
3001
0100
,
0001
0001
0010
0100
1000
1000
0001
0100
,
0001
0100
0010
1000
0001
0001
0010
0100
,
1000
1000
0001
0100
0010
0010
1000
0001
,
0000
1000
0100
1000
0000
0001
0000
0100
,
0000
0001
1000
0100
0000
0000
1000
0001
,
0000
0000
0100
0000
0001
0000
0000
0000
1000
0001
1000
0000
0000
0000
0001
0000
,
0000
0000
1000
0000
0001
0010
0100
1000
0001
1000
0100
1000
0001
0000
1000
0000
,
0000
0001
0010
0100
0000
1000
0000
0001
,
0000
0100
0010
1000
0000
0000
0001
1000
,
0000
0000
0001
0000
1000
0000
0001
0000
0100
0001
0100
0000
0001
0000
0010
0000
,
0100
1000
0100
0010
0004
0000
1003
0010
,
1000
0001
1000
0001
0010
0001
1000
0001
,
1000
0000
0001
0000
1000
0010
0100
0001
0100
0010
0100
0001
0100
0000
0001
0000
,
1000
0000
0001
0000
1000
0000
0001
0000
0010
0001
0010
0000
0001
0000
0010
0000
,
0001
0000
0000
1000
0000
0000
0010
0000
1000
0000
0001
0000
0100
0000
0001
0000
1000
0000
0100
0000
0000
0000
0000
0000
,
0010
0000
0001
0000
0010
0000
0001
0000
1000
0000
0001
1000
0001
0000
1000
0000
,
0001
0000
1000
0000
0001
0010
0100
1000
0001
1000
0100
1000
0001
0000
0000
0000
,
1000
0000
0100
0000
0010
0000
0100
0000
1000
0100
0010
0001
1000
0000
0000
0000
,
0010
0000
0000
0000
1000
0010
0100
0001
1000
0001
0100
0001
1000
0000
0010
0000
,
1000
0010
1000
0001
1000
0001
0010
0100
,
1000
0000
0001
0000
1000
0001
0010
0100
1000
0001
0010
0001
1000
0000
0100
0000
,
0010
0000
0001
0000
1000
0000
0001
0000
0100
0001
0100
0000
0001
0000
0100
0000
,
0010
0000
1000
0000
0100
0010
0001
1000
0001
0100
0001
1000
0001
0000
0100
0000
,
0001
0100
0010
1000
0001
1000
0001
0100
,
0010
0000
0100
0000
0010
1000
0001
0100
0010
1000
0001
1000
0010
0000
1000
0000
,
0010
0000
0100
0000
0001
0000
1000
0000
0001
0100
0010
1000
0001
0000
0000
0000
,
MMMM
0000
0M00
M0MM
0M0M
M000
0001
0100
,
0001
1000
0100
0010
0001
1000
0001
0010
,
0001
0000
1000
0000
0001
0100
0010
1000
0001
0100
0010
0100
0001
1000
0100
1000
,
0001
1000
0100
0010
0001
0000
0100
0000
0010
0000
1000
0000
0001
0000
1000
0000
,
0010
0000
1000
0000
0100
1000
0001
1000
0100
0000
1000
0000
0100
0000
0010
0000
,
0001
1000
0001
0100
0010
1000
0001
0000
,
0010
0000
0000
0000
0001
0100
0010
1000
0001
1000
0100
1000
0002
0000
0000
0000
,
0043
0000
0031
0010
0001
0100
0010
0100
,
0001
0000
1000
0000
0001
1000
0010
0100
0001
1000
0010
1000
0001
0000
1000
0000
,
0001
0010
0001
1000
0001
1000
0010
0100
,
0001
0000
1000
0000
0010
0100
0010
1000
0004
0000
0000
0000
0103
0000
0001
0000
,
1000
0001
0100
0001
1000
0001
0010
0100
,
1000
0000
0001
0000
1000
0100
0010
0001
1000
0001
0100
0000
0010
0000
0100
0000
,
0010
1000
0001
1000
0100
0010
0001
1000
,
0001
0000
0100
0000
0010
1000
0010
0100
0001
1000
0010
1000
0001
0000
1000
0000
,
0001
0000
0000
1000
0100
0010
0001
1000
0010
0200
0000
0000
,
0340
0000
0000
0000
1030
0000
0000
0000
0002
0000
0000
0000
1003
0010
0100
0001
,
1000
0010
1000
0001
1000
0100
1000
0001
0010
0100
0010
0001
1000
0100
0010
0100
,
1000
0001
0010
0001
1000
0001
0100
0001
1000
0010
0100
0001
1000
0010
0100
0010
,
1000
0001
0100
0001
1000
0010
1000
0001
1000
0100
0010
0001
1000
0100
0010
0001
,
1000
0001
0100
0001
1000
0000
0010
0000
4000
0000
3000
0000
0001
0100
0010
0100
,
0001
1000
0001
0100
0001
1000
0001
0010
0100
1000
0001
0010
0100
1000
0001
1000
,
0010
1000
0001
0100
0010
1000
0001
1000
0100
1000
0001
0100
0010
1000
0001
0100
,
0010
0100
0001
1000
0001
0010
0001
1000
0100
0010
0001
1000
0001
0000
0000
0000
,
0000
0000
0000
0000
0000
0000
0000
0000
0000
0000
0000
0000
1000
0001
0100
0010
,
0100
0001
0100
0010
1000
0001
1000
0100
1000
0001
0010
0100
1000
0001
0010
0100
,
1000
0001
0100
0001
1000
0001
0100
0001
4000
0000
0000
0000
3001
0100
0010
0100
,
0001
0000
0000
0100
0000
0000
0010
0000
0000
1000
0000
0000
0001
0000
0000
0000
0100
0000
0000
0000
0001
0000
0000
0000
1000
0000
0000
0000
0100
0000
0000
0000
0010
0000
0000
0000
0001
0000
0000
0000
1000
0000
0000
0000
0001
0000
0000
0000
,
1000
0000
0000
0000
0001
1000
0001
0100
0040
0000
0000
0030
0100
0010
1000
0010
,
0100
0001
1000
0010
1000
0001
1000
0100
0010
0100
1000
0001
0010
0100
1000
0001
,
0010
0100
1000
0001
0100
0001
1000
0001
0100
0010
1000
0001
1000
0000
0MM0
0000
,
M00M
0MM0
0001
0000
1000
0100
0020
0000
,
0000
0030
0000
0000
;

//---------------dance-single - Mad Matt----------------
#NOTES:
     dance-single:
     Mad Matt:
     Hard:
     17:
     1.000,1.000,0.212,0.188,1.000,1209.000,27.000,24.000,26.000,0.000:

1000
0001
1000
0001
0010
0200
0310
0200
,
0310
0001
1000
1000
0001
0100
0010
0010
,
1000
0001
0010
0001
0100
0001
1000
1000
,
0001
1000
0001
0001
0010
0100
1000
1000
,
0001
0010
0001
0010
0100
2000
3100
2000
,
3001
0100
0001
0001
0010
0100
1000
1000
,
0002
0003
0020
0230
,
2300
0000
0000
0000
0000
0000
0000
0000
3000
0000
0000
0000
0000
0000
0000
0000
0004
0000
0000
0000
0000
0000
0000
0000
4003
0000
0000
0000
0000
0000
0000
3000
,
0MM1
1000
0001
0010
0100
0010
0100
1000
,
0100
0000
1000
0000
0001
0000
1000
0000
0001
1000
0100
0010
0001
1000
0010
0100
,
0010
1000
0010
1000
0100
0010
0100
1000
,
0100
0000
0010
0000
0001
0000
0100
0000
0010
0000
1000
0001
1000
0000
0001
0100
,
0001
1000
0001
0100
0001
1000
0010
0100
,
0001
0000
0000
0000
1000
0000
0000
0000
0001
1000
0010
0100
0001
1000
0100
0010
,
0400
0300
4000
0000
3010
0100
0010
0100
,
0001
0000
0100
0000
0010
0000
1000
0000
0001
1000
0100
0010
0001
1000
0010
0100
,
0010
1000
0001
1000
0100
0010
0001
1000
,
0100
0000
0010
0000
0001
0000
1000
0000
0040
0000
0000
0000
0130
0001
0100
0000
,
0001
1000
0100
0010
0001
0100
0010
1000
,
0001
0000
1000
0000
0001
0000
0010
0000
0001
0100
0010
0100
0001
0000
4000
0000
,
3010
0100
0010
0100
0001
1000
0001
0010
,
0100
0000
0010
0000
0001
0000
1000
0000
0001
1000
0010
0100
0001
1000
0100
0010
,
0100
0000
0000
0000
0000
0000
0000
0000
0010
0001
1000
0010
0100
0010
1000
0001
,
0040
0000
0230
0000
1300
0001
1000
0000
,
0001
0100
0010
0100
0001
1000
0100
0010
0001
1000
0100
0010
0001
1000
0010
0100
,
0010
1000
0001
0010
0100
1000
0001
0010
0100
1000
0001
0100
0010
0100
0001
1000
,
0100
0010
0001
1000
0100
0010
0001
1000
0010
0100
0010
1000
0001
0010
0100
1000
,
0001
0010
0100
1000
0001
0100
0010
0100
0001
0000
1000
0000
0004
0000
0003
0000
,
1000
0100
0010
0100
1000
0001
0100
0010
1000
0001
0100
0010
1000
0001
0010
0100
,
0010
0001
1000
0010
0100
0001
1000
0010
0100
0001
1000
0100
0010
0100
1000
0001
,
0100
0010
1000
0001
0100
0010
1000
0001
0010
0100
0010
0001
1000
0010
0100
0001
,
2M00
0000
00M0
0000
0M00
0000
00M0
0000
3001
0100
0010
0100
0001
1000
0100
0010
,
0001
1000
0100
0010
0100
1000
0001
0100
0010
1000
0001
0100
0010
0100
0001
1000
,
0100
0010
0001
1000
0100
0010
0100
1000
0001
0000
1000
0000
0100
0000
1000
0000
,
0001
0000
1000
0000
0100
0000
0010
0000
0001
0000
1000
0000
0010
0100
0010
0000
,
1000
0000
0001
0000
4000
0000
3000
0000
0001
1000
0100
0010
0100
1000
0001
0010
,
0100
0010
0001
1000
0010
0100
0010
1000
0001
0100
0010
0100
0001
1000
0100
0010
,
0100
1000
0001
0010
0100
0010
0001
1000
0010
0000
1000
0000
0100
0000
0010
0000
,
0001
0010
0100
0010
0004
0000
0000
0003
M000
0000
0M00
00M0
0001
0000
0000
0000
,
1000
0000
1100
0000
0100
1000
0001
0010
,
0100
0000
1100
0000
1000
0001
0100
0000
,
0010
0000
0110
0000
0100
0001
0010
0100
,
1000
0000
1100
0100
0010
0001
1000
0001
,
0010
0000
0110
0000
0100
1000
0001
0100
,
0001
0000
0000
0000
0101
0000
0000
0000
1000
0010
0100
0010
1000
0000
0000
0000
,
0001
0000
0011
0000
0010
0001
1000
0001
,
0100
0000
0000
0000
0001
0100
0010
1000
0001
1000
0100
0010
0100
0000
0000
0000
,
1000
0000
1001
0000
0001
0010
0100
0010
,
0001
0000
1001
0000
1000
0010
0100
0000
,
0010
0000
0110
0000
0100
0001
0010
0100
,
1000
0000
1100
0100
0010
0001
1000
0000
,
0010
0000
0110
0000
0100
0001
0010
0100
,
1000
0000
0000
0000
1100
0000
0000
0000
0100
0010
0100
1000
0001
0000
0000
0000
,
0010
0000
0000
0000
0100
0000
0000
0000
1000
0000
0000
0000
0001
1000
0010
0100
,
0001
0000
0000
0000
0200
0000
0000
0000
0302
0000
0000
0003
1000
0000
0001
0000
,
1000
0001
0100
0010
1000
0001
1000
0001
,
0010
0000
0001
0000
1000
0000
0100
0000
1000
0000
0001
0100
0001
0000
1000
0000
,
0100
0000
1000
0000
0100
0000
0010
0000
0100
0000
0010
0001
1000
0000
0010
0000
,
0100
0000
0001
1000
0010
0100
0001
1000
0100
0010
0100
1000
0002
0000
0000
0000
,
4003
0000
3001
0100
0001
1000
0001
1000
,
0001
0000
0010
0000
0001
0000
1000
0000
0100
0000
0010
0001
1000
0000
0001
0000
,
1000
0000
0010
0000
0100
0000
0001
0000
1000
0000
0001
1000
0002
0000
0000
0003
,
0000
0000
0000
0000
0020
0000
0000
0030
0400
0000
0000
0000
1300
0000
0001
0000
,
0100
0000
0001
0000
1000
0000
0001
0000
1000
0000
0001
1000
0001
0000
1000
0000
,
0001
0000
1000
0000
0100
0000
0010
0000
0001
0000
1000
0010
1000
0000
0001
0000
,
0100
0000
0010
0000
1000
0000
0001
0000
0100
0000
0001
1000
0001
0000
0010
0000
,
0001
1000
0040
0030
0400
0300
0001
1000
,
0001
0000
0010
0000
0001
0000
1000
0000
0001
0000
0010
0001
0010
0000
0001
0000
,
1000
0000
0000
0010
0000
0000
1000
0000
0010
0000
1000
0000
0001
0000
0100
0000
0010
0000
4000
0000
0000
0000
0000
0000
,
3002
0000
0043
0000
0430
0000
1300
0001
,
1000
0100
0010
0001
0100
0001
1000
0001
,
1000
0001
0010
0200
0310
0200
0310
0001
,
1000
1000
0001
0100
0010
0010
1000
0001
,
0010
0001
0100
0001
1000
1000
0001
1000
,
0001
0001
0010
0100
1000
1000
0001
0010
,
0001
0010
0100
2000
3100
2000
3001
0100
,
0001
0001
0010
0100
1000
1000
0001
0100
,
0001
0100
0010
1000
0001
0001
0010
0100
,
1000
1000
0001
0100
0010
0010
1000
0001
,
0000
1000
0100
1000
0000
0001
0000
0100
,
0000
0001
1000
0100
0000
0000
1000
0001
,
0000
0000
0100
0000
0001
0000
0000
0000
1000
0001
1000
0000
0000
0000
0001
0000
,
0000
0000
1000
0000
0001
0010
0100
1000
0001
1000
0010
0100
0010
0000
1000
0000
,
0000
0001
0010
0100
0000
1000
0000
0001
,
0000
0100
0010
1000
0000
0000
0001
1000
,
0000
0000
0001
0000
1000
0000
0001
0000
0100
0001
0100
0000
0001
0000
0010
0000
,
0100
1000
0100
0010
0004
0000
1003
0010
,
1000
0001
1000
0001
0010
0001
1000
0001
,
1000
0000
0001
0000
1000
0001
0100
0010
1000
0001
0010
0100
0010
0000
0001
0000
,
1000
0000
0001
0000
1000
0000
0001
0000
0010
0001
0010
0000
0001
0000
0010
0000
,
0001
0000
0000
1000
0000
0000
0010
0000
1000
0000
0001
0000
0100
0000
0001
0000
1000
0000
0100
0000
0000
0000
0000
0000
,
0010
0000
0001
0000
0010
0000
0001
0000
1000
0000
0001
1000
0001
0000
1000
0000
,
0001
0000
1000
0000
0001
0010
0100
0010
0001
1000
0001
0100
0010
0000
0000
0000
,
1000
0000
0100
0000
0010
0000
0100
0000
1000
0100
0010
0001
1000
0000
0000
0000
,
0010
0000
0000
0000
0100
0010
0100
0001
1000
0001
0010
0100
1000
0000
0001
0000
,
1000
0010
1000
0001
1000
0001
0010
0100
,
1000
0000
0001
0000
1000
0001
0100
0010
1000
0001
1000
0100
0010
0000
0100
0000
,
0010
0000
0001
0000
1000
0000
0001
0000
0100
0001
0100
0000
0001
0000
0100
0000
,
0010
0000
1000
0000
0100
0010
0001
1000
0001
0100
0010
0100
0001
0000
0100
0000
,
0001
0100
0010
1000
0001
1000
0001
0100
,
0010
0000
0100
0000
0001
1000
0010
0100
0001
1000
0100
0010
0100
0000
1000
0000
,
0010
0000
0100
0000
0001
0000
1000
0000
0001
1000
0010
1000
0001
0000
0000
0000
,
MMMM
0000
0M00
M0MM
0M0M
M000
0001
0100
,
0001
1000
0100
0010
0001
1000
0001
0010
,
0001
0000
1000
0000
0001
0100
0010
0100
0001
1000
0001
0010
0100
1000
0001
0010
,
0100
1000
0001
0100
0010
0000
0100
0000
0010
0000
1000
0000
0001
0000
1000
0000
,
0010
0000
1000
0000
0100
1000
0001
1000
0100
0000
1000
0000
0100
0000
0010
0000
,
0001
1000
0001
0100
0010
1000
0001
0000
,
0010
0000
0000
0000
0001
1000
0010
0100
0001
1000
0100
1000
0002
0000
0000
0000
,
0043
0000
0031
0010
0001
0100
0010
0100
,
0001
0000
1000
0000
0001
0100
0010
0100
0001
1000
0001
0010
0100
0000
1000
0000
,
0001
0010
0001
1000
0001
1000
0010
0100
,
0001
0000
1000
0000
0010
0100
0010
1000
0004
0000
0000
0000
0103
0000
0001
0000
,
1000
0001
0100
0001
1000
0001
0010
0100
,
1000
0000
0001
0000
1000
0100
0010
0100
1000
0001
0100
0000
0010
0000
0100
0000
,
0010
1000
0001
1000
0100
0010
0001
1000
,
0001
0000
0100
0000
0010
0100
0001
1000
0001
0010
0100
0010
0001
0000
1000
0000
,
0001
0000
0000
1000
0100
0010
0001
1000
0010
0200
0000
0000
,
0340
0000
0000
0000
1030
0000
0000
0000
0002
0000
0000
0000
1003
0010
0100
0001
,
1000
0100
0010
0100
1000
0001
0100
0010
1000
0001
0100
0010
1000
0001
0010
0100
,
0010
0001
1000
0010
0100
0001
1000
0010
0100
0001
1000
0100
0010
0100
1000
0001
,
0100
0010
1000
0001
0100
0010
1000
0001
0010
0100
0010
0001
1000
0010
0100
0001
,
1000
0010
0100
0001
1000
0000
0010
0000
4000
0000
3000
0000
0001
0100
0010
0100
,
0001
1000
0100
0010
0001
1000
0100
0010
0001
1000
0010
0100
0010
1000
0001
0010
,
0100
1000
0001
0010
0100
1000
0001
0100
0010
0100
0001
1000
0100
0010
0001
1000
,
0100
0010
0001
1000
0010
0100
0010
1000
0001
0010
0100
1000
0001
0000
0000
0000
,
0000
0000
0000
0000
0000
0000
0000
0000
0000
0000
0000
0000
1000
0100
0010
0100
,
1000
0001
0100
0010
1000
0001
0100
0010
1000
0001
0010
0100
0010
0001
1000
0010
,
0100
0001
1000
0010
0100
0001
1000
0100
4000
0000
0000
0000
3001
0100
0010
0100
,
0001
0000
0000
1000
0000
0000
0100
0000
0000
0010
0000
0000
0001
0000
0000
0000
0100
0000
0000
0000
0001
0000
0000
0000
1000
0000
0000
0000
0100
0000
0000
0000
0010
0000
0000
0000
0001
0000
0000
0000
1000
0000
0000
0000
0001
0000
0000
0000
,
1000
0000
0000
0000
0001
0100
0001
1000
0400
0000
0000
0000
1300
0001
0100
0010
,
1000
0001
0100
0010
1000
0001
0010
0100
0010
0001
1000
0010
0100
0001
1000
0010
,
0100
0001
1000
0100
0010
0100
1000
0001
0100
0010
1000
0001
1000
0000
0MM0
0000
,
M00M
0MM0
0001
0000
1000
0100
0020
0000
,
0000
0030
0000
0000
;
