#TITLE:Stupid Ducks (Bosque Aroma version);
#SUBTITLE:;
#ARTIST:Bosque Aroma;
#TITLETRANSLIT:;
#SUBTITLETRANSLIT:;
#ARTISTTRANSLIT:;
#CREDIT:Arch0wl;
#BANNER:stupidducks-bn.png;
#BACKGROUND:stupidducks-bg.png;
#LYRICSPATH:;
#CDTITLE:!Arch0wlTitle.png;
#MUSIC:stupidducksbosquearomaversion.ogg;
#OFFSET:-0.294;
#SAMPLESTART:12.905;
#SAMPLELENGTH:11.851;
#SELECTABLE:YES;
#BPMS:0.000=162.000;
#STOPS:;
#BGCHANGES:0.000=stupidducks-bg.png=1.000=0=0=1,
99999=-nosongbg-=1.000=0=0=0 // don't automatically add -songbackground-
;
// cache tags:
#FIRSTBEAT:2.000;
#LASTBEAT:289.500;
#SONGFILENAME:Songs/Archmage and Dark0wl Hammer of Thor UltraHyperMegaPack/Stupid Ducks (Bosque Aroma version)/stupidducksbosquearomaversion.sm;
#HASMUSIC:1;
#HASBANNER:1;
#MUSICLENGTH:105.000;
// end cache tags

//---------------dance-single - Arch0wl----------------
#NOTES:
     dance-single:
     Arch0wl:
     Medium:
     9:
     0.592,0.689,0.143,0.010,0.129,419.000,15.000,1.000,0.000,0.000:
0000
0000
0000
0000
0100
1000
0000
1000
,
0000
1000
0001
0000
0000
0000
0100
0010
,
0100
0001
0100
0010
1000
0100
0000
0100
,
0000
0100
0010
0000
0000
0000
0100
1000
,
0010
0000
0010
0000
0100
0001
0000
0001
,
0000
0001
1000
0000
0000
0000
0010
0001
,
0010
0100
0010
0001
0010
1000
0000
1000
,
0000
1000
0010
0000
0000
0000
0100
0001
,
1000
0000
0000
0000
1000
0000
0000
0000
0001
0000
0010
0001
0010
0000
0100
0000
,
1000
0000
0100
0000
0010
0000
0100
1000
0100
0000
1000
0000
0100
0000
0010
0000
,
0001
0000
1000
0000
0010
0000
0100
0000
0001
0000
0010
0001
0010
0000
0100
0000
,
1000
0000
0100
0000
0010
0000
0100
1000
0100
0000
1000
0000
0010
0000
0100
0000
,
0001
0000
0000
0000
0001
0000
0000
0000
1000
0000
0010
0100
0010
0000
1000
0000
,
0100
0000
1000
0000
0001
0000
0100
0010
0100
0000
0001
0000
0010
0000
0100
0000
,
1000
0000
0010
0000
1000
0000
0100
0000
0010
0000
0001
0100
0001
0000
1000
0000
,
0010
0000
0100
0000
0001
0000
0010
0100
0010
0000
0001
0000
1000
0000
0100
0000
,
0010
0000
0010
0000
0001
1000
0000
1000
,
0000
1000
0010
0000
0000
0000
0100
0001
,
0100
0010
0100
0001
1000
0100
0000
0100
,
0000
0100
0010
0000
0000
0000
0001
0100
,
0001
0000
0001
0000
1000
0010
0000
0010
,
0000
0010
0100
0000
0000
0000
0001
0010
,
0001
0100
0001
0010
0100
1000
0000
1000
,
0000
1000
0010
0000
0000
0000
0100
0001
,
0100
0000
0100
0000
1010
0000
0100
0001
,
0100
0010
0100
0001
0100
0010
0100
0001
,
0100
0010
0000
0010
0000
1000
0100
0000
,
1100
0000
0110
0000
0000
0001
0000
0001
,
0010
0100
1000
0000
0000
0010
0100
0001
,
0000
0001
0000
1000
0000
1000
0000
0100
,
1000
0000
1000
0010
0100
0000
0000
0100
,
0000
0000
0000
0100
0000
0100
0010
0000
,
1010
0000
0101
0000
,
0000
0000
0000
0000
0001
0100
0010
1000
,
0000
0100
0000
1000
0000
0100
0000
0010
,
0000
0000
0000
0000
0000
0000
0100
0010
,
0001
0000
0000
0001
0000
0000
0100
0000
0001
0000
0000
0000
0000
0000
1000
0000
,
0000
0000
0000
0100
0000
1000
0010
0000
,
0010
0000
0000
0000
0100
0000
0000
0100
,
0000
0000
0000
0001
0000
0001
0100
0000
,
0100
0000
0000
0000
0010
0000
0100
1000
,
0100
0010
0100
1000
0100
0010
0100
1000
,
0100
0001
0000
0001
0000
0001
1000
0000
,
0010
0000
0010
0000
0000
0100
0000
0100
,
0001
1000
0100
0000
0000
1000
0010
0100
,
0000
0100
0000
0001
0000
0001
0000
0001
,
1000
0000
1000
0010
0100
0000
0000
0100
,
0000
0000
0000
0001
0000
0001
1000
0000
,
1000
0000
1001
0000
,
0000
0000
0000
0000
1000
0100
0010
0001
,
0000
1000
0000
1000
0000
0010
0000
0010
,
0000
0000
0000
0000
0000
0000
0100
0001
,
0011
0000
0000
0110
0000
0000
0110
0000
0011
0000
0000
0000
0000
0000
0001
0000
,
0000
0000
0000
1000
0000
1000
0010
0000
,
0020
0000
0000
0000
0000
0000
1030
0100
0010
0000
0000
0000
0000
0000
0010
0000
,
0000
0000
0000
0010
1001
0000
1001
0000
,
1001
0000
0000
0000
1001
0000
0000
0000
1001
0000
0100
1000
0100
0000
0010
0000
,
0001
0000
0010
0000
0100
0000
0010
0001
0010
0000
0001
0000
0010
0000
0100
0000
,
1000
0000
0001
0000
0100
0000
0010
0000
1000
0000
0100
1000
0100
0000
0010
0000
,
0001
0000
0010
0000
0100
0000
0010
0001
0010
0000
0001
0000
0100
0000
0010
0000
,
1000
0000
0000
0000
1000
0000
0000
0000
0001
0000
0100
0010
0100
0000
0001
0000
,
0010
0000
0001
0000
1000
0000
0010
0100
0010
0000
1000
0000
0100
0000
0010
0000
,
0001
0000
0100
0000
0001
0000
0010
0000
0100
0000
1000
0010
1000
0000
0001
0000
,
0100
0000
0010
0000
1000
0000
0100
0010
0100
0000
1000
0000
0001
0000
0010
0000
,
0100
0000
0000
0000
0100
0000
0000
0000
1000
0000
0100
1000
0100
0000
0010
0000
,
0001
0000
0010
0000
0100
0000
0010
0001
0010
0000
0001
0000
0010
0000
0100
0000
,
1000
0000
0001
0000
0100
0000
0010
0000
1000
0000
0100
1000
0100
0000
0010
0000
,
0001
0000
0010
0000
0100
0000
0010
0001
0010
0000
0001
0000
0100
0000
0010
0000
,
1000
0000
0000
0000
1000
0000
0000
0000
0001
0000
0100
0010
0100
0000
0001
0000
,
0010
0000
0001
0000
1000
0000
0010
0100
0010
0000
1000
0000
0100
0000
0010
0000
,
0001
0000
0100
0000
0001
0000
0010
0000
0100
0000
1000
0010
1000
0000
0001
0000
,
0100
0000
0010
0000
1000
0000
0100
0010
0100
0000
1000
0000
0001
0000
0010
0000
,
0100
0100
0100
0100
0000
0000
0000
0000
;

//---------------dance-single - Arch0wl----------------
#NOTES:
     dance-single:
     Arch0wl:
     Hard:
     12:
     0.838,0.931,1.000,0.057,0.129,424.000,186.000,6.000,0.000,0.000:
0000
0000
0000
0000
0101
1000
0000
1000
,
0000
1000
0101
0000
0000
0000
0101
0110
,
0101
1001
0101
0110
1010
0100
0000
0100
,
0000
0100
1010
0000
0000
0000
1010
0100
,
1001
0000
1001
0000
0110
0001
0000
0001
,
0000
0001
0110
0000
0000
0000
1010
1001
,
1010
0110
1010
1100
1010
0001
0000
0001
,
0000
0001
1010
0000
0000
0000
0101
0010
,
1001
0000
0000
0000
1001
0000
0000
0000
1100
0000
0010
0001
0010
0000
0101
0000
,
1000
0000
0100
0000
0011
0000
0100
1000
0100
0000
1001
0000
0100
0000
0010
0000
,
0101
0000
1000
0000
0011
0000
0100
0000
1001
0000
0010
1000
0010
0000
1100
0000
,
0001
0000
0100
0000
0011
0000
0100
1000
0100
0000
1001
0000
0010
0000
0100
0000
,
1001
0000
0000
0000
1001
0000
0000
0000
1100
0000
0010
0100
0010
0000
0101
0000
,
1000
0000
0100
0000
0011
0000
0100
0010
0100
0000
1001
0000
0010
0000
0100
0000
,
1001
0000
0010
0000
1100
0000
0001
0000
1010
0000
0001
0100
0001
0000
1010
0000
,
0001
0000
0100
0000
1001
0000
0010
0100
0010
0000
1100
0000
0001
0000
0100
0000
,
1001
0001
1001
1000
0110
1000
0000
1000
,
0000
1000
0110
0000
0000
0000
0101
1001
,
0101
0110
0101
0011
1001
0100
0000
0100
,
0000
0100
1001
0000
0000
0000
0001
0100
,
1001
0000
1001
0000
1100
0010
0000
0010
,
0000
0010
1100
0000
0000
0000
0101
0011
,
0101
0110
0101
1001
0011
0100
0000
0100
,
0000
0100
0011
0000
0000
0000
0100
0010
,
1001
0000
1001
0000
2010
0000
0010
0001
,
0100
0001
0010
0001
0100
0001
0010
3001
,
0100
0110
0000
0110
0000
0100
1100
0000
,
0110
0000
1100
0000
0000
1001
0000
0001
,
0010
0100
1001
0000
0000
0011
0010
1100
,
0000
1100
0000
1001
0000
1001
0000
0100
,
1001
0000
0100
0010
1001
0000
0000
0110
,
0000
0000
0000
1001
0000
0100
1001
0000
,
1001
0000
2010
0000
,
0000
0000
0000
3000
0001
0100
0010
1010
,
0000
0110
0000
0101
0000
0110
0000
0011
,
0000
0000
0000
0000
0000
0000
0100
0010
,
1010
0000
0000
0011
0000
0000
0110
0000
1001
0000
0000
0000
0000
0000
1001
0000
,
0000
0000
0000
0101
0000
0100
1001
0000
,
1001
0000
0000
0000
0001
0000
0000
0010
,
0000
0000
0000
1000
0000
1000
0010
0000
,
0010
0000
0000
0000
0002
0000
1000
0010
,
1000
0100
1000
0010
1000
0100
1000
0013
,
0100
0101
0000
0101
0000
0100
0110
0000
,
1010
0000
0110
0000
0000
0101
0000
0001
,
1000
0010
0101
0000
0000
1010
0010
0101
,
0000
0101
0000
0011
0000
0011
0000
0100
,
0011
0000
1000
0010
0101
0000
0000
1010
,
0000
0000
0000
0101
0000
0010
1100
0000
,
1100
0000
1002
0000
,
0000
0000
0000
0003
1000
0100
0010
0001
,
0000
1000
0000
1000
0000
0010
0000
0010
,
0000
0000
0000
0000
0000
0000
0100
0001
,
0011
0000
0000
0110
0000
0000
0110
0000
0011
0000
0000
0000
0000
0000
0001
0000
,
0000
0000
0000
1000
0000
1000
0010
0000
,
0020
0000
0000
0000
0000
0000
1030
0100
0020
0000
0000
0000
0000
0000
0100
0000
,
0000
0000
0000
0130
1001
0000
1001
0000
,
1001
0000
0000
0000
1001
0000
0000
0000
1001
0000
0100
1000
0100
0000
1010
0000
,
0001
0000
0010
0000
1100
0000
0010
0001
0010
0000
1001
0000
0010
0000
0100
0000
,
1010
0000
0001
0000
1100
0000
0010
0000
1001
0000
0100
1000
0100
0000
1010
0000
,
0001
0000
0010
0000
1100
0000
0010
0001
0010
0000
1001
0000
0100
0000
0010
0000
,
1001
0000
0001
0000
1001
0000
1000
0000
0011
0000
0100
0010
0100
0000
1001
0000
,
0010
0000
0001
0000
1100
0000
0010
0100
0010
0000
1001
0000
0100
0000
0010
0000
,
1001
0000
0100
0000
1010
0000
0001
0000
0110
0000
1000
0010
1000
0000
0011
0000
,
0100
0000
0010
0000
1001
0000
0100
0010
0100
0000
1010
0000
0001
0000
0010
0000
,
1100
0000
0100
0000
1100
0000
0000
0000
1001
0000
0100
1000
0100
0000
1010
0000
,
0001
0000
0010
0000
1100
0000
0010
0001
0010
0000
0101
0000
0010
0000
0100
0000
,
1010
0000
1001
0000
1100
0000
0010
0000
1001
0000
0100
1000
0100
0000
1010
0000
,
0001
0000
0010
0000
1100
0000
0010
0001
0010
0000
1001
0000
0100
0000
0010
0000
,
1001
0000
0000
0000
1001
0000
0000
0000
0011
0000
0100
0010
0100
0000
1001
0000
,
0010
0000
0001
0000
1100
0000
0010
0100
0010
0000
1001
0000
0100
0000
0010
0000
,
1001
0000
0010
0000
0101
0000
0110
0000
0101
0000
1000
0010
1000
0000
0011
0000
,
0100
0000
0010
0000
1001
0000
0100
0010
0100
0000
1010
0000
0001
0000
0010
0000
,
0110
0110
0110
0110
0000
0000
0000
0000
;
