#TITLE:Gag 100 kai bun Aishite Kudasai;
#SUBTITLE:HIRO Original;
#ARTIST:BerryZ Koubou;
#TITLETRANSLIT:;
#SUBTITLETRANSLIT:;
#ARTISTTRANSLIT:;
#CREDIT:;
#BANNER:berryzbanner.png;
#BACKGROUND:berryzBG.png;
#LYRICSPATH:;
#CDTITLE:HIRO CD TITLE.png;
#MUSIC:01 - Gag 100 kai bun Aishite Kudasai.mp3;
#OFFSET:-6.960;
#SAMPLESTART:46.224;
#SAMPLELENGTH:12.000;
#SELECTABLE:YES;
#BPMS:0.000=164.840;
#STOPS:511.500=1.092
;
#BGCHANGES:;
// cache tags:
#FIRSTBEAT:0.000;
#LASTBEAT:596.000;
#SONGFILENAME:Songs/new/Gag 100 kai bun Aishite Kudasai/Gag 100 kai bun Aishite Kudasai.sm;
#HASMUSIC:1;
#HASBANNER:1;
#MUSICLENGTH:230.951;
// end cache tags

//---------------dance-single - ----------------
#NOTES:
     dance-single:
     :
     Hard:
     10:
     0.792,0.871,0.853,0.325,0.245,995.000,197.000,75.000,0.000,15.000:

1000
1000
1000
1000
0010
0001
1000
0100
,
0010
0000
0100
0001
0010
0000
0100
1000
0001
0000
0000
0000
1111
0000
0000
0000
,
1000
0010
1000
0001
1000
0010
0001
0010
1001
0000
0000
0000
1001
0000
0000
0000
,
0001
1000
0001
1000
0001
1000
0001
0000
0110
0000
0000
0000
1111
0000
0000
0000
,
0001
1000
0010
0001
1000
0000
0001
0000
,
1000
0001
0000
1000
0001
0000
0100
0000
,
0010
0000
1000
0000
0001
0100
1000
0000
,
0010
0001
0100
0010
0001
0010
0100
0000
,
2002
3003
0220
0330
2200
3300
0022
0000
,
0033
0010
0001
0100
1001
0000
0010
0100
,
1001
0100
0010
0100
1001
0000
0110
0000
,
0100
0000
0100
0000
1000
0010
1001
0000
,
1000
1000
0001
0001
0100
0100
0002
0000
,
0003
0100
0010
1000
1010
0000
0000
0000
,
0100
0001
0101
0000
1000
0000
0001
0010
,
0000
1001
0000
1000
1001
0100
0010
0000
,
1001
0000
0011
0000
0100
0010
0001
0010
,
0000
0101
0000
0110
1001
0000
1010
0000
,
1000
0000
0001
0000
1000
0100
0010
0001
,
0000
0110
0000
0100
0010
0001
1001
0000
,
0100
0010
0001
0010
1001
0100
0010
1000
,
0010
0101
1100
0011
1100
0000
0200
0010
,
0302
0000
0013
0000
1000
0010
0101
0000
,
0101
0010
0001
0100
1001
0100
1001
0000
,
2000
3201
1302
0023
,
0030
1000
0000
0001
1000
0000
1001
0000
,
1000
0000
0010
0000
0001
0000
0100
0000
0001
1000
0001
1000
0001
0000
1001
0000
,
0011
0100
1000
0100
0011
0000
2000
0000
,
3002
0000
0103
1000
0100
0010
0000
1000
,
0000
0000
0010
0100
0001
0010
0100
0010
1001
0000
0010
0000
1001
0000
1000
0000
,
0100
0000
0001
0000
0100
0000
1000
0000
0100
0000
0001
0100
0001
0100
0001
0100
,
1001
1000
1001
0001
1001
0000
1001
0000
,
0110
0000
1000
0001
1000
0000
0110
0000
1001
0000
0000
0000
1001
0000
0000
0000
,
1001
0000
0010
0001
0010
0001
0100
0000
1000
0010
0000
1000
0010
0000
0100
0000
,
1001
1000
0010
0001
0110
1000
0100
0010
,
1001
1010
1001
0000
1001
1100
1001
0000
,
1000
0100
0001
0100
1000
0010
1001
0100
,
0010
0000
1001
0000
1100
0000
0000
0000
1000
0001
1000
0100
1001
0000
0000
0000
,
0010
0000
0010
0100
1000
0100
0001
0001
,
1000
1001
0100
0020
0000
0030
0001
0100
,
1000
0010
0001
1000
1000
1001
0110
0000
,
1001
0100
0011
0000
0000
1010
1001
0000
,
1000
0000
0001
0000
0100
0010
1001
0100
,
0010
1000
1001
0000
0001
0100
1001
0000
,
0010
0000
1000
0100
0010
0100
1001
0100
,
0001
0010
0001
0000
1000
0100
1000
0000
0001
1000
0001
0000
0020
0000
0000
0030
,
0100
0000
1001
0000
0000
0000
0001
0100
0010
0000
0001
0000
1001
0000
0110
0000
,
1000
0100
0010
0001
0010
0001
0200
0000
0300
0000
0000
0000
0001
0000
0010
0000
,
1000
0100
1001
0100
0010
1000
0001
0000
,
1000
0010
0100
0000
0000
1000
1001
0000
,
1000
0001
1000
0000
0100
0000
1000
0000
0100
0000
0010
0000
1001
0000
0000
0000
,
1000
0100
0011
0000
0000
1010
0110
0000
,
0101
0110
0000
1010
0110
0000
1001
0000
,
1000
0000
1000
0000
1000
0000
1000
0000
1001
0000
0100
0000
1000
0100
0010
0001
,
1000
0100
0010
0001
1000
0000
1000
0000
1001
0000
0000
0000
1111
0000
0000
0000
,
1100
0000
0010
0100
0010
0000
0001
0000
1001
0000
0100
0000
0010
0100
1000
0100
,
0010
0000
0100
1000
0010
0000
1001
0000
1001
0000
0000
0000
1111
0000
0000
0000
,
1000
0100
0010
0000
0001
0010
0100
0000
1000
0100
0010
0000
0001
0010
0100
0000
,
1000
1001
0000
0001
1001
0000
2000
0010
,
3102
0000
0013
0000
0001
1000
0110
0000
,
0001
0000
1000
0000
0010
0000
0100
0000
1000
0000
0001
0100
0010
0000
1000
0000
,
1001
0000
0100
0000
0001
0010
0000
0000
1000
0010
0000
0000
1002
0000
0000
0003
,
0000
0100
0010
0100
1001
0000
1000
1000
,
1000
0100
0010
0001
0010
0100
1000
0100
0010
0000
0010
0000
1000
0000
0000
0000
,
1001
0100
1001
0010
1000
1000
0010
0000
,
1001
0110
0010
1000
1100
0010
2000
0000
,
0000
3000
0001
0010
0100
1000
0100
0010
0001
0000
0000
0000
0000
0000
0000
0000
,
1001
0000
0010
0000
0100
1000
0100
0010
,
0000
0100
0010
0001
0001
1000
1001
0000
,
1002
0100
1003
0001
0100
0001
0100
1001
,
0000
0001
1001
0100
0011
0000
1100
0000
,
1001
0000
0100
0001
0100
1000
1000
1000
,
0000
1001
0000
0010
1000
0010
1001
0000
,
0100
2002
3023
2030
,
3000
0000
1000
0100
1000
0001
0010
0001
1000
0000
0000
0000
1000
0000
1000
0000
,
0100
0001
0100
0010
0001
0000
1001
0000
,
0010
0000
0110
0000
1100
0100
0100
0000
,
0120
0130
0012
2003
,
3000
1000
0000
0001
1000
0000
0020
0000
,
1030
0010
0001
0000
0010
0000
1000
0100
,
0002
0000
0000
0000
0003
0000
0001
0010
,
0101
1000
1010
0100
0001
1000
0000
1001
,
0000
1000
0011
1000
0011
1000
1001
1010
,
2002
0000
3003
1000
0100
0100
0001
1001
,
1000
0000
0100
0000
1000
0100
0010
0001
1000
0000
0000
0000
0001
0000
1000
0000
,
1001
0000
0100
0001
0100
0001
0100
0001
1001
0000
0000
0000
0001
0000
0000
0000
,
0001
0000
0100
0001
0100
1000
0000
0000
1000
0001
0000
0100
0002
0000
0010
0003
,
2000
0000
0000
3000
1001
0000
0110
0000
1000
0000
0010
0000
0001
0000
0100
0000
,
1000
0100
0010
0001
1001
0000
0000
0000
1000
0100
0010
0001
1001
0000
0000
0000
,
0100
0000
0000
0000
0001
0000
0000
0010
0100
0000
0010
0000
1000
0000
0100
0000
,
0001
0000
1000
0000
0010
0000
0001
0000
0100
1000
0100
1000
0110
0000
0000
0000
,
2000
0000
0000
3000
0200
0000
0000
0300
0020
0000
0000
0030
0002
0000
0000
0003
,
0100
1000
0100
1000
0100
0010
0002
0000
0000
0000
0000
0000
0013
0000
0100
0000
,
1000
0001
0100
1000
,
0010
1000
1100
0000
0000
0100
1100
0000
,
0002
0003
0200
0300
2000
3000
0001
0010
,
0100
1001
1100
0000
0010
0011
0100
0000
,
2002
3003
2020
3030
0100
0000
1000
0000
,
0010
0010
0001
0000
1000
1000
1001
0000
,
1100
0011
0110
1100
,
1000
0100
0010
0001
0010
0100
2000
0000
0000
0000
3000
0000
1000
0000
0100
0000
,
1010
0001
0010
0100
0001
0100
0010
0000
,
0100
0001
1000
0010
0001
1000
1001
0000
,
1000
0001
1000
0001
1000
0000
0000
0000
0001
0000
0000
0000
0001
0000
0000
0000
,
1000
0000
0100
0000
0001
0000
0000
0000
0000
0000
0001
1000
0001
0000
0000
0000
,
1000
0100
0010
0000
0000
0000
0001
0100
1000
0000
0000
0000
1001
0000
0000
0000
,
1000
1010
0010
0001
0001
0100
0100
0010
,
0010
1000
1000
2000
0000
0000
3000
0000
,
1000
0000
1000
0000
1000
0000
1000
0001
1000
0000
0000
0000
0000
0000
1000
0001
,
1000
0000
1000
0001
1000
0000
0001
0000
1001
0000
0000
0000
1111
0000
0000
0000
,
1000
1000
0100
0001
0001
0010
0100
0100
,
1000
1000
1001
0100
0100
1001
0010
0010
,
1001
1000
1000
1000
1000
0000
0001
0000
,
1001
1000
1000
0001
1000
0010
1001
0000
,
0000
0000
0000
0000
,
0010
1000
0001
0000
1000
0001
0100
0000
,
1000
0000
0010
0000
0001
0000
1000
0100
,
0001
1000
0001
0000
1000
0100
1000
0000
0001
0010
0001
0000
1000
0000
0000
0000
,
1000
0100
0010
0001
0010
0100
2000
3100
,
0100
0010
0100
0001
0010
0100
2000
0000
0000
0000
0000
0000
3001
0000
0010
0000
,
1000
0000
1000
0001
1000
0000
1000
0000
,
1100
0110
0011
0000
0000
0001
1000
0000
,
1000
0100
0010
0000
1000
0100
0010
0000
0100
0001
0010
0000
0100
0010
0001
0000
,
0100
0001
1000
0000
1001
0010
0001
0000
,
2002
0000
3003
0000
2002
0000
0000
3003
1000
0000
0100
0000
0010
0000
0001
0000
,
1000
0000
1000
0100
0001
0000
0000
0000
0001
0000
0001
0100
1000
0000
0000
0000
,
0010
0001
1000
0000
1001
0100
0010
1000
,
0110
1000
0001
0200
0000
0300
0100
1000
,
1001
0100
0010
0100
,
1001
0000
0100
0010
0100
0000
0000
0100
,
0001
0100
1200
0321
,
1030
0000
0000
0000
1000
0000
0001
0000
1000
0000
0000
0000
0000
0000
1000
0001
,
0100
0000
0000
0000
0001
1000
0010
0000
0000
0000
1000
0010
0100
0000
0000
0000
,
2002
3003
1000
0001
0001
1000
0001
0001
,
1000
0000
0010
0100
0000
0001
1000
0000
,
0100
0001
1000
1000
,
0100
0000
0001
1000
0001
0000
1000
1000
,
1100
0011
0110
1100
,
0022
0000
0033
1000
0100
0010
1001
0000
,
1000
0100
0010
0001
1000
0001
1001
0100
,
0010
0001
1000
1001
0100
0010
0001
1000
,
1001
0210
0321
1230
,
2302
0000
0000
0000
3003
0000
2100
0000
0010
0000
0001
3000
1010
0000
0000
0000
,
0000
0000
1000
0100
0010
0100
1000
0100
,
0011
0000
0100
0000
1000
0000
0100
0001
0100
0010
0100
0001
0100
0000
0000
0000
,
1111
0000
0000
0000
1000
0001
1000
0100
0010
0100
1000
0100
0110
0000
0000
0000
,
1001
0000
0000
0000
1000
0100
0010
0001
0010
0100
1000
0001
1000
0000
0000
0000
,
0100
0000
1000
1000
0200
0000
0300
2000
,
0100
0000
3000
0000
0020
0000
0100
0000
0030
0000
2000
0000
0010
0000
0000
3000
,
1111
0000
0000
0000
;
