#TITLE:Refresh;
#SUBTITLE:;
#ARTIST:Gavin G;
#TITLETRANSLIT:;
#SUBTITLETRANSLIT:;
#ARTISTTRANSLIT:;
#CREDIT:owenviau1;
#BANNER:BN.png;
#BACKGROUND:BG.png;
#LYRICSPATH:;
#CDTITLE:../CDTitleOV1.png;
#MUSIC:Gavin G - Refresh.ogg;
#OFFSET:-0.260;
#SAMPLESTART:106.494;
#SAMPLELENGTH:29.999;
#SELECTABLE:YES;
#BPMS:0.000=170.000;
#STOPS:;
#BGCHANGES:;
// cache tags:
#FIRSTBEAT:0.000;
#LASTBEAT:541.000;
#SONGFILENAME:Songs/owenviau1 Simfiles 07_final/Refresh - [owenviau1, Braeden] v1.0.0/Refresh.sm;
#HASMUSIC:1;
#HASBANNER:1;
#MUSICLENGTH:191.400;
// end cache tags

//---------------dance-single - 14.85 (15-) (owenvia----------------
#NOTES:
     dance-single:
     14.85 (15-) (owenvia:
     Challenge:
     15:
     1.000,1.000,0.016,0.084,1.000,1729.000,3.000,16.000,8.000,1.000:
1000
0010
0100
0001
0010
0100
1000
0010
0100
0010
1000
0100
0010
0001
0100
0010
,
1000
0001
0100
0001
0010
0100
1000
0010
0100
0001
1000
0100
0010
0001
0100
0010
,
1000
0010
0100
0001
1000
0001
0010
0100
1000
0010
0100
0001
0100
0010
1000
0100
,
0010
0001
0100
0010
1000
0001
0010
0100
1000
0010
0100
0001
0100
0010
1000
0001
,
0010
0100
1000
0001
0010
0001
0100
0010
1000
0001
0100
0001
0010
0100
1000
0010
,
0100
0001
1000
0100
0010
0001
0100
0010
0100
0001
1000
0100
0010
0001
1000
0010
,
1000
0100
0010
0001
0100
0010
1000
0010
0100
0001
1000
0001
0010
0100
1000
0010
,
0100
0001
0100
0010
1000
0100
1000
0001
0010
0100
1000
0010
0100
0001
0100
0010
,
1000
0001
1000
0100
0010
0001
0100
0010
1000
0001
0010
0100
1000
0001
0010
0001
,
0100
0010
1000
0010
0100
0001
1000
0001
0100
0010
1000
0100
1000
0001
0100
0010
,
1000
0001
1000
0100
0020
0000
0000
0000
0001
0000
0000
0000
0000
0000
0000
0000
,
0000
0000
0032
0000
0000
1000
0000
0000
,
1000
0000
0000
0010
0000
0000
0100
0000
,
0010
0000
4000
0000
0000
3100
0000
0000
,
0010
0000
0203
0010
0000
0000
0001
0000
,
0010
0000
0320
0000
0000
1000
0000
0000
,
0100
0000
0000
1000
0000
0000
0100
0000
,
0100
0000
1000
0000
0000
1000
0000
0000
,
0000
2030
0000
0010
,
0100
0000
3002
0000
0000
1000
0000
0000
,
0010
0000
0000
1000
0000
0000
0010
0000
,
0100
0000
0010
0000
0000
1000
0000
0000
,
0100
0000
0023
0100
0000
0000
1000
0000
,
0001
0000
0230
0000
0000
1000
0000
0000
,
0010
0000
0000
1000
0000
0000
0010
0000
,
0010
0000
0000
0000
1300
0010
0100
0001
0100
0010
1000
0001
0010
0100
1000
0010
,
0100
0001
0100
0010
1000
0100
0010
0001
0100
0010
1000
0001
0010
0100
1000
0001
,
0100
0000
0000
0000
0010
1000
0100
0010
0001
0100
0010
1000
0010
0100
0001
0010
,
0100
1000
0010
0100
0010
1000
0001
0100
0001
0010
0100
1000
0010
0100
0001
0100
,
0010
1000
0001
1000
0010
0100
0001
1000
0100
0010
0001
1000
0100
1000
0010
0100
,
0010
1000
0001
0100
0001
0010
0100
1000
0010
0100
0001
1000
0100
0010
0001
1000
,
0001
0010
0100
1000
0010
0100
0010
1000
0001
0100
0010
0100
0001
1000
0100
0010
,
0001
0100
0010
1000
0010
0100
0001
0010
0100
1000
0001
0010
0001
0100
0010
1000
,
0100
0010
0001
1000
0010
1000
0100
0010
0001
0100
0010
1000
0001
0010
0001
1000
,
0010
0100
0001
1000
0100
0010
0001
0100
0010
1000
0010
0100
0001
1000
0001
0010
,
0100
1000
0010
0100
0010
1000
0001
0100
0010
1000
0001
0010
0100
1000
0010
0100
,
0001
1000
0100
0010
0001
0100
0010
1000
0010
0100
0001
1000
0001
0010
0100
1000
,
0010
0100
0001
1000
0100
0010
0001
0100
0010
1000
0100
0010
0001
0100
0010
0100
,
0001
1000
0010
0100
0010
1000
0100
0010
0001
0100
0010
1000
0001
0010
0001
1000
,
0010
1000
0100
0010
0001
0100
0010
1000
0010
1000
0100
0010
0001
0100
0010
1000
,
0010
0100
0001
0010
0100
1000
0010
0100
0010
1000
0001
0100
0001
0010
0100
1000
,
0010
0100
0001
0100
0010
1000
0001
1000
0010
0100
0001
1000
0100
0010
0001
1000
,
0100
1000
0010
0100
0010
1000
0001
0100
0001
0010
0100
1000
0010
0100
0001
1000
,
0100
0000
0000
0000
0010
0001
0100
0010
1000
0001
0100
0001
0010
0100
1000
0010
,
0100
0001
1000
0100
0010
0001
1000
0010
1000
0001
0100
0001
0010
0100
1000
0001
,
0010
0001
1000
0100
1000
0001
0010
0100
1000
0010
0100
0001
0100
0010
1000
0100
,
0010
0001
0010
0100
1000
0001
0010
0001
1000
0010
0100
0001
1000
0100
0010
0001
,
0100
0010
1000
0001
0010
0100
1000
0001
0100
0001
1000
0100
0010
0001
1000
0010
,
1000
0100
0010
0001
0100
0010
1000
0010
0100
0001
1000
0100
0010
0001
1000
0100
,
1000
0010
0100
0001
0100
0010
1000
0001
1000
0100
0010
0001
0100
0010
1000
0001
,
0010
0100
1000
0010
0100
0001
0100
0010
1000
0100
0010
0001
1000
0010
1000
0100
,
0010
0001
1000
0100
10M0
0001
0010
0100
1000
0010
0100
0001
0100
0010
1000
0100
,
0010
0001
0100
0010
1000
0001
0100
0001
0010
0100
1000
0010
0100
0001
1000
0100
,
0010
0001
1000
0010
1000
0001
0100
0001
0010
0100
1000
0001
0010
0001
1000
0100
,
1000
0001
0010
0100
1000
0010
0100
0001
0100
0010
1000
0100
0010
0001
0010
0100
,
1000
0001
0010
0001
1000
0010
0100
0001
1000
0100
0010
0001
0100
0010
1000
0001
,
0010
0100
1000
0001
0100
0001
1000
0100
0010
0001
1000
0010
1000
0100
0010
0001
,
0100
0010
1000
0010
0100
0001
1000
0100
0010
0001
1000
0100
1000
0010
0100
0001
,
0100
0010
1000
0001
0200
0000
0000
0000
0010
0000
0000
0000
0000
0000
0000
0000
,
0000
0000
0312
0000
0000
1000
0000
0000
,
1000
0000
0000
0100
0000
0000
0100
0000
,
1000
0000
4000
0000
0000
3100
0000
0000
,
0100
0000
0203
0010
0000
0000
0001
0000
,
0010
0000
0320
0000
0000
1000
0000
0000
,
0100
0000
0000
1000
0000
0000
0100
0000
,
0100
0000
1000
0000
0000
1000
0000
0000
,
1000
0000
2030
0100
0000
0000
0010
0000
,
0100
0000
0000
0000
3MM1
0000
0100
0000
0010
1000
0100
0010
0001
0000
0100
0000
,
0010
1000
0001
0100
0001
0000
1000
0000
0100
0010
0001
0100
0010
0000
1000
0000
,
0001
0100
0001
1000
0010
0000
0100
0000
0001
1000
0100
0010
0001
0000
0100
0000
,
0010
1000
0010
0100
0001
0000
1000
0000
0001
0010
0100
1000
0001
0000
0100
0000
,
0010
1000
0010
0100
0001
0000
1000
0000
0100
0010
0001
0100
0001
0000
1000
0000
,
0010
0100
0001
0100
0010
0000
1000
0000
0001
1000
0001
0100
0010
0000
1000
0000
,
0100
0010
0001
0100
0010
1000
0100
0010
0001
1000
0001
0100
0010
1000
0001
0010
,
0100
1000
0010
0100
0010
1000
0001
0100
0010
1000
0100
0010
0001
0100
0010
1000
,
0001
0000
0000
0000
1000
0001
0100
0010
0100
0001
1000
0001
0010
0100
1000
0010
,
0100
0001
1000
0100
0010
0001
1000
0010
1000
0001
0100
0001
0010
0100
1000
0001
,
0010
0001
1000
0100
1000
0001
0010
0100
1000
0010
0100
0001
0100
0010
1000
0100
,
0010
0001
0010
0100
1000
0001
0010
0001
1000
0010
0100
0001
1000
0100
0010
0001
,
0100
0010
1000
0001
0010
0100
1000
0001
0100
0001
1000
0100
0010
0001
1000
0010
,
1000
0100
0010
0001
0100
0010
1000
0010
0100
0001
1000
0100
0010
0001
1000
0100
,
1000
0010
0100
0001
0100
0010
1000
0001
1000
0100
0010
0001
0100
0010
1000
0001
,
0010
0100
1000
0010
0100
0001
0100
0010
1000
0100
0010
0001
1000
0010
1000
0100
,
0010
0001
1000
0100
10M0
0001
0010
0100
1000
0010
0100
0001
0100
0010
1000
0100
,
0010
0001
0100
0010
1000
0001
0100
0001
0010
0100
1000
0010
0100
0001
1000
0100
,
0010
0001
1000
0010
1000
0001
0100
0001
0010
0100
1000
0001
0010
0001
1000
0100
,
1000
0001
0010
0100
1000
0010
0100
0001
0100
0010
1000
0100
0010
0001
0010
0100
,
1000
0001
0010
0001
1000
0010
0100
0001
1000
0100
0010
0001
0100
0010
1000
0001
,
0010
0100
1000
0001
0100
0001
1000
0100
0010
0001
1000
0010
1000
0100
0010
0001
,
0100
0010
1000
0010
0100
0001
1000
0100
0010
0001
1000
0100
1000
0010
0100
0001
,
0100
0010
1000
0001
0010
0100
1000
0001
0100
0010
0100
0001
1000
0100
0010
0001
,
0200
0000
0000
0000
0310
1000
0100
0010
0001
0100
0010
1000
0010
0100
0001
0010
,
0100
1000
0010
0100
0010
1000
0001
0100
0001
0010
0100
1000
0010
0100
0001
0100
,
0010
1000
0001
1000
0010
0100
0001
1000
0100
0010
0001
1000
0100
1000
0010
0100
,
0010
1000
0001
0100
0001
0010
0100
1000
0010
0100
0001
1000
0100
0010
0001
1000
,
0001
0010
0100
1000
0010
0100
0010
1000
0001
0100
0010
0100
0001
1000
0100
0010
,
0001
0100
0010
1000
0010
0100
0001
0010
0100
1000
0001
0010
0001
0100
0010
1000
,
0100
0010
0001
1000
0010
1000
0100
0010
0001
0100
0010
1000
0001
0010
0001
1000
,
0010
0100
0001
1000
0100
0010
0001
0100
0010
1000
0010
0100
0001
1000
0001
0010
,
0100
1000
0010
0100
001M
1000
0001
0100
0010
1000
0001
0010
0100
1000
0010
0100
,
0001
1000
0100
0010
0001
0100
0010
1000
0010
0100
0001
1000
0001
0010
0100
1000
,
0010
0100
0001
1000
0100
0010
0001
0100
0010
1000
0100
0010
0001
0100
0010
0100
,
0001
1000
0010
0100
0010
1000
0100
0010
0001
0100
0010
1000
0001
0010
0001
1000
,
0010
1000
0100
0010
0001
0100
0010
1000
0010
1000
0100
0010
0001
0100
0010
1000
,
0010
0100
0001
0010
0100
1000
0010
0100
0010
1000
0001
0100
0001
0010
0100
1000
,
0010
0100
0001
0100
0010
1000
0001
1000
0010
0100
0001
1000
0100
0010
0001
1000
,
0100
1000
0010
0100
0010
1000
0001
0100
0001
0010
0100
1000
0010
0100
0001
1000
,
0100
0000
0000
0000
0010
0001
0100
0010
1000
0001
0100
0001
0010
0100
1000
0010
,
0100
0001
1000
0100
0010
0001
1000
0010
1000
0001
0100
0001
0010
0100
1000
0001
,
0010
0001
1000
0100
1000
0001
0010
0100
1000
0010
0100
0001
0100
0010
1000
0100
,
0010
0001
0010
0100
1000
0001
0010
0001
1000
0010
0100
0001
1000
0100
0010
0001
,
0100
0010
1000
0001
0010
0100
1000
0001
0100
0001
1000
0100
0010
0001
1000
0010
,
1000
0100
0010
0001
0100
0010
1000
0010
0100
0001
1000
0100
0010
0001
1000
0100
,
1000
0010
0100
0001
0100
0010
1000
0001
1000
0100
0010
0001
0100
0010
1000
0001
,
0010
0100
1000
0010
0100
0001
0100
0010
1000
0100
0010
0001
1000
0010
1000
0100
,
0010
0001
1000
0100
10M0
0001
0010
0100
1000
0010
0100
0001
0100
0010
1000
0100
,
0010
0001
0100
0010
1000
0001
0100
0001
0010
0100
1000
0010
0100
0001
1000
0100
,
0010
0001
1000
0010
1000
0001
0100
0001
0010
0100
1000
0001
0010
0001
1000
0100
,
1000
0001
0010
0100
1000
0010
0100
0001
0100
0010
1000
0100
0010
0001
0010
0100
,
1000
0001
0010
0001
1000
0010
0100
0001
1000
0100
0010
0001
0100
0010
1000
0001
,
0010
0100
1000
0001
0100
0001
1000
0100
0010
0001
1000
0010
1000
0100
0010
0001
,
0100
0010
1000
0010
0100
0001
1000
0100
0010
0001
1000
0100
1000
0010
0100
0001
,
0100
0010
1000
0001
2000
0000
0000
0000
0100
0000
0000
0000
3010
0000
0000
0000
,
0020
0000
0000
0000
1M3M
0000
0100
0000
0010
0000
0001
0100
0010
0000
1000
0000
,
0100
0010
0001
0000
0100
0000
0010
1000
0001
0000
0010
0100
1000
0000
0001
0000
,
0100
0000
0010
0000
1000
0000
0100
0010
0001
0000
0100
0010
1000
0000
0001
0000
,
0100
0000
0010
0000
1000
0000
0001
0100
0001
0000
1000
0100
0010
0000
0001
0000
,
0100
0000
0010
0000
1000
0000
0001
0010
0001
0000
0100
0010
1000
0000
0001
0000
,
0100
0000
0010
0000
1000
0000
0100
0010
0001
0000
0100
0010
1000
0000
0001
0000
,
0100
0000
0010
0000
1000
0000
0001
0100
0001
0000
1000
0100
0010
0000
0001
0000
,
0100
0000
0010
0000
1000
0000
0001
0010
0001
0000
0100
0010
1000
0000
0001
0000
,
0100
0000
0010
0000
1000
0000
0100
0010
0001
0000
0100
0010
1000
0000
0001
0000
,
0100
0000
0010
0000
1000
0000
0001
0100
0010
0000
1000
0100
0010
0000
0001
0000
,
0100
0000
0010
0000
1000
0000
0001
0100
0001
0000
0010
0100
1000
0000
0001
0000
,
0100
0000
0010
0000
1000
0000
0100
0010
0001
0000
0100
0010
1000
0000
0001
0000
,
0100
0010
1000
0000
0000
0000
0000
0000
;

//---------------dance-single - ----------------
#NOTES:
     dance-single:
     :
     Hard:
     10:
     0.664,1.000,0.178,0.084,0.201,838.000,34.000,16.000,2.000,0.000:
0000
0000
0000
0000
,
0000
0000
1000
0001
0100
0100
0010
1000
,
0001
0100
0001
0010
0001
0100
0010
1000
,
0100
1000
0010
1000
0010
0100
0001
0010
,
0100
1000
0001
0001
0100
0100
0010
0010
,
1000
1000
0001
0100
0010
1000
0010
0100
,
0001
0010
0100
0100
1000
1000
0001
0001
,
0100
0100
0010
1000
0010
0100
0001
0010
,
0100
1000
0001
0001
0100
0100
0010
0010
,
1000
1000
0001
1000
0001
0100
0010
1000
,
0001
1000
0020
0000
0001
0000
0000
0000
,
0000
0000
0032
0000
0000
1000
0000
0000
,
1000
0000
0000
0010
0000
0000
0100
0000
,
0010
0000
4000
0000
0000
3100
0000
0000
,
0010
0000
0203
0010
0000
0000
0001
0000
,
0010
0000
0320
0000
0000
1000
0000
0000
,
0100
0000
0000
1000
0000
0000
0100
0000
,
0100
0000
1000
0000
0000
1000
0000
0000
,
0000
2030
0000
0010
,
0100
0000
3002
0000
0000
1000
0000
0000
,
0010
0000
0000
1000
0000
0000
0010
0000
,
0100
0000
0010
0000
0000
1000
0000
0000
,
0100
0000
0023
0100
0000
0000
1000
0000
,
0001
0000
0230
0000
0000
1000
0000
0000
,
0010
0000
0000
1000
0000
0000
0010
0000
,
0010
0000
0000
0000
1300
0010
0100
0001
0100
0010
1000
0001
0010
0100
1000
0010
,
0100
0001
0100
0010
1000
0100
0010
0001
0100
0010
1000
0001
0010
0100
1000
0001
,
0100
0000
1010
0000
0000
0101
0000
0000
,
0011
0000
0000
0001
0000
0000
0100
0000
,
0010
0000
1010
0000
0000
0101
0000
0000
,
0011
0000
0000
0010
0000
0000
0100
0000
,
0010
0000
1010
0000
0000
0001
0000
0000
,
0100
0000
0000
0010
0000
0000
1000
0000
,
0001
0000
0011
0000
0000
0001
0000
0000
,
0100
0000
0000
0010
0000
0000
1000
0000
,
0010
0000
1010
0000
0000
0001
0000
0000
,
0100
0000
0000
0010
0000
0000
1000
0000
,
0010
0000
0100
0000
0000
0001
0000
0000
,
0010
0000
0000
0010
0000
0000
0100
0000
,
1000
0000
1001
0000
0000
0010
0000
0000
,
0010
0000
0000
0100
0000
0000
0100
0000
,
0001
0000
0100
0000
0000
0100
0000
0000
,
0010
0000
0000
1000
0000
0000
0001
0000
,
0100
0000
0010
0000
0000
1000
0000
0000
,
0010
0000
0000
0100
0000
0000
0001
0010
,
0001
0010
0001
0000
0000
0100
0000
0000
,
0010
0000
0000
1000
0000
0000
0001
0100
,
0010
1000
0010
0000
0000
0100
0000
0000
,
0001
0000
0000
0010
0000
0000
0100
1000
,
0100
0010
0001
0000
0001
0100
0000
0100
,
0010
0000
0010
1000
0000
1000
0001
0100
,
0010
0100
0110
0000
0000
0001
0000
0000
,
0001
0000
0000
0010
0000
0000
0100
1000
,
0100
0010
0001
0000
0001
0100
0000
0100
,
0010
0000
0010
1000
0000
1000
0010
0100
,
0001
0010
0011
0000
0001
0100
0000
0100
,
0001
0000
0001
0100
0000
0100
0010
1000
,
0010
1000
0010
0100
0001
1000
0001
0100
,
0001
0000
1000
0001
0200
0000
0000
0000
0010
0000
0000
0000
0000
0000
0000
0000
,
0000
0000
0302
0000
0000
1000
0000
0000
,
1000
0000
0000
0100
0000
0000
0100
0000
,
1000
0000
4000
0000
0000
3000
0000
0000
,
0100
0000
0203
0010
0000
0000
0001
0000
,
0010
0000
0320
0000
0000
1000
0000
0000
,
0100
0000
0000
1000
0000
0000
0100
0000
,
0100
0000
1000
0000
0000
1000
0000
0000
,
1000
0000
2030
0100
0000
0000
0010
0000
,
0100
0000
0000
0000
3MM1
0000
0100
0000
0010
1000
0100
0010
0001
0000
0100
0000
,
0010
1000
0001
0100
0001
0000
1000
0000
0100
0010
0001
0100
0010
0000
1000
0000
,
0001
0100
0001
1000
0010
0000
0100
0000
0001
1000
0100
0010
0001
0000
0100
0000
,
0010
1000
0010
0100
0001
0000
1000
0000
0001
0010
0100
1000
0001
0000
0100
0000
,
0010
1000
0010
0100
0001
0000
1000
0000
0100
0010
0001
0100
0001
0000
1000
0000
,
0010
0100
0001
0100
0010
0000
1000
0000
0001
1000
0001
0100
0010
0000
1000
0000
,
0100
0010
0001
0100
0010
1000
0100
0010
0001
1000
0001
0100
0010
1000
0001
0010
,
0100
1000
0010
0100
0010
1000
0001
0100
0010
1000
0100
0010
0001
0100
0010
1000
,
0001
0000
1000
0000
0000
0010
0000
0000
,
0100
0000
0000
0001
0000
0000
0010
0001
,
0010
0001
0100
0000
0100
0001
0000
0001
,
0100
0000
0100
0010
0000
0010
1000
0010
,
0100
0001
0011
0000
0001
0100
0000
0100
,
0001
0000
0001
0010
0000
0010
0001
0100
,
0001
1000
1001
0000
0010
0000
0100
0000
,
0010
0000
0010
1000
0000
1000
0010
0100
,
0010
1000
1010
0000
0010
0100
0010
1000
,
0010
0100
0001
0010
0001
1000
0001
0100
,
0001
0010
0001
1000
0010
0100
0010
1000
,
0100
0010
0001
0100
0001
1000
0001
1000
,
0001
1000
1001
0000
0010
0100
0010
1000
,
0010
0100
0001
0010
0100
1000
0001
0010
,
0100
1000
1100
0000
0001
0011
0000
0100
,
1100
0000
0001
1000
0001
1000
0001
1000
,
0200
0000
0310
0000
0001
1000
0010
0100
,
0010
1000
0001
0100
0010
1000
0010
0100
,
0001
0010
0100
1000
0100
0010
0001
0100
,
0001
1000
0010
0100
0010
1000
0010
0100
,
0010
1000
1010
0000
0010
0100
0010
1000
,
0010
0100
0001
0010
0100
1000
0100
0010
,
0001
0010
0100
1000
0100
0010
0001
0100
,
0010
1000
0010
0100
0010
1000
0010
0100
,
0010
0100
0110
0000
0010
1000
0010
0100
,
0001
0010
0100
1000
0001
0100
0001
1000
,
0010
0100
0010
1000
0100
0010
0001
0010
,
0001
0100
0001
1000
0001
0100
0001
0010
,
0001
0010
0011
0000
0001
0100
0010
1000
,
0010
0100
0001
0010
0100
1000
0001
0010
,
0100
1000
0100
0010
0100
0010
0100
0010
,
0100
0010
0001
1000
0001
1000
0001
1000
,
0100
0000
0010
0010
0001
0100
0010
1000
,
0010
0100
0001
0010
0100
1000
0100
0010
,
0001
0000
0001
0001
0100
0010
1000
0010
,
0100
0001
0010
0100
1000
0100
0010
0001
,
0010
0000
0001
0001
0101
0000
0010
1010
,
0000
0000
1010
0000
0000
1001
0000
0000
,
0000
0000
0001
0001
0011
0000
0001
0101
,
0000
0000
1010
0000
0010
1010
0000
0001
,
1001
0000
0100
0010
0100
1000
0100
0010
,
0001
0000
0001
0000
1000
0100
0000
1000
,
0001
0000
1000
0010
0100
0010
1000
0001
,
0010
0000
0010
0000
0100
0100
0000
1000
,
1000
0000
0001
1000
0001
1000
0001
0100
,
0001
0010
0001
0000
0011
0001
0000
0101
,
0001
0000
0010
1000
0010
0100
0001
0100
,
0010
1000
2000
0000
0100
0000
3010
0000
,
0020
0000
0000
0000
1030
0000
0100
0000
0010
0000
0001
0100
0010
0000
1000
0000
,
0100
0010
0001
0000
0100
0000
0010
1000
0001
0000
0010
0100
1000
0000
0001
0000
,
0100
0000
0010
0000
1000
0000
0100
0010
0001
0000
0100
0010
1000
0000
0001
0000
,
0100
0000
0010
0000
1000
0000
0001
0100
0001
0000
1000
0100
0010
0000
0001
0000
,
0100
0000
0010
0000
1000
0000
0001
0010
0001
0000
0100
0010
1000
0000
0001
0000
,
0100
0000
0010
0000
1000
0000
0100
0010
0001
0000
0100
0010
1000
0000
0001
0000
,
0100
0000
0010
0000
1000
0000
0001
0100
0001
0000
1000
0100
0010
0000
0001
0000
,
0100
0000
0010
0000
1000
0000
0001
0010
0001
0000
0100
0010
1000
0000
0001
0000
,
0100
0000
0010
0000
1000
0000
0100
0010
0001
0000
0100
0010
1000
0000
0001
0000
,
0100
0000
0010
0000
1000
0000
0001
0100
0010
0000
1000
0100
0010
0000
0001
0000
,
0100
0000
0010
0000
1000
0000
0001
0100
0001
0000
0010
0100
1000
0000
0001
0000
,
0100
0000
0010
0000
1000
0000
0100
0010
0001
0000
0100
0010
1000
0000
0001
0000
,
0100
0010
1000
0000
0000
0000
0000
0000
;

//---------------dance-single - ----------------
#NOTES:
     dance-single:
     :
     Medium:
     7:
     0.410,0.495,0.209,0.131,0.000,483.000,40.000,25.000,0.000,0.000:
0000
0000
0000
0000
,
0000
0000
0000
0000
,
0000
0000
0001
0000
1001
0000
0000
1001
,
0000
0010
1010
0000
,
0000
0000
1001
0000
1001
0000
0000
0011
,
0000
0001
1001
0000
,
0000
0000
0010
0000
1010
0000
0000
1001
,
0000
0001
1001
0000
,
0000
0000
0110
0000
0011
0000
0000
0101
,
0000
0010
1010
0000
,
1000
0020
0001
0000
,
0000
0000
0032
0000
0000
1000
0000
0000
,
1000
0000
0000
0010
0000
0000
0100
0000
,
0010
0000
1000
0000
0000
0100
0000
0000
,
0010
0000
0203
0010
0000
0000
0001
0000
,
0010
0000
0320
0000
0000
1000
0000
0000
,
0100
0000
0000
1000
0000
0000
0100
0000
,
0100
0000
1000
0000
0000
1000
0000
0000
,
0000
2030
0000
0010
,
0100
0000
3002
0000
0000
1000
0000
0000
,
0010
0000
0000
1000
0000
0000
0010
0000
,
0100
0000
0010
0000
0000
1000
0000
0000
,
0100
0000
0023
0100
0000
0000
1000
0000
,
0001
0000
0230
0000
0000
1000
0000
0000
,
0010
0000
0000
1000
0000
0000
0010
0000
,
0010
0000
1300
0010
1000
0010
0100
0001
,
0100
0010
1000
0100
0010
0100
1000
0001
,
0100
0000
0010
0000
1000
0010
0000
0010
,
1000
0000
0001
0000
0000
0000
0001
1000
,
0001
1000
0001
0000
0001
0100
0000
0100
,
0001
0000
0001
0010
0000
0010
0001
0000
,
0100
0000
0010
0000
0010
1000
0000
1000
,
0010
0000
0000
0010
0000
0000
0100
0000
,
0001
0000
0010
0000
0010
0001
0000
0001
,
0010
0000
0000
0001
0000
0000
1000
0000
,
0010
0000
1010
0000
0010
1000
0000
1000
,
0020
0000
0000
0130
0000
0000
0001
0000
,
0010
0000
1001
0000
0001
0100
0000
0100
,
0002
0000
0000
0013
0000
0000
0100
0000
,
1000
0000
1001
0000
0001
0100
0000
0100
,
0010
0000
0000
0010
0000
0000
1000
0000
,
0001
0000
1001
0000
0001
0010
0000
0010
,
0001
0000
0000
1000
0000
0000
0010
0000
,
0100
0000
0110
0000
0010
1000
0000
1000
,
0010
0100
0001
0010
,
0100
0000
1100
0000
0100
0010
0000
0010
,
0100
0100
1000
0001
,
0100
0000
1010
0000
0010
0100
0000
0100
,
0001
0001
0010
0100
,
1000
0000
0001
0000
0001
0100
0000
0100
,
0001
0010
0100
1000
,
0001
0000
1001
0000
0001
0100
0001
0100
,
0001
0000
0010
0000
0100
0000
1000
0001
,
1000
0000
0010
0100
0010
0100
0010
0000
,
0001
0000
1000
0000
0100
0000
0010
0001
,
0010
0000
0011
0000
0001
0100
0000
0100
,
0001
1000
0010
0100
,
0100
0000
0001
0000
0000
1000
0000
0000
,
0001
0200
0010
0000
,
0000
0000
0302
0000
0000
1000
0000
0000
,
1000
0000
0000
0100
0000
0000
0100
0000
,
1000
0000
4000
0000
0000
3000
0000
0000
,
0100
0000
0203
0010
0000
0000
0001
0000
,
0010
0000
0320
0000
0000
1000
0000
0000
,
0100
0000
0000
1000
0000
0000
0100
0000
,
0100
0000
1000
0000
0000
1000
0000
0000
,
1000
0000
2030
0100
0000
0000
0010
0000
,
0100
0000
3001
0000
0100
0010
0000
0010
,
1000
0000
0000
1000
0000
0000
0001
0000
,
0100
0000
0010
0000
1000
0010
0000
0010
,
1000
0000
0000
0001
0000
0000
0100
0000
,
0010
0000
1010
0000
0010
0100
0000
0100
,
0010
0000
0000
1000
0000
0000
0001
0000
,
0010
0000
0001
0000
0001
1000
0000
0001
,
1000
0000
0000
0001
0000
0000
1000
0000
,
0001
1000
0010
0010
,
0010
0010
0000
0100
,
0001
0000
0010
0000
0001
0100
0000
0100
,
0001
0000
0000
0010
0000
0000
1000
0000
,
0001
0000
1001
0000
0001
0100
0000
0100
,
0001
0000
0000
0010
0000
0000
0100
0000
,
1000
0000
0100
0000
0010
0100
0000
0010
,
0100
0000
0000
1000
0000
0000
0001
0000
,
0100
0000
0020
0000
0000
2030
0000
0000
,
3002
0000
0000
0023
0000
0000
0130
0000
,
1000
0000
0002
0000
0000
0203
0000
0000
,
0320
0000
0000
2030
0000
0000
3000
0001
,
0100
0000
0101
0000
0001
0010
0000
0010
,
0001
0000
0000
0001
0000
0000
1000
0000
,
0010
0000
0010
0000
0010
1000
0000
1000
,
0010
0000
0000
0100
0000
0000
0001
0000
,
0010
0000
0011
0000
0001
0000
0100
0010
,
0100
0010
0000
0001
0000
0000
0001
0000
,
1000
0000
0001
1000
0001
0100
0001
0010
,
0001
0000
0000
0001
0000
0000
0001
0000
,
1000
0000
0010
0100
0010
1000
0010
0100
,
0001
0000
0000
0010
0000
0000
0100
0000
,
1000
0000
0001
0100
0010
1000
0010
0100
,
0001
0000
0000
0010
0000
0000
0100
0000
,
1000
0000
1100
0000
0100
0010
0000
0010
,
0100
0000
0000
1000
0000
0000
0001
0000
,
0100
0000
0010
0000
1000
0010
0000
1000
,
0010
0000
0000
0100
0000
0000
0001
0000
,
0010
0000
0011
0000
0001
0100
0000
0100
,
0001
0000
0000
1000
0000
0000
0010
0000
,
0100
0000
0001
0000
0000
0010
0000
0000
,
0100
0000
1000
0001
1000
0000
0010
0100
,
0010
1001
0001
0100
,
0001
0010
0001
0100
,
0010
0000
1000
0001
1000
0000
0000
0010
,
0000
0000
0100
0000
0001
0000
0000
0001
,
0000
0000
0010
0100
0010
0000
0000
0100
,
0000
0000
0010
0000
1000
0000
0000
0001
,
0000
0000
0100
0010
0100
0000
0000
0010
,
0000
0000
1000
0000
1001
0000
0000
1001
,
0000
0000
0010
0100
0010
0000
0000
1000
,
0000
0000
0000
0000
1001
0000
0000
1001
,
0000
0000
0010
0100
0010
0000
0000
1100
,
0000
0000
0000
0000
0011
0000
0000
1001
,
0000
0000
0010
0100
0110
0000
0000
0000
,
0000
0000
0000
0000
1001
0000
0000
1001
,
0000
0000
0001
1000
0001
0000
0000
0000
,
0000
2000
0100
3010
,
0020
0000
1030
0000
0001
0000
0000
0100
,
0000
0000
0000
0000
0010
0000
0000
0010
,
0000
0000
0000
0000
1000
0000
0000
1000
,
0000
0000
0000
0000
0010
0000
0000
0010
,
0000
0000
0000
0000
0100
0000
0000
0001
,
0000
0000
0000
0000
0100
0000
0000
0100
,
0000
0000
0000
0000
0010
0000
0000
0010
,
0000
0000
0000
0000
1000
0000
0000
1000
,
0000
0000
0001
0000
,
0000
0000
0010
0000
,
0000
0000
0100
0000
,
0000
0000
1000
0000
,
0000
1000
0000
0000
;

//---------------dance-single - ----------------
#NOTES:
     dance-single:
     :
     Easy:
     3:
     0.185,0.318,0.057,0.094,0.000,219.000,11.000,18.000,0.000,0.000:
0000
0000
0000
0000
,
0000
0000
0000
0000
,
0000
0000
0000
0000
1000
0000
0000
1000
,
0000
0000
0000
0000
,
0000
0000
0000
0000
0010
0000
0000
0010
,
0000
0000
0000
0000
,
0000
0000
0000
0000
0100
0000
0000
0100
,
0000
0000
0000
0000
,
0000
0000
0000
0000
0001
0000
0000
0001
,
0000
0000
0000
0000
,
0000
0000
0010
0000
,
0000
0200
0000
0000
,
0000
0000
0000
0000
,
0000
0320
0000
0000
,
0000
0000
0000
0000
,
0000
2030
0000
0000
,
0000
0000
0000
0000
,
0000
0000
0002
3000
0000
0000
0000
0000
,
0000
0000
0000
0000
,
0000
0203
0000
0000
,
0000
0000
0000
0000
,
0000
0320
0000
0000
,
0000
0000
0000
0000
,
0000
2030
0000
0000
,
0000
0000
0000
0000
,
0000
3020
0000
0000
,
0000
0000
0000
0030
,
0000
0000
0100
0000
0000
0100
0000
0000
,
0010
0000
0000
1000
,
0000
0000
0001
0000
0000
0100
0000
0000
,
0010
0000
0000
1000
,
0000
0000
0010
0000
0000
0100
0000
0000
,
0001
0000
0000
0100
,
0000
0000
0010
0000
0000
1000
0000
0000
,
0001
0000
0000
0100
,
0000
0000
1001
0000
0000
0001
0000
0000
,
0100
0000
0000
0010
,
1000
0000
0010
0000
0000
0010
0000
0000
,
0100
0000
0000
0001
,
1000
0000
0001
0000
0000
0100
0000
0000
,
0010
0000
0000
1000
,
0100
0000
0010
0000
0000
0010
0000
0000
,
0001
0000
0000
0100
0000
0000
0010
0000
,
0000
0000
1000
0000
0000
1000
0000
0000
,
1000
0000
0000
0010
,
0010
0000
0010
0000
0000
0100
0000
0000
,
0001
0000
0000
0100
,
0100
0000
0100
0000
0000
0010
0000
0000
,
1000
0000
0000
0010
,
0100
0000
0001
0000
0000
0010
0000
0000
,
0100
0000
0000
1000
,
0001
0000
1001
0000
0000
0010
0000
0000
,
0100
0000
0000
0010
,
1000
0000
0010
0000
0000
0010
0000
0000
,
0100
0000
0000
0100
0000
0000
0001
0000
,
0010
0000
0001
0000
0000
0100
0000
0000
,
0010
0000
0000
1000
,
0001
0000
0100
0000
0000
0100
0000
0000
,
0010
0000
0000
0000
,
0000
1000
0000
0000
,
0000
0000
0000
0000
,
0000
0002
0000
0000
,
0000
0000
0000
0000
,
0000
0203
0000
0000
,
0000
0000
0000
0000
,
0000
0320
0000
0000
,
0000
0000
0000
0030
,
0000
2001
0000
0000
,
0000
0000
0000
3000
,
0000
0120
0000
0000
,
0000
0000
0000
0030
,
0000
0100
0000
0000
,
0100
0000
0000
0010
,
0000
1000
0000
0000
,
0001
0000
0000
1000
,
0000
1001
0000
0000
,
0100
0000
0000
0010
,
1000
0010
0000
0000
,
0001
0000
0000
0100
,
0010
0100
0000
0000
,
0010
0000
0000
1000
,
0001
0100
0000
0000
,
0010
0000
0000
1000
,
0001
0110
0000
0000
,
0010
0000
0000
1000
,
0001
0100
0000
0000
,
0100
0000
0000
0010
,
1000
0010
0100
0001
,
0010
0100
1000
0001
,
0100
0010
1000
0010
,
0100
0001
0000
0000
,
0000
1000
0001
1000
,
0010
0100
0010
1000
,
0100
0010
0000
0000
,
0010
0000
0000
0001
,
0100
0010
0000
0000
,
0010
0000
0000
1000
,
0001
0100
0000
0000
,
0100
0000
0000
0010
,
1000
1010
0000
0000
,
0100
0000
0000
0001
,
1000
0010
0000
0000
,
0200
0000
0000
0301
,
0010
0200
0000
0000
,
2300
0000
0000
3001
,
0100
0020
0000
0000
,
2030
0000
0000
3001
,
0000
1001
0000
0000
,
0000
0001
1000
0000
,
0000
0001
1000
0000
,
0000
0010
0100
0000
,
0000
0010
0100
0000
,
0000
0001
0010
0000
,
0000
0100
1000
0000
,
0000
0001
0100
0000
,
0000
1010
0001
0000
,
0000
1000
0001
0000
,
0000
0100
0010
0000
,
0000
1000
0001
0000
,
0000
0100
0010
0000
,
0000
1000
1000
0000
,
0000
0010
0010
0000
,
0000
0110
0000
0000
,
0000
1000
0000
0000
,
0000
0010
0000
0000
,
0000
0100
0000
0000
,
0000
0001
0000
0000
,
0000
0100
0000
0000
,
0000
0010
0000
0000
,
0000
1000
0000
0000
,
0000
0001
0000
0000
,
0000
0100
0000
0000
,
0000
0010
0000
0000
,
0000
1000
0000
0000
,
0000
0001
0000
0000
,
0000
1001
0000
0000
;

//---------------dance-single - 1(Braeden)----------------
#NOTES:
     dance-single:
     1(Braeden):
     Beginner:
     1:
     0.056,0.104,0.057,0.000,0.000,64.000,11.000,0.000,0.000,0.000:

0000
0000
0000
0000
,
0000
0000
0000
0000
,
0000
0000
0000
0000
,
0000
0000
0000
0000
,
0000
0000
0000
0000
,
0000
0000
0000
0000
,
1000
0000
0000
0000
,
0001
0000
0000
0000
,
0100
0000
0000
0000
,
0010
0000
0000
0000
,
1000
0000
0000
0000
,
1001
0000
0000
0000
,
0000
0000
0000
0000
,
0000
0000
0000
0000
,
0000
0000
0000
0000
,
0000
0010
0000
0000
,
0000
0000
0000
0000
,
0000
0100
0000
0000
,
0000
0000
0000
0000
,
0000
0010
0000
0000
,
0000
0000
0000
0000
,
0000
1000
0000
0000
,
0000
0000
0000
0000
,
0000
0001
0000
0000
,
0000
0000
0000
0000
,
0000
0100
0000
0000
,
0000
0000
0000
0000
,
0000
1001
0000
0000
,
0000
0000
0000
0000
,
0000
0010
0000
0000
,
0000
0000
0000
0000
,
0000
0100
0000
0000
,
0000
0000
0000
0000
,
0000
0001
0000
0000
,
0000
0000
0000
0000
,
0000
1001
0000
0000
,
0000
0000
0000
0000
,
0000
0010
0000
0000
,
0000
0000
0000
0000
,
0000
0100
0000
0000
,
0000
0000
0000
0000
,
0000
0001
0000
0000
,
0000
0000
0000
0000
,
0000
1001
0000
0000
,
0000
0000
0000
0000
,
0000
1000
0000
0000
,
0000
0000
0000
0000
,
0000
0010
0000
0000
,
0000
0000
0000
0000
,
0000
0100
0000
0000
,
0000
0000
0000
0000
,
0000
0010
0000
0000
,
0000
0000
0000
0000
,
0000
0010
0000
0000
,
0000
0000
0000
0000
,
0000
0010
0000
0000
,
0000
0000
0000
0000
,
0000
1000
0000
0000
,
0000
0000
0000
0000
,
0000
0001
0000
0000
,
0000
0000
0000
0000
,
0000
0100
0000
0000
,
0000
0000
0000
0000
,
0000
0010
0000
0000
,
0000
0000
0000
0000
,
0000
1000
0000
0000
,
0000
0000
0000
0000
,
0000
0010
0000
0000
,
0000
0000
0000
0000
,
0000
0010
0000
0000
,
0000
0000
0000
0000
,
0000
0100
0000
0000
,
0000
0000
0000
0000
,
0000
0001
0000
0000
,
0000
0000
0000
0000
,
0000
1001
0000
0000
,
0000
0000
0000
0000
,
0000
1000
0000
0000
,
0000
0000
0000
0000
,
0000
0010
0000
0000
,
0000
0000
0000
0000
,
0000
0100
0000
0000
,
0000
0000
0000
0000
,
0000
0000
0000
0000
,
0000
0000
0000
0000
,
0000
0000
0000
0000
,
0000
0000
0000
0000
,
0000
0100
0000
0000
,
0000
0000
0000
0000
,
0000
0000
0000
0000
,
0000
0000
0000
0000
,
0000
1001
0000
0000
,
0000
0000
0000
0000
,
0000
0010
0000
0000
,
0000
0000
0000
0000
,
0000
0010
0000
0000
,
0000
0000
0000
0000
,
0000
0100
0000
0000
,
0000
0000
0000
0000
,
0000
1001
0000
0000
,
0000
0000
0000
0000
,
0000
1000
0000
0000
,
0000
0000
0000
0000
,
0000
0010
0000
0000
,
0000
0000
0000
0000
,
0000
1001
0000
0000
,
0000
0000
0000
0000
,
0000
1001
0000
0000
,
0000
0000
0000
0000
,
0000
1000
0000
0000
,
0000
0000
0000
0000
,
0000
0010
0000
0000
,
0000
0000
0000
0000
,
0000
0100
0000
0000
,
0000
0000
0000
0000
,
0000
1001
0000
0000
,
0000
0000
0000
0000
,
0000
0100
0000
0000
,
0000
0000
0000
0000
,
0000
0010
0000
0000
,
0000
0000
0000
0000
,
0000
1000
0000
0000
,
0000
1001
0000
0000
,
0000
1000
0000
0000
,
0000
0000
0000
0000
,
0000
0001
0000
0000
,
0000
0000
0000
0000
,
0000
0100
0000
0000
,
0000
0000
0000
0000
,
0000
0010
0000
0000
,
0000
0000
0000
0000
,
0000
1000
0000
0000
,
0000
0000
0000
0000
,
0000
0001
0000
0000
;
