#TITLE:AFRONOIA;
#SUBTITLE:;
#ARTIST:NAOKI -MIXED BY BeMaNiRuler-;
#TITLETRANSLIT:;
#SUBTITLETRANSLIT:;
#ARTISTTRANSLIT:;
#CREDIT:;
#BANNER:afronoia.png;
#BACKGROUND:afronoia-bg.png;
#LYRICSPATH:;
#CDTITLE:cdtitle.png;
#MUSIC:Afronoia.wav;
#OFFSET:0.600;
#SAMPLESTART:48.890;
#SAMPLELENGTH:12.000;
#SELECTABLE:YES;
#BPMS:0.000=200.000,84.750=100.000,92.771=203.000,157.500=213.000,190.000=210.000,224.000=200.000,238.000=223.000;
#STOPS:;
#BGCHANGES:;
// cache tags:
#FIRSTBEAT:16.000;
#LASTBEAT:327.000;
#SONGFILENAME:Songs/mongol/Afronoia/Afronoia.sm;
#HASMUSIC:1;
#HASBANNER:1;
#MUSICLENGTH:97.712;
// end cache tags

//---------------dance-single - ----------------
#NOTES:
     dance-single:
     :
     Hard:
     9:
     0.885,1.000,0.727,0.000,0.128,534.000,71.000,0.000,0.000,0.000:  // measure 1
0000
0000
0000
0000
,  // measure 2
0000
0000
0000
0000
,  // measure 3
0000
0000
0000
0000
,  // measure 4
0000
0000
0000
0000
,  // measure 5
0100
0000
0100
0000
0010
0000
0000
0000
1000
0001
1000
0000
0100
0000
0000
0000
,  // measure 6
0010
0000
0010
0000
0100
0000
0000
0000
0001
1000
0001
0000
0010
0000
0000
0000
,  // measure 7
1000
0000
1000
0000
0001
0000
0000
0000
0100
0010
0100
0000
1000
0000
0000
0000
,  // measure 8
0001
0000
0001
0000
1000
0000
0000
0000
0010
0100
0010
0000
0001
0000
0000
0000
,  // measure 9
1001
0000
1001
0000
0110
0000
0000
0000
1000
0100
0001
0000
1001
0000
0000
0000
,  // measure 10
1001
0000
1001
0000
0110
0000
0000
0000
0001
0010
1000
0000
1001
0000
0000
0000
,  // measure 11
0110
0000
0110
0000
1001
0000
0000
0000
1000
0010
0001
0000
0110
0000
0000
0000
,  // measure 12
0110
0000
0110
0000
1001
0000
0000
0000
0001
0100
1000
0000
0110
0000
0000
0000
,  // measure 13
1000
0100
0001
0100
1000
0100
0001
0100
,  // measure 14
1000
0010
0001
0010
1000
0010
0001
0010
,  // measure 15
1000
0100
0001
0100
1000
0010
0001
0010
,  // measure 16
1000
0100
0001
0100
1000
0010
0001
0010
,  // measure 17
1000
0010
1000
0100
1000
0010
1000
0100
,  // measure 18
0010
0001
0100
0001
0010
0001
0100
0001
,  // measure 19
0000
1001
0000
0110
0000
1001
0000
0110
,  // measure 20
0000
1100
0000
0101
0000
1001
0000
0110
,  // measure 21
0000
0000
1001
1001
1001
0110
0000
0110
,  // measure 22
0000
0000
0000
1000
0001
1000
0001
1000
0001
1000
0001
0010
0100
0010
0100
0010
,  // measure 23
0100
0010
0100
1000
0100
0001
0100
1000
0100
0001
0100
1000
0010
0001
0010
1001
,  // measure 24
0000
1001
0000
0000
1001
0000
1001
0000
0000
0000
0000
0000
1010
0000
0000
0000
0000
0000
0000
0000
0101
0000
0000
0000
0000
0000
0000
0000
0110
0000
0000
0000
,  // measure 25
0000
1010
0000
0101
0000
0110
0000
0011
,  // measure 26
0000
1100
0000
0011
0000
1100
0000
1010
,  // measure 27
0000
0101
0000
1010
0000
0101
0000
1000
,  // measure 28
0001
1000
0001
1000
0001
1000
0001
1000
,  // measure 29
0010
0001
0100
1000
0010
0001
0100
1000
,  // measure 30
0010
1000
0100
0001
0010
1000
0100
0001
,  // measure 31
1000
0001
1000
0001
0100
0010
0100
1000
,  // measure 32
0100
0001
0100
1000
0100
1000
0100
0001
,  // measure 33
0100
0001
0100
1000
0010
1000
0010
0001
,  // measure 34
0010
0001
0010
1000
0010
0001
1000
0100
,  // measure 35
0001
1000
0010
0001
1000
0100
0001
1000
,  // measure 36
0010
0001
0010
1000
0100
1000
0100
0001
,  // measure 37
0100
0001
0100
1000
0010
1000
0010
0001
,  // measure 38
0010
0001
0010
1000
0010
0001
1000
0100
,  // measure 39
0001
1000
0010
0001
1000
0100
0001
1000
,  // measure 40
0010
0001
0000
1001
1000
0100
0010
0001
,  // measure 41
1000
0100
0010
0001
0010
0100
1000
0100
,  // measure 42
0010
0001
0010
0100
0001
0100
1000
0100
,  // measure 43
0001
0100
1000
0100
0001
0010
1000
0010
,  // measure 44
0001
0010
1000
0010
0001
0010
0100
1000
,  // measure 45
0001
0010
0100
1000
0100
0010
0001
0010
,  // measure 46
0100
1000
0100
0010
1000
0010
0001
0010
,  // measure 47
1000
0010
0001
0010
1000
0100
0001
0100
,  // measure 48
1000
0100
0001
0000
0000
1000
0001
0000
,  // measure 49
0001
0001
0001
0001
,  // measure 50
0001
1000
0001
1000
0001
1000
0110
0000
,  // measure 51
1001
0110
1010
0011
,  // measure 52
0001
1000
0001
1000
0001
1000
0110
0000
,  // measure 53
1001
0000
0110
0000
0010
0100
0010
0000
,  // measure 54
1001
0000
0110
0000
1000
0100
0001
0000
,  // measure 55
0001
0100
1000
0000
1000
0100
0001
0100
,  // measure 56
1000
0010
0001
0010
1000
1001
0000
0000
,  // measure 57
0000
0000
0000
0000
,  // measure 58
0000
0000
1001
0000
,  // measure 59
0110
0000
0000
0000
1000
0001
1000
0001
,  // measure 60
1000
0001
1000
0000
1001
0100
0010
0100
,  // measure 61
0000
0100
0010
0100
0000
0100
0010
0100
,  // measure 62
0010
0100
0010
0100
1000
0001
1000
0001
,  // measure 63
0000
0001
1000
0001
0000
0001
1000
0001
,  // measure 64
1000
0000
1001
0000
0010
0001
0010
0000
,  // measure 65
0010
1000
0010
0000
0010
0001
0010
0100
,  // measure 66
0010
1000
0010
0000
0010
0001
0010
0100
,  // measure 67
0010
1000
0010
0100
0010
0001
0010
0100
,  // measure 68
0010
1000
0010
0000
1001
0010
0100
0010
,  // measure 69
0100
0000
0100
0010
0100
0000
0100
0010
,  // measure 70
0100
0010
0100
0010
0100
1000
0001
1000
,  // measure 71
0001
0000
0001
1000
0001
0000
0001
1000
,  // measure 72
0001
1000
0000
1001
0000
0010
0001
0010
,  // measure 73
0000
0010
1000
0010
0000
0010
0001
0010
,  // measure 74
0100
0010
1000
0010
0000
0010
0001
0010
,  // measure 75
0100
0010
1000
0010
0100
0010
0001
0010
,  // measure 76
0100
0010
1000
0010
0000
1001
0000
0001
,  // measure 77
0010
1000
0001
0010
0100
1000
0001
0100
,  // measure 78
0010
1000
0100
0010
0001
0100
0010
0000
,  // measure 79
1001
1100
1001
0101
,  // measure 80
1000
0100
1000
0010
0001
1000
0100
0000
,  // measure 81
0010
0001
1000
0010
0100
0001
1000
0100
,  // measure 82
0010
0001
0100
0010
1000
0100
1001
0000
;
