#TITLE:Show You How;
#SUBTITLE:;
#ARTIST:StoneBridge (feat. Julie Morrison and Jay Soul);
#TITLETRANSLIT:;
#SUBTITLETRANSLIT:;
#ARTISTTRANSLIT:;
#CREDIT:;
#BANNER:showyouhow.png;
#BACKGROUND:showyouhow-bg.png;
#LYRICSPATH:;
#CDTITLE:;
#MUSIC:showyouhow.mp3;
#OFFSET:-7.546;
#SAMPLESTART:52.800;
#SAMPLELENGTH:12.000;
#SELECTABLE:YES;
#BPMS:0.000=114.070;
#STOPS:;
#BGCHANGES:;
// cache tags:
#FIRSTBEAT:0.000;
#LASTBEAT:152.000;
#SONGFILENAME:Songs/new/showyouhow/showyouhow.sm;
#HASMUSIC:1;
#HASBANNER:1;
#MUSICLENGTH:92.821;
// end cache tags

//---------------dance-single - ----------------
#NOTES:
     dance-single:
     :
     Easy:
     2:
     0.160,0.184,0.011,0.043,0.000,99.000,1.000,4.000,0.000,0.000:  // measure 1
1000
1000
1000
0000
,  // measure 2
0001
0000
0001
0000
,  // measure 3
2000
0100
0000
3100
,  // measure 4
0002
0100
0000
0103
,  // measure 5
2000
0100
0000
3100
,  // measure 6
0002
0100
0000
0103
,  // measure 7
0000
1000
0000
0010
,  // measure 8
0000
0100
0000
0010
,  // measure 9
1000
0001
0100
0000
,  // measure 10
0000
0010
0000
0010
,  // measure 11
0000
1000
0000
0001
,  // measure 12
0000
1000
0000
0100
,  // measure 13
0010
0001
0010
0000
,  // measure 14
0000
0100
0000
0100
,  // measure 15
1000
1000
0001
0001
,  // measure 16
0100
0100
0010
0010
,  // measure 17
0000
1000
0000
0010
,  // measure 18
0000
0100
0000
0001
,  // measure 19
0010
0010
0100
0100
,  // measure 20
1000
1000
0010
0010
,  // measure 21
0000
0100
0000
0001
,  // measure 22
0000
1000
0000
0010
,  // measure 23
0100
0001
0100
0000
,  // measure 24
0010
0000
1000
0000
,  // measure 25
0100
0010
0100
0000
,  // measure 26
1000
0000
0001
0000
,  // measure 27
1000
0100
0010
0000
,  // measure 28
0100
0000
1000
0000
,  // measure 29
0010
0100
0000
0000
,  // measure 30
0001
1000
0000
0000
,  // measure 31
0110
0000
1000
1000
,  // measure 32
0100
0000
0010
0000
,  // measure 33
0001
0000
0100
0100
,  // measure 34
0010
0000
1000
0000
,  // measure 35
0100
0000
0010
0010
,  // measure 36
0001
0000
0100
0000
,  // measure 37
0010
0000
1000
1000
,  // measure 38
0001
0000
0100
0000
,  // measure 39
0010
0000
0000
0000
;

//---------------dance-single - ----------------
#NOTES:
     dance-single:
     :
     Medium:
     5:
     0.295,0.307,0.205,0.022,0.000,171.000,19.000,2.000,0.000,0.000:  // measure 1
1000
0000
1000
0100
0010
0000
0001
0000
,  // measure 2
0100
0100
0010
0010
,  // measure 3
1000
1001
0010
0100
,  // measure 4
0010
0101
0010
0100
,  // measure 5
1000
0110
0001
0100
,  // measure 6
1000
0011
0100
0010
,  // measure 7
1000
0100
1000
0010
,  // measure 8
0100
0001
0010
0100
,  // measure 9
2000
0000
0010
0000
0001
0001
3001
0000
,  // measure 10
0100
0010
1000
0100
,  // measure 11
0010
0001
0100
0010
,  // measure 12
1000
0001
1000
0020
,  // measure 13
1000
0000
0100
0100
0130
0000
0001
0000
,  // measure 14
1000
0000
0010
0000
0100
0010
0100
0000
,  // measure 15
1001
1100
0010
0101
,  // measure 16
1010
0000
0100
0000
0011
0000
1000
0100
,  // measure 17
1000
0010
0100
0001
,  // measure 18
0010
0100
0010
0001
,  // measure 19
0110
1100
0010
0101
,  // measure 20
1010
1000
0110
0011
,  // measure 21
0100
0010
1000
0100
,  // measure 22
0010
0000
0001
0000
0100
0010
0100
0010
,  // measure 23
1000
0001
1001
0100
,  // measure 24
0010
1000
0010
0000
0100
0001
0100
0001
,  // measure 25
0010
0100
0110
1000
,  // measure 26
0001
0100
0001
0000
0010
0100
0010
0100
,  // measure 27
1000
0010
1010
0100
,  // measure 28
0001
0010
0001
0000
0100
0000
0010
0000
,  // measure 29
1000
0100
1000
0010
,  // measure 30
0100
0100
0001
0001
,  // measure 31
0110
0000
1000
0000
0010
0100
0010
0000
,  // measure 32
1000
0001
1000
0001
,  // measure 33
0100
0000
0010
0000
1000
0100
1000
0000
,  // measure 34
0100
0100
0010
0010
,  // measure 35
0001
0000
0100
0000
0010
1000
0010
0000
,  // measure 36
0100
0001
0001
0010
,  // measure 37
0100
0000
1000
0000
0001
0100
0001
0000
,  // measure 38
0100
0010
1000
0100
,  // measure 39
0010
0000
0000
0000
;

//---------------dance-single - ----------------
#NOTES:
     dance-single:
     :
     Hard:
     8:
     0.456,0.430,0.302,0.065,0.329,262.000,28.000,6.000,0.000,0.000:  // measure 1
0010
0000
0010
0000
1000
0000
1000
0000
0100
0000
0000
0000
0001
0000
0100
0010
,  // measure 2
0100
0000
0000
0000
1000
0000
0000
0000
0001
0100
0001
0000
0010
0000
0000
0000
,  // measure 3
0210
1000
1300
0000
0210
0001
0301
0000
,  // measure 4
0210
1000
1300
0000
0010
1000
1001
0000
,  // measure 5
0120
1000
1030
0000
0120
0001
0031
0000
,  // measure 6
0120
0000
1000
0000
1030
0000
0000
0000
0001
0000
0100
0000
0110
0000
0000
1000
,  // measure 7
0000
0001
0000
0100
0000
0010
0000
1000
0000
0100
0000
0010
0000
0001
0000
0100
,  // measure 8
0000
0010
0000
1000
0000
0100
0000
1000
0000
0000
0000
0000
0110
0000
0001
0000
,  // measure 9
0100
1000
0100
0010
1000
0100
0100
0000
,  // measure 10
0010
0000
0001
0000
0100
0000
0000
0000
0010
1000
0010
0000
0100
0000
0000
0001
,  // measure 11
0000
0010
0000
0001
0000
0100
0000
0010
0000
1000
0000
0100
0000
0010
0000
0100
,  // measure 12
0000
1000
0000
0100
0000
0000
0110
0000
0000
0000
0001
0000
1000
0000
0010
0000
,  // measure 13
0001
0010
1000
0100
0100
0000
0110
0000
,  // measure 14
0001
1000
0010
0000
0100
0001
1000
0100
,  // measure 15
0010
0001
0000
0000
0100
0010
0000
0000
1000
0100
0000
0000
1000
0100
0000
0000
,  // measure 16
0010
0100
0000
0000
1000
0001
0000
0000
0100
0010
0000
0000
1000
0000
0001
0000
,  // measure 17
1000
0000
0000
0000
0110
0000
0000
0000
1000
0000
0000
0000
0001
0100
0000
0010
,  // measure 18
0000
1000
0000
0100
0000
0010
0000
0100
0000
0100
0000
0000
0000
0000
0010
0000
,  // measure 19
0001
0100
0000
0000
0001
0010
0000
0000
0100
1000
0000
0000
0010
0100
0000
0000
,  // measure 20
0001
1000
0000
0000
0100
0010
0000
0000
0100
1000
0000
0000
0010
0000
0100
0000
,  // measure 21
0001
0000
0010
0100
0000
1000
0010
1000
,  // measure 22
0100
0010
0100
0000
0010
0001
0100
0010
,  // measure 23
1001
0000
0000
0000
1010
0000
0000
0000
0100
0001
0100
0000
0010
0000
1000
0000
,  // measure 24
0100
0100
0010
0000
0001
1000
0100
0010
,  // measure 25
1100
0000
0000
0000
0110
0000
0000
0000
0010
0001
0010
0000
0100
0000
1000
0000
,  // measure 26
0010
0010
0100
0000
0010
1000
0001
0100
,  // measure 27
0110
0000
0000
0000
0101
0000
0000
0000
1000
0100
1000
0000
0010
0000
0100
0000
,  // measure 28
0001
0001
0010
0000
0100
1000
0010
0100
,  // measure 29
0000
0001
0000
0000
0101
0000
0000
0000
0010
0000
0100
0000
0010
0000
0100
0000
,  // measure 30
0000
1000
0000
0000
1001
0000
0000
0000
0100
0000
0000
0000
0010
0000
1000
0000
,  // measure 31
1001
0000
0010
0000
0100
0000
0000
0000
0010
1000
0010
0000
0100
0000
0001
0000
,  // measure 32
0010
0000
0101
0000
0010
0100
1001
0000
,  // measure 33
0110
0000
1000
0000
1000
0000
0000
0000
0100
0010
0100
0000
1000
0000
0001
0000
,  // measure 34
0100
0000
0000
0000
0010
0000
0000
0000
1000
0001
1000
0000
0010
0000
0000
0000
,  // measure 35
0110
0000
0100
0000
0001
0000
0000
0000
0010
0001
0010
0000
0100
0000
1000
0000
,  // measure 36
0010
0000
1100
0000
0010
0001
0101
0000
,  // measure 37
1010
0000
0100
0000
0100
0000
0000
0000
0001
0010
0001
0000
0100
0000
0010
0000
,  // measure 38
1000
0000
0000
1000
0100
0000
0000
0100
0010
0000
0000
0010
0001
0000
1000
0000
,  // measure 39
1000
0000
0000
0000
;
