#TITLE:X vs. Zero(Megaman X5);
#SUBTITLE:;
#ARTIST:Capcom Sound Team;
#TITLETRANSLIT:;
#SUBTITLETRANSLIT:;
#ARTISTTRANSLIT:;
#CREDIT:Megaman X5(Capcom);
#BANNER:X vs. Zero-banner.GIF;
#BACKGROUND:X vs. Zero-bg.JPG;
#LYRICSPATH:;
#CDTITLE:PhoenixW-cdtitle.JPG;
#MUSIC:25 - X5 - X vs ZERO.mp3;
#OFFSET:-0.369;
#SAMPLESTART:46.475;
#SAMPLELENGTH:12.000;
#SELECTABLE:YES;
#BPMS:0.000=130.133,4.000=260.273,36.000=130.133,56.000=260.273,120.000=130.132,192.000=260.273,224.000=130.132,244.000=260.273,308.000=130.132,380.000=260.272,412.000=130.132,432.000=260.172;
#STOPS:;
#BGCHANGES:;
// cache tags:
#FIRSTBEAT:0.000;
#LASTBEAT:480.000;
#SONGFILENAME:Songs/dragon force/25 - X5 - X vs ZERO/25 - X5 - X vs ZERO.sm;
#HASMUSIC:1;
#HASBANNER:1;
#MUSICLENGTH:163.586;
// end cache tags

//---------------dance-single - ----------------
#NOTES:
     dance-single:
     :
     Challenge:
     12:
     1.000,1.000,0.275,0.055,0.856,1097.000,45.000,9.000,0.000,0.000:
1000
0100
1000
0010
0100
0010
1000
0100
0010
0001
0010
0001
1000
0010
0100
0001
,
0100
0010
1000
0010
1000
0100
0010
0001
,
1000
0001
0100
1001
0000
0000
0110
0000
,
1000
0001
0010
0100
0010
0001
1000
0100
,
0010
1100
0000
0100
1010
0000
0010
0101
,
1000
0001
1000
0001
0100
0010
1000
0001
,
0100
0010
1000
0110
0000
0000
0011
0000
,
1000
0100
0001
0100
1000
0010
0100
0001
,
0010
0000
0100
1000
0100
1000
0100
0000
0010
0001
0010
0000
0100
0010
0100
0000
,
1000
0010
1000
0010
0100
0010
0100
0001
0010
0001
0010
0001
1000
0000
0100
0000
,
0010
0001
0010
0001
0100
0010
0100
0010
1000
0010
1000
0000
0001
0100
0001
0000
,
1000
0100
0010
0001
1000
0010
0100
0001
0010
0100
0010
0100
1000
0000
0010
0000
,
0100
0001
0010
0100
1000
0010
0100
0001
1000
0010
1000
0000
0001
0010
0001
0000
,
1000
0100
0000
1000
0100
0000
0010
0000
0001
1000
0001
0100
0010
1000
0100
0010
,
0001
1000
0100
0010
0001
1000
0100
1000
,
0001
0010
0001
1000
0010
0001
0010
1000
,
0001
0010
0100
0010
0001
1000
0100
0010
,
1000
0010
0100
1000
0001
0010
0001
0100
,
0010
0100
0001
1000
0001
1000
0100
1000
,
0010
0100
0010
1000
0100
0010
0001
0100
,
1000
0100
0001
0010
0001
0100
0010
0100
,
0001
1000
0010
0100
0001
0100
0010
1000
,
0100
0010
0100
1000
0001
0100
1000
0100
,
0001
0010
0100
0010
0100
1000
0010
0100
,
0001
0010
1000
0100
1000
0010
0001
0100
,
0010
1000
0100
0010
0100
0001
0010
0100
,
0010
1000
0100
0010
0001
0100
0010
1000
,
0001
0000
0100
0000
0010
0000
0001
0000
0010
0000
0100
0000
0001
1000
0001
1000
,
0001
1001
0000
0110
0000
1001
0000
0110
,
0000
0000
1000
0000
0000
0000
1000
0000
0001
0010
0001
0010
0001
0010
0001
0000
,
1000
0100
1000
0010
0100
0010
1000
0100
1000
0001
0010
0001
0100
0010
1000
0000
,
1000
0010
1000
0100
0010
0100
1000
0001
1000
0001
0100
0001
0010
0000
0001
0000
,
0100
0010
0100
0001
0010
0001
1000
0100
1000
0001
0100
0001
1000
0100
0010
0000
,
0001
0100
0010
1000
0100
0010
0001
1000
0010
0100
0001
1000
0001
0000
0110
0000
,
1000
0010
1000
0100
0001
0100
1000
0001
1000
0010
0100
0010
1000
0100
0010
0000
,
0001
0100
0001
0010
1000
0010
0001
1000
0001
0010
0100
0010
0001
0000
0010
0000
,
0100
1000
0100
0010
0001
0010
0100
0010
0100
1000
0001
1000
0001
0100
0010
0000
,
1000
0010
1000
0010
1000
0001
1000
0001
1000
0000
0001
0010
0000
0100
1000
0100
,
1001
0000
0000
0001
0000
1000
0100
0000
0110
0000
0000
1000
0000
0001
0010
0000
,
0101
0000
0000
1000
0000
0010
0000
0100
0000
0001
0000
0000
0001
1000
0010
0000
,
0100
0000
0000
0001
0000
0000
0001
0000
0010
0000
0000
0000
1000
0000
0010
0000
,
0100
0000
0000
0001
0000
0000
1000
0000
0020
0000
0000
0000
0000
0000
0030
0000
,
0101
0000
0000
1000
0000
0010
1000
0000
0011
0000
0000
0010
0000
0100
0001
0000
,
0110
0000
0000
0001
0000
0010
0000
0100
0000
1000
0000
0000
1000
0001
0100
0000
,
0010
0000
0000
0100
0000
0000
0100
0000
1000
0000
0000
0000
0001
0000
0100
0000
,
0010
0000
0000
0100
0000
0000
0001
0000
2000
0000
0000
0000
0000
0000
3000
0000
,
0120
0000
0000
0000
0000
0000
0000
0000
1030
0000
0000
0001
0000
0000
0100
0000
,
0020
0000
0000
0000
0000
0000
0000
0000
1030
0100
0010
0001
1000
0010
0100
0001
,
0010
0100
0001
0100
0001
0010
0100
1000
,
0001
1000
0010
1001
0000
0000
0110
0000
,
0001
1000
0100
0010
0100
1000
0001
0010
,
0100
0011
0000
0010
0101
0000
0100
1010
,
0001
1000
0001
1000
0010
0100
0001
1000
,
0010
0100
0001
0110
0000
0000
1100
0000
,
0001
0010
1000
0010
0001
0100
0010
1000
,
0100
0000
0010
0001
0010
0001
0010
0000
0100
1000
0100
0000
0010
0100
0010
0000
,
0001
0100
0001
0100
0010
0100
0010
1000
0100
1000
0100
1000
0001
0000
0010
0000
,
0100
1000
0100
1000
0010
0100
0010
0100
0001
0100
0001
0000
1000
0010
1000
0000
,
0001
0010
0100
1000
0001
0100
0010
1000
0100
0010
0100
0010
0001
0000
0100
0000
,
0010
1000
0100
0010
0001
0100
0010
1000
0001
0100
0001
0000
1000
0100
1000
0000
,
0001
0010
0000
0001
0010
0000
0100
0000
1000
0001
1000
0010
0100
0001
0010
0100
,
1000
0001
0010
0100
1000
0001
0010
0001
,
1000
0100
1000
0001
0100
1000
0100
0001
,
1000
0100
0010
0100
1000
0001
0010
0100
,
0001
0100
0010
0001
1000
0100
1000
0010
,
0100
0010
1000
0001
1000
0001
0010
0001
,
0100
0010
0100
0001
0010
0100
1000
0010
,
0001
0010
1000
0100
1000
0010
0100
0010
,
1000
0001
0100
0010
1000
0010
0100
0001
,
0010
0100
0010
0001
1000
0010
0001
0010
,
1000
0100
0010
0100
0010
0001
0100
0010
,
1000
0100
0001
0010
0001
0100
1000
0010
,
0100
0001
0010
0100
0010
1000
0100
0010
,
0100
0001
0010
0100
1000
0010
0100
0001
,
1000
0000
0010
0000
0100
0000
1000
0000
0100
0000
0010
0000
1000
0001
1000
0001
,
1000
1001
0000
0110
0000
1001
0000
0110
,
0000
0000
0001
0000
0000
0000
0001
0000
1000
0100
1000
0100
1000
0100
1000
0000
,
0001
0010
0001
0100
0010
0100
0001
0010
0001
1000
0100
1000
0010
0100
0001
0000
,
0001
0100
0001
0010
0100
0010
0001
1000
0001
1000
0010
1000
0100
0000
1000
0000
,
0010
0100
0010
1000
0100
1000
0001
0010
0001
1000
0010
1000
0001
0010
0100
0000
,
1000
0010
0100
0001
0010
0100
1000
0001
0100
0010
1000
0001
1000
0000
0110
0000
,
0001
0100
0001
0010
1000
0010
0001
1000
0001
0100
0010
0100
0001
0010
0100
0000
,
1000
0010
1000
0100
0001
0100
1000
0001
1000
0100
0010
0100
1000
0000
0100
0000
,
0010
0001
0010
0100
1000
0100
0010
0100
0010
0001
1000
0001
1000
0010
0100
0000
,
0001
0100
0001
0100
0001
1000
0001
1000
0001
0000
1000
0100
0000
0010
0001
0010
,
1001
0000
0000
1000
0000
0001
0010
0000
0110
0000
0000
0001
0000
1000
0100
0000
,
1010
0000
0000
0001
0000
0100
0000
0010
0000
1000
0000
0000
1000
0001
0100
0000
,
0010
0000
0000
1000
0000
0000
1000
0000
0100
0000
0000
0000
0001
0000
0100
0000
,
0010
0000
0000
1000
0000
0000
0001
0000
0200
0000
0000
0000
0000
0000
0300
0000
,
1010
0000
0000
0001
0000
0100
0001
0000
1100
0000
0000
0100
0000
0010
1000
0000
,
0110
0000
0000
1000
0000
0100
0000
0010
0000
0001
0000
0000
0001
1000
0010
0000
,
0100
0000
0000
0010
0000
0000
0010
0000
0001
0000
0000
0000
1000
0000
0010
0000
,
0100
0000
0000
0010
0000
0000
1000
0000
0002
0000
0000
0000
0000
0000
0003
0000
,
0210
0000
0000
0000
0000
0000
0000
0000
0301
0000
0000
1000
0000
0000
0010
0000
,
0200
0000
0000
0000
0000
0000
0000
0000
0301
0010
0100
1000
0010
0001
1000
0100
,
0010
0001
0010
0001
0010
1000
0001
0100
,
0010
0100
1000
0110
0000
0000
1001
0000
,
0010
0100
0001
1000
0001
0100
0010
1000
,
0001
1010
0000
1000
0011
0000
0001
1100
,
0010
0100
0010
0100
1000
0001
0010
0100
,
1000
0001
0010
1001
0000
0000
0101
0000
,
0010
1000
0100
1000
0010
0001
1000
0100
,
0001
0000
1000
0010
1000
0010
1000
0000
0001
0100
0001
0000
1000
0001
1000
0000
,
0010
0001
0010
0001
1000
0001
1000
0100
0001
0100
0001
0100
0010
0000
1000
0000
,
0001
0100
0001
0100
1000
0001
1000
0001
0010
0001
0010
0000
0100
1000
0100
0000
,
0010
1000
0001
0100
0010
0001
1000
0100
0001
1000
0001
1000
0010
0000
0001
0000
,
1000
0100
0001
1000
0010
0001
1000
0100
0010
0001
0010
0000
0100
0001
0100
0000
,
0010
1000
0000
0010
1000
0000
0001
0000
0100
0010
0100
1000
0001
0010
1000
0001
,
0100
0010
1000
0100
0010
0001
1000
0010
,
1000
0100
0001
0100
1000
0010
0100
0001
,
0010
0100
1000
0001
0100
0001
0010
1000
,
0010
0001
1000
0010
0100
0010
1000
0001
,
0100
0010
1000
0001
1000
0100
0010
0100
,
1000
0001
0100
0010
0001
0010
0100
0001
,
0010
1000
0100
0010
1000
0100
0001
0010
,
0100
0010
0001
1000
0100
0010
0001
0010
,
0100
1000
0001
0100
1000
0100
0001
0010
,
0001
1000
0010
2000
0000
0000
0000
0000
,
0000
0000
0000
0000
,
0000
0000
0000
0000
,
3000
0000
0000
0000
;

//---------------dance-single - ----------------
#NOTES:
     dance-single:
     :
     Hard:
     10:
     0.790,0.954,0.856,0.293,0.520,717.000,140.000,48.000,0.000,0.000:
1000
0100
1000
0010
0100
0010
1000
0100
0010
0001
0010
0001
1000
0010
0100
0001
,
0100
0010
1000
0010
1000
0100
0010
0001
,
1000
0001
0100
1001
0000
0000
0110
0000
,
1000
0001
0010
0100
0010
0001
1000
0100
,
0010
1100
0000
0100
1010
0000
0010
0101
,
1000
0001
1000
0001
0100
0010
1000
0001
,
0100
0010
1000
0110
0000
0000
0011
0000
,
1000
0100
0001
0100
1000
0010
0100
0001
,
0010
0101
0000
0001
0011
0000
0010
1001
,
1001
0000
0000
0110
0000
0000
1001
0000
0000
1010
0000
0000
0001
1000
0010
0000
,
0101
0000
0000
0110
0000
0000
0011
0000
0000
1001
0000
0000
0010
0100
1000
0010
,
0110
0000
0000
1100
0000
0000
1001
0000
0000
0110
0000
0000
0100
0001
0010
0000
,
1010
0000
0000
0011
0000
0000
1001
0000
0000
0101
0000
0000
1000
0010
0100
0001
,
1000
0100
0000
1000
0100
0000
0010
0000
0001
1000
0001
0100
0010
1000
0100
0010
,
0001
0200
0000
0000
0000
0000
0310
1000
,
0200
0000
0000
0300
,
1001
0000
0000
0110
0000
1000
1010
0000
,
0101
0000
0001
0010
0000
0001
0010
0100
,
1000
0020
0000
0000
0000
0000
1030
0001
,
0020
0000
0000
0030
,
1100
0000
0000
0011
0000
0100
0101
0000
,
1001
0000
0010
1000
0001
1000
0010
0100
,
0010
2000
0000
0000
0000
0000
3001
0100
,
0020
0000
0000
0030
,
1010
0000
0000
1100
0000
0001
1001
0000
,
0101
0000
0001
0100
0000
0010
1000
0001
,
0100
0020
0000
0000
0000
0000
1030
0010
,
0200
0000
0000
0300
,
0010
1001
0000
0110
0000
1001
0000
0110
,
0000
0000
0001
0000
0000
0000
0001
0000
1000
0100
1000
0100
1000
0100
1000
0000
,
0002
0000
0203
0000
,
0310
0000
0000
1001
0000
0000
0200
0000
0000
0000
0310
0000
1000
0000
0010
0000
,
0200
0000
0000
0000
0000
0000
0000
0000
0301
0010
0001
0100
0010
1000
0001
0100
,
0010
0000
0000
0110
0000
0000
0100
0001
0000
0000
2000
0000
0000
0000
3000
0010
,
0200
0000
0320
2030
,
3001
0000
0000
0110
0000
0000
0101
0000
1000
0000
0010
0000
0100
0010
0100
0000
,
0002
0000
0000
0000
0000
0000
0000
0000
0013
0100
0010
0001
0100
0010
1000
0001
,
1000
0010
1000
0010
1000
0001
1000
0001
1000
0000
0001
0010
0000
0100
1000
0100
,
1001
0000
0000
0001
0000
1000
0100
0000
0110
0000
0000
1000
0000
0001
0010
0000
,
0101
0000
0000
1000
0000
0010
0000
0100
0000
0001
0000
0000
0001
1000
0010
0000
,
0100
0000
0000
0001
0000
0000
0001
0000
0010
0000
0000
0000
1000
0000
0010
0000
,
0100
0000
0000
0001
0000
0000
1000
0000
0020
0000
0000
0000
0000
0000
0030
0000
,
0101
0000
0000
1000
0000
0010
1000
0000
0011
0000
0000
0010
0000
0100
0001
0000
,
0110
0000
0000
0001
0000
0010
0000
0100
0000
1000
0000
0000
1000
0001
0100
0000
,
0010
0000
0000
0100
0000
0000
0100
0000
1000
0000
0000
0000
0001
0000
0100
0000
,
0010
0000
0000
0100
0000
0000
0001
0000
2000
0000
0000
0000
0000
0000
3000
0000
,
0120
0000
0000
0000
0000
0000
0000
0000
1030
0000
0000
0001
0000
0000
0100
0000
,
0020
0000
0000
0000
0000
0000
0000
0000
1030
0100
0010
0001
1000
0010
0100
0001
,
0010
0100
0001
0100
0001
0010
0100
1000
,
0001
1000
0010
1001
0000
0000
0110
0000
,
0001
1000
0100
0010
0100
1000
0001
0010
,
0100
0011
0000
0010
0101
0000
0100
1010
,
0001
1000
0001
1000
0010
0100
0001
1000
,
0010
0100
0001
0110
0000
0000
1100
0000
,
0001
0010
1000
0010
0001
0100
0010
1000
,
0100
1010
0000
1000
1100
0000
0100
1001
,
1001
0000
0000
0110
0000
0000
1001
0000
0000
0101
0000
0000
1000
0001
0100
0000
,
1010
0000
0000
0110
0000
0000
1100
0000
0000
1001
0000
0000
0100
0010
0001
0100
,
0110
0000
0000
0011
0000
0000
1001
0000
0000
0110
0000
0000
0010
1000
0100
0000
,
0101
0000
0000
1100
0000
0000
1001
0000
0000
1010
0000
0000
0001
0100
0010
1000
,
0001
0010
0000
0001
0010
0000
0100
0000
1000
0001
1000
0010
0100
0001
0010
0100
,
1000
0020
0000
0000
0000
0000
0130
0001
,
0020
0000
0000
0030
,
1001
0000
0000
0110
0000
0001
0101
0000
,
1010
0000
1000
0100
0000
1000
0100
0010
,
0001
0200
0000
0000
0000
0000
0301
1000
,
0200
0000
0000
0300
,
0011
0000
0000
1100
0000
0010
1010
0000
,
1001
0000
0100
0001
1000
0001
0100
0010
,
0100
0002
0000
0000
0000
0000
1003
0010
,
0200
0000
0000
0300
,
0101
0000
0000
0011
0000
1000
1001
0000
,
1010
0000
1000
0010
0000
0100
0001
1000
,
0010
0200
0000
0000
0000
0000
0301
0100
,
0020
0000
0000
0030
,
0100
1001
0000
0110
0000
1001
0000
0110
,
0000
0000
1000
0000
0000
0000
1000
0000
0001
0010
0001
0010
0001
0010
0001
0000
,
2000
0000
3020
0000
,
0130
0000
0000
1001
0000
0000
0020
0000
0000
0000
0130
0000
0001
0000
0100
0000
,
0020
0000
0000
0000
0000
0000
0000
0000
1030
0100
1000
0010
0100
0001
1000
0010
,
0100
0000
0000
0110
0000
0000
0010
1000
0000
0000
0002
0000
0000
0000
0003
0100
,
0020
0000
0230
0302
,
1003
0000
0000
0110
0000
0000
1010
0000
0001
0000
0100
0000
0010
0100
0010
0000
,
2000
0000
0000
0000
0000
0000
0000
0000
3100
0010
0100
1000
0010
0100
0001
1000
,
0001
0100
0001
0100
0001
1000
0001
1000
0001
0000
1000
0100
0000
0010
0001
0010
,
1001
0000
0000
1000
0000
0001
0010
0000
0110
0000
0000
0001
0000
1000
0100
0000
,
1010
0000
0000
0001
0000
0100
0000
0010
0000
1000
0000
0000
1000
0001
0100
0000
,
0010
0000
0000
1000
0000
0000
1000
0000
0100
0000
0000
0000
0001
0000
0100
0000
,
0010
0000
0000
1000
0000
0000
0001
0000
0200
0000
0000
0000
0000
0000
0300
0000
,
1010
0000
0000
0001
0000
0100
0001
0000
1100
0000
0000
0100
0000
0010
1000
0000
,
0110
0000
0000
1000
0000
0100
0000
0010
0000
0001
0000
0000
0001
1000
0010
0000
,
0100
0000
0000
0010
0000
0000
0010
0000
0001
0000
0000
0000
1000
0000
0010
0000
,
0100
0000
0000
0010
0000
0000
1000
0000
0002
0000
0000
0000
0000
0000
0003
0000
,
0210
0000
0000
0000
0000
0000
0000
0000
0301
0000
0000
1000
0000
0000
0010
0000
,
0200
0000
0000
0000
0000
0000
0000
0000
0301
0010
0100
1000
0001
0100
0010
1000
,
0100
0001
0010
0001
0010
1000
0001
0100
,
0010
0100
1000
0110
0000
0000
1001
0000
,
0010
0100
0001
1000
0001
0100
0010
1000
,
0001
1010
0000
1000
0011
0000
0001
1100
,
0010
0100
0010
0100
1000
0001
0010
0100
,
1000
0001
0010
1001
0000
0000
0101
0000
,
0010
1000
0100
1000
0010
0001
1000
0100
,
0001
1010
0000
0010
1100
0000
1000
0110
,
0101
0000
0000
1010
0000
0000
0101
0000
0000
0011
0000
0000
0100
0001
0010
0000
,
1100
0000
0000
1010
0000
0000
0110
0000
0000
0101
0000
0000
0010
1000
0001
0010
,
1010
0000
0000
1001
0000
0000
0101
0000
0000
1010
0000
0000
1000
0100
0010
0000
,
0011
0000
0000
0110
0000
0000
0101
0000
0000
1100
0000
0000
0001
0010
1000
0100
,
0001
1000
0000
0001
1000
0000
0010
0000
0100
0001
0100
1000
0010
0001
1000
0010
,
0100
2000
0000
0000
0000
0000
3010
0001
,
2000
0000
0000
3000
,
0101
0000
0000
1010
0000
0001
0011
0000
,
1100
0000
0100
0010
0000
0100
0010
1000
,
0001
0020
0000
0000
0000
0000
0031
0100
,
0020
0000
0000
0030
,
1001
0000
0000
0110
0000
1000
1100
0000
,
0101
0000
0010
0001
0100
0001
0010
1000
,
0010
0002
0000
0000
0000
0000
0103
1000
,
0020
0000
0000
0000
,
0000
0000
0000
0000
,
0000
0000
0000
0000
,
0030
0000
0000
0000
;

//---------------dance-single - ----------------
#NOTES:
     dance-single:
     :
     Medium:
     9:
     0.644,0.770,0.544,0.367,0.403,589.000,89.000,60.000,0.000,2.000:
1000
0100
1000
0010
0100
0010
1000
0100
0010
0001
0010
0001
1000
0010
0100
0001
,
0100
0010
0000
0010
0000
1000
0000
0001
,
0000
0001
0000
1001
0000
0000
0110
0000
,
1000
0010
0010
1000
,
0001
1100
0000
0100
1010
0000
0010
0101
,
0000
0001
0000
0001
0000
0010
0000
0100
,
0000
0100
0000
0110
0000
0000
0011
0000
,
1000
0001
1000
0100
,
0010
0101
0000
0001
0011
0000
0010
1001
,
0100
0000
0000
0010
0000
0000
0001
0000
0000
1000
0000
0000
0001
1000
0010
0000
,
0001
0000
0000
0100
0000
0000
0010
0000
0000
1000
0000
0000
0010
0100
0001
0010
,
0100
0000
0000
1000
0000
0000
0001
0000
0000
0010
0000
0000
0100
1000
0010
0000
,
0100
0000
0000
0001
0000
0000
1000
0000
0000
0010
0000
0000
1000
0010
0100
0001
,
2002
0000
0000
0000
,
3003
0200
0000
0000
0000
0000
0310
1000
,
0200
0000
0000
0300
,
1001
0000
0000
0110
0000
1000
0010
0000
,
0101
0000
0001
0010
0000
0001
0010
0100
,
1000
0020
0000
0000
0000
0000
1030
0001
,
0020
0000
0000
0030
,
1100
0000
0000
0011
0000
0100
0001
0000
,
1001
0000
0010
1000
0001
1000
0010
0100
,
0010
2000
0000
0000
0000
0000
3001
0100
,
0020
0000
0000
0030
,
1010
0000
0000
1100
0000
0001
1000
0000
,
0101
0000
0001
0100
0000
0010
1000
0001
,
0100
0020
0000
0000
0000
0000
1030
0010
,
0200
0000
0000
0300
,
0110
0000
0000
1000
0001
0000
1100
0000
,
1010
0000
0101
0000
0001
0010
0100
1000
,
0002
0000
0203
0000
,
0310
0000
0000
1001
0000
0000
0200
0000
0000
0000
0310
0000
1000
0000
0010
0000
,
0200
0000
0000
0000
0000
0000
0000
0000
0301
0010
0001
0100
0010
1000
0001
0100
,
0010
0000
0000
0110
0000
0000
0100
0001
0000
0000
2000
0000
0000
0000
3000
0010
,
0200
0000
0320
2030
,
3001
0000
0000
0110
0000
0000
0101
0000
1000
0000
0010
0000
0100
0010
0100
0000
,
0002
0000
0000
0000
0000
0000
0000
0000
0013
0100
0010
0001
0100
0010
1000
0001
,
2000
0000
0000
0000
3220
0000
0000
0330
,
1001
0000
0000
0001
0000
1000
0100
0000
0110
0000
0000
1000
0000
0001
0010
0000
,
0101
0000
0000
1000
0000
0010
0000
0100
0000
0001
0000
0000
0001
1000
0010
0000
,
0100
0000
0000
0001
0000
0000
0001
0000
0010
0000
0000
0000
1000
0000
0010
0000
,
0100
0000
0000
0001
0000
0000
1000
0000
0020
0000
0000
0000
0000
0000
0030
0000
,
0101
0000
0000
1000
0000
0010
1000
0000
0011
0000
0000
0010
0000
0100
0001
0000
,
0110
0000
0000
0001
0000
0010
0000
0100
0000
1000
0000
0000
1000
0001
0100
0000
,
0010
0000
0000
0100
0000
0000
0100
0000
1000
0000
0000
0000
0001
0000
0100
0000
,
0010
0000
0000
0100
0000
0000
0001
0000
2000
0000
0000
0000
0000
0000
3000
0000
,
0120
0000
0000
0000
0000
0000
0000
0000
1030
0000
0000
0001
0000
0000
0100
0000
,
0020
0000
0000
0000
0000
0000
0000
0000
1030
0100
0010
0001
1000
0010
0100
0001
,
0010
0100
0000
0100
0000
0001
0000
1000
,
0000
1000
0000
1001
0000
0000
0110
0000
,
0001
0100
0100
0001
,
1000
0011
0000
0010
0101
0000
0100
1010
,
0000
1000
0000
1000
0000
0100
0000
0010
,
0000
0010
0000
0110
0000
0000
1100
0000
,
0001
1000
0001
0010
,
0100
1010
0000
1000
1100
0000
0100
1001
,
0010
0000
0000
0100
0000
0000
1000
0000
0000
0001
0000
0000
1000
0001
0100
0000
,
1000
0000
0000
0010
0000
0000
0100
0000
0000
0001
0000
0000
0100
0010
1000
0100
,
0010
0000
0000
0001
0000
0000
1000
0000
0000
0100
0000
0000
0010
0001
0100
0000
,
0010
0000
0000
1000
0000
0000
0001
0000
0000
0100
0000
0000
0001
0100
0010
1000
,
2002
0000
0000
0000
,
3003
0020
0000
0000
0000
0000
0130
0001
,
0020
0000
0000
0030
,
1001
0000
0000
0110
0000
0001
0100
0000
,
1010
0000
1000
0100
0000
1000
0100
0010
,
0001
0200
0000
0000
0000
0000
0301
1000
,
0200
0000
0000
0300
,
0011
0000
0000
1100
0000
0010
1000
0000
,
1001
0000
0100
0001
1000
0001
0100
0010
,
0100
0002
0000
0000
0000
0000
1003
0010
,
0200
0000
0000
0300
,
0101
0000
0000
0011
0000
1000
0001
0000
,
1010
0000
1000
0010
0000
0100
0001
1000
,
0010
0200
0000
0000
0000
0000
0301
0100
,
0020
0000
0000
0030
,
0110
0000
0000
0001
1000
0000
0011
0000
,
0101
0000
1010
0000
1000
0100
0010
0001
,
2000
0000
3020
0000
,
0130
0000
0000
1001
0000
0000
0020
0000
0000
0000
0130
0000
0001
0000
0100
0000
,
0020
0000
0000
0000
0000
0000
0000
0000
1030
0100
1000
0010
0100
0001
1000
0010
,
0100
0000
0000
0110
0000
0000
0010
1000
0000
0000
0002
0000
0000
0000
0003
0100
,
0020
0000
0230
0302
,
1003
0000
0000
0110
0000
0000
1010
0000
0001
0000
0100
0000
0010
0100
0010
0000
,
2000
0000
0000
0000
0000
0000
0000
0000
3100
0010
0100
1000
0010
0100
0001
1000
,
0002
0000
0000
0000
0223
0000
0000
0330
,
1001
0000
0000
1000
0000
0001
0010
0000
0110
0000
0000
0001
0000
1000
0100
0000
,
1010
0000
0000
0001
0000
0100
0000
0010
0000
1000
0000
0000
1000
0001
0100
0000
,
0010
0000
0000
1000
0000
0000
1000
0000
0100
0000
0000
0000
0001
0000
0100
0000
,
0010
0000
0000
1000
0000
0000
0001
0000
0200
0000
0000
0000
0000
0000
0300
0000
,
1010
0000
0000
0001
0000
0100
0001
0000
1100
0000
0000
0100
0000
0010
1000
0000
,
0110
0000
0000
1000
0000
0100
0000
0010
0000
0001
0000
0000
0001
1000
0010
0000
,
0100
0000
0000
0010
0000
0000
0010
0000
0001
0000
0000
0000
1000
0000
0010
0000
,
0100
0000
0000
0010
0000
0000
1000
0000
0002
0000
0000
0000
0000
0000
0003
0000
,
0210
0000
0000
0000
0000
0000
0000
0000
0301
0000
0000
1000
0000
0000
0010
0000
,
0200
0000
0000
0000
0000
0000
0000
0000
0301
0010
0100
1000
0001
0100
0010
1000
,
0100
0001
0000
0001
0000
1000
0000
0100
,
0000
0100
0000
0101
0000
0000
1001
0000
,
0010
0001
0001
0010
,
0001
1010
0000
1000
0011
0000
0001
1100
,
0000
0100
0000
0100
0000
0001
0000
0100
,
0000
0100
0000
1001
0000
0000
0101
0000
,
0010
0100
0010
1000
,
0001
1010
0000
0010
1100
0000
1000
0110
,
0001
0000
0000
0010
0000
0000
0100
0000
0000
0010
0000
0000
0100
0001
0010
0000
,
0100
0000
0000
1000
0000
0000
0010
0000
0000
0100
0000
0000
0010
1000
0001
0010
,
1000
0000
0000
0001
0000
0000
0100
0000
0000
0010
0000
0000
1000
0100
0010
0000
,
0001
0000
0000
0010
0000
0000
0100
0000
0000
1000
0000
0000
0001
1000
0100
0001
,
0220
0000
0000
0000
,
0330
2000
0000
0000
0000
0000
3010
0001
,
2000
0000
0000
3000
,
0101
0000
0000
1010
0000
0001
0010
0000
,
1100
0000
0100
0010
0000
0100
0010
1000
,
0001
0020
0000
0000
0000
0000
0031
0100
,
0020
0000
0000
0030
,
1001
0000
0000
0110
0000
1000
0100
0000
,
0101
0000
0010
0001
0100
0001
0010
1000
,
0010
0002
0000
0000
0000
0000
0103
1000
,
0020
0000
0000
0000
,
0000
0000
0000
0000
,
0000
0000
0000
0000
,
0030
0000
0000
0000
;

//---------------dance-single - ----------------
#NOTES:
     dance-single:
     :
     Easy:
     7:
     0.544,0.587,0.660,0.367,0.269,455.000,108.000,60.000,0.000,2.000:
1000
0001
1000
0000
0000
0000
0000
0000
0001
0000
0001
0000
0000
0000
1000
0000
,
1000
0010
0000
0010
0000
1000
0000
0001
,
0000
0001
0000
1001
0000
0000
0110
0000
,
1000
0010
0010
1000
,
0000
1100
0000
0000
1010
0000
0000
0101
,
0000
0001
0000
0001
0000
0010
0000
0100
,
0000
0100
0000
0110
0000
0000
0011
0000
,
1000
0001
1000
0100
,
0000
0101
0000
0000
0011
0000
0000
1001
,
0100
0000
0000
0010
0000
0000
0001
0000
0000
1000
0000
0000
0000
1001
0000
0000
,
0001
0000
0000
0100
0000
0000
0010
0000
0000
1000
0000
0000
0010
0100
0000
0011
,
0000
0000
0000
1000
0000
0000
0001
0000
0000
0010
0000
0000
0000
1001
0000
0000
,
0100
0000
0000
0001
0000
0000
1000
0000
0000
0010
0000
0000
1000
0010
0100
0000
,
2002
0000
0000
0000
,
3003
0200
0000
0000
0000
0000
0310
0000
,
0200
0000
0000
0300
,
1001
0000
0000
0110
0000
0000
1010
0000
,
0101
0000
0001
0010
0000
0001
0000
0100
,
0000
0020
0000
0000
0000
0000
1030
0000
,
0020
0000
0000
0030
,
1100
0000
0000
0011
0000
0000
0101
0000
,
1001
0000
0010
1000
0001
0000
0100
0010
,
0000
2000
0000
0000
0000
0000
3001
0000
,
0020
0000
0000
0030
,
1010
0000
0000
1100
0000
0000
1001
0000
,
0101
0000
0001
0100
0000
0010
0000
0001
,
0000
0020
0000
0000
0000
0000
1030
0000
,
0200
0000
0000
0300
,
0110
0000
1001
1100
,
1010
0000
0101
0000
0010
0000
0100
1000
,
0002
0000
0203
0000
,
0310
0000
0000
1001
0000
0000
0200
0000
0000
0000
0310
0000
1000
0000
0010
0000
,
0200
0000
0000
0000
0301
0010
0100
1000
,
1000
0000
0000
0110
0000
0000
0000
1001
0000
0000
2000
0000
0000
0000
3000
0000
,
0200
0000
0320
2030
,
3001
0000
0000
0110
0000
0000
0001
0000
1000
0000
0010
0000
1000
0001
0000
0000
,
0002
0000
0000
0000
0013
0010
0100
1000
,
2000
0000
0000
0000
3220
0000
0000
0330
,
1001
0000
0000
0001
0000
1000
0000
0000
0110
0000
0000
1000
0000
0001
0000
0000
,
0101
0000
0000
1000
0000
0000
1000
0000
0000
0001
0000
0000
0001
1000
0000
0000
,
0100
0000
0000
0001
0000
0000
0001
0000
0010
0000
0000
0000
1000
0000
0010
0000
,
0100
0000
0000
0001
0000
0000
1000
0000
0020
0000
0000
0000
0000
0000
0030
0000
,
0101
0000
0000
1000
0000
0010
0000
0000
0011
0000
0000
0010
0000
0100
0000
0000
,
0110
0000
0000
0001
0000
0000
0001
0000
0000
1000
0000
0000
1000
0001
0000
0000
,
0010
0000
0000
0100
0000
0000
0100
0000
1000
0000
0000
0000
0001
0000
0100
0000
,
0010
0000
0000
0100
0000
0000
0001
0000
2000
0000
0000
0000
0000
0000
3000
0000
,
0120
0000
0000
0000
0000
0000
0000
0000
1030
0000
0000
0001
0000
0000
0100
0000
,
0020
0000
0000
0000
1030
0010
1000
0100
,
0010
0100
0000
0100
0000
1000
0000
0001
,
0000
0001
0000
1001
0000
0000
0110
0000
,
0001
0100
0100
0001
,
0000
0011
0000
0000
0101
0000
0000
1010
,
0000
1000
0000
1000
0000
0100
0000
0010
,
0000
0010
0000
0110
0000
0000
1100
0000
,
0001
1000
0001
0010
,
0000
1010
0000
0000
1100
0000
0000
1001
,
0010
0000
0000
0100
0000
0000
1000
0000
0000
0001
0000
0000
0000
1001
0000
0000
,
1000
0000
0000
0010
0000
0000
0100
0000
0000
0001
0000
0000
0100
0010
0000
1100
,
0000
0000
0000
0001
0000
0000
1000
0000
0000
0100
0000
0000
0000
1001
0000
0000
,
0010
0000
0000
1000
0000
0000
0001
0000
0000
0100
0000
0000
0001
0100
0010
0000
,
2002
0000
0000
0000
,
3003
0020
0000
0000
0000
0000
0130
0000
,
0020
0000
0000
0030
,
1001
0000
0000
0110
0000
0000
0101
0000
,
1010
0000
1000
0100
0000
1000
0000
0010
,
0000
0200
0000
0000
0000
0000
0301
0000
,
0200
0000
0000
0300
,
0011
0000
0000
1100
0000
0000
1010
0000
,
1001
0000
0100
0001
1000
0000
0010
0100
,
0000
0002
0000
0000
0000
0000
1003
0000
,
0200
0000
0000
0300
,
0101
0000
0000
0011
0000
0000
1001
0000
,
1010
0000
1000
0010
0000
0100
0000
1000
,
0000
0200
0000
0000
0000
0000
0301
0000
,
0020
0000
0000
0030
,
0110
0000
1001
0011
,
0101
0000
1010
0000
0100
0000
0010
0001
,
2000
0000
3020
0000
,
0130
0000
0000
1001
0000
0000
0020
0000
0000
0000
0130
0000
0001
0000
0100
0000
,
0020
0000
0000
0000
1030
0100
0010
0001
,
0001
0000
0000
0110
0000
0000
0000
1001
0000
0000
0002
0000
0000
0000
0003
0000
,
0020
0000
0230
0302
,
1003
0000
0000
0110
0000
0000
1000
0000
0001
0000
0100
0000
0001
1000
0000
0000
,
2000
0000
0000
0000
3100
0100
0010
0001
,
0002
0000
0000
0000
0223
0000
0000
0330
,
1001
0000
0000
1000
0000
0001
0000
0000
0110
0000
0000
0001
0000
1000
0000
0000
,
1010
0000
0000
0001
0000
0000
0001
0000
0000
1000
0000
0000
1000
0001
0000
0000
,
0010
0000
0000
1000
0000
0000
1000
0000
0100
0000
0000
0000
0001
0000
0100
0000
,
0010
0000
0000
1000
0000
0000
0001
0000
0200
0000
0000
0000
0000
0000
0300
0000
,
1010
0000
0000
0001
0000
0100
0000
0000
1100
0000
0000
0100
0000
0010
0000
0000
,
0110
0000
0000
1000
0000
0000
1000
0000
0000
0001
0000
0000
0001
1000
0000
0000
,
0100
0000
0000
0010
0000
0000
0010
0000
0001
0000
0000
0000
1000
0000
0010
0000
,
0100
0000
0000
0010
0000
0000
1000
0000
0002
0000
0000
0000
0000
0000
0003
0000
,
0210
0000
0000
0000
0000
0000
0000
0000
0301
0000
0000
1000
0000
0000
0010
0000
,
0200
0000
0000
0000
0301
0100
0001
0010
,
0100
1000
0000
1000
0000
0001
0000
0100
,
0000
0100
0000
0101
0000
0000
1001
0000
,
0010
0001
0001
0010
,
0000
1010
0000
0000
0011
0000
0000
1100
,
0000
0100
0000
0100
0000
0001
0000
0100
,
0000
0100
0000
1001
0000
0000
0101
0000
,
0010
0100
0010
1000
,
0000
1010
0000
0000
1100
0000
0000
0110
,
1000
0000
0000
0001
0000
0000
0100
0000
0000
0010
0000
0000
0000
0110
0000
0000
,
0100
0000
0000
1000
0000
0000
0001
0000
0000
0010
0000
0000
0001
1000
0000
0101
,
0000
0000
0000
0010
0000
0000
0100
0000
0000
0001
0000
0000
0000
1001
0000
0000
,
1000
0000
0000
0100
0000
0000
0010
0000
0000
0001
0000
0000
0010
0001
1000
0000
,
0220
0000
0000
0000
,
0330
2000
0000
0000
0000
0000
3001
0000
,
2000
0000
0000
3000
,
1001
0000
0000
1001
0000
0000
0011
0000
,
1100
0000
0100
0001
0000
0100
0000
1000
,
0000
0002
0000
0000
0000
0000
0013
0000
,
0002
0000
0000
0003
,
1010
0000
0000
0101
0000
0000
1100
0000
,
0110
0000
0001
0010
0100
0000
1000
0001
,
0000
0020
0000
0000
0000
0000
0130
0000
,
0002
0000
0000
0000
,
0000
0000
0000
0000
,
0000
0000
0000
0000
,
0003
0000
0000
0000
;
