#TITLE:Sharpest;
#SUBTITLE:;
#ARTIST:NTW;
#TITLETRANSLIT:;
#SUBTITLETRANSLIT:;
#ARTISTTRANSLIT:;
#CREDIT:David N.;
#BANNER:sharpest-bn.png;
#BACKGROUND:sharpest-bg.png;
#LYRICSPATH:;
#CDTITLE:muteCD.png;
#MUSIC:sharpest.ogg;
#OFFSET:1.314;
#SAMPLESTART:38.220;
#SAMPLELENGTH:13.000;
#SELECTABLE:YES;
#BPMS:0.000=135.000;
#STOPS:;
#BGCHANGES:;
// cache tags:
#FIRSTBEAT:3.000;
#LASTBEAT:237.000;
#SONGFILENAME:Songs/SSSC Pack 2/Sharpest - [Mute]/sharpest.sm;
#HASMUSIC:1;
#HASBANNER:1;
#MUSICLENGTH:105.500;
// end cache tags

//---------------dance-single - Mute----------------
#NOTES:
     dance-single:
     Mute:
     Challenge:
     17:
     1.000,1.000,0.256,1.000,1.000,848.000,27.000,459.000,163.000,0.000:

0000
0000
0000
0000
0000
0000
0000
0000
0000
0000
0000
0000
0000
0000
0000
0000
0000
0000
0000
0000
0000
0000
0000
0000
0M00
00M0
0M00
00M0
0M00
00M0
0M00
00M0
,
1000
0001
0010
0001
1000
0010
0001
0010
,
0100
0010
1000
0010
0001
0010
1000
0001
,
1000
0000
0100
0000
0001
0000
0100
0000
0010
0000
0100
0000
1000
0010
0100
0001
,
0100
0000
0010
0000
1000
0000
0001
0000
0010
0100
0010
0000
1000
0100
1000
0000
0001
1000
0001
0000
0100
0001
0100
0000
0010
0000
1000
0000
0001
0000
1000
0000
,
0010
0100
0001
0100
0001
0010
0001
0010
0100
1000
0100
0100
0010
0100
1000
0010
,
1000
0100
1000
0010
0200
0000
0000
0000
0302
0000
0000
0000
2003
0000
0000
0000
,
3020
0000
0000
0000
0000
0000
0000
0000
1030
0100
0010
0001
1000
0000
1000
0000
0100
0000
0100
0010
0001
1000
0100
0000
0010
0000
0100
0000
1000
0000
0010
0000
,
0100
0000
0001
0000
0100
0000
0010
0000
1000
0001
1000
0001
1000
0000
0010
0000
0100
0000
0000
0000
0001
0000
0000
0000
1000
0000
0000
0000
0100
0000
0000
0000
,
1000
0000
0000
0000
0010
0000
0000
0000
0110
0000
0000
0000
0101
0000
0000
0000
0011
0000
0000
0000
1001
0000
0000
0000
1000
0100
1000
0100
1000
0000
0000
0000
,
1010
1100
0011
1001
0101
1010
1010
1000
,
0001
0000
0000
0000
0100
0000
0000
0000
0010
1000
0010
0000
1000
0010
1000
0000
0010
0100
0010
0000
0100
0010
0100
0000
0001
0100
0001
0100
0001
1000
0001
1000
,
0001
0010
0001
0000
1000
0001
1000
0000
0001
0000
0000
0000
0101
0000
0000
0000
0011
0000
0000
0000
0101
0000
0000
0000
1001
0000
0000
0000
1100
0000
0000
0000
,
1010
0000
0000
0000
1100
0000
0000
0000
1000
0100
1000
0000
0010
0000
1000
0000
0001
0000
1000
0000
0001
0000
0010
0000
0100
0000
0010
0000
0001
0000
0010
0000
,
0100
1000
0100
0000
0010
0000
0000
0000
0001
0000
0000
0000
0100
0000
0000
0000
0010
0000
0000
0000
1000
0000
0000
0000
0002
0000
0000
0000
0100
0000
0000
0000
,
0100
0100
0100
0100
0100
0100
0103
0100
,
0010
1000
0100
1000
0010
0100
0001
0010
,
0001
0000
0000
0000
0000
0000
0000
0000
0000
0000
0000
0000
0000
0000
0000
0000
0000
0000
0000
0000
0000
0000
0000
0000
0100
0000
0000
0000
0000
0000
0000
0000
0000
0000
0000
0000
0000
0000
0000
0000
0000
0000
0000
0000
0000
0000
0000
0000
0020
0030
0000
0000
0000
0000
2000
3000
0000
0000
0000
0000
0020
0030
0000
0000
0000
0000
2000
3000
0000
0000
0000
0000
0020
0030
0000
0000
0000
0000
2000
3000
0000
0000
0000
0000
0020
0030
0000
0000
0000
0000
2000
3000
0000
0000
0000
0000
0020
0030
0000
0000
0000
0000
2000
3000
0000
0000
0000
0000
0020
0030
0000
0000
0000
0000
2000
3000
0000
0000
0000
0000
0020
0030
0000
0000
0000
0000
2000
3000
0000
0000
0000
0000
0020
0030
0000
0000
0000
0000
2000
3000
0000
0000
0000
0000
0020
0030
0000
0000
0000
0000
0200
0300
0000
0000
0000
0000
0020
0030
0000
0000
0000
0000
0200
0300
0000
0000
0000
0000
0020
0030
0000
0000
0000
0000
0200
0300
0000
0000
0000
0000
0020
0030
0000
0000
0000
0000
0200
0300
0000
0000
0000
0000
,
0020
0030
0000
0000
0000
0000
0200
0300
0000
0000
0000
0000
0020
0030
0000
0000
0000
0000
0200
0300
0000
0000
0000
0000
0020
0030
0000
0000
0000
0000
0200
0300
0000
0000
0000
0000
0020
0030
0000
0000
0000
0000
0200
0300
0000
0000
0000
0000
0002
0003
0000
0000
0000
0000
0200
0300
0000
0000
0000
0000
0002
0003
0000
0000
0000
0000
0200
0300
0000
0000
0000
0000
0002
0003
0000
0000
0000
0000
0200
0300
0000
0000
0000
0000
0002
0003
0000
0000
0000
0000
0200
0300
0000
0000
0000
0000
0002
0003
0000
0000
0000
0000
0200
0300
0000
0000
0000
0000
0002
0003
0000
0000
0000
0000
0200
0300
0000
0000
0000
0000
0002
0003
0000
0000
0000
0000
0200
0300
0000
0000
0000
0000
0002
0003
0000
0000
0000
0000
0200
0300
0000
0000
0000
0000
0002
0003
0000
0000
0000
0000
0000
0000
0000
0000
0000
0000
1000
0000
0000
0000
0000
0000
0000
0000
0000
0000
0000
0000
0010
0000
0000
0000
0000
0000
0000
0000
0000
0000
0000
0000
1000
0000
0000
0000
0000
0000
0000
0000
0000
0000
0000
0000
,
0001
0000
0010
0000
0001
0000
0100
0000
0001
1000
0001
0000
0100
0000
0010
0000
0100
0000
0001
0000
1000
0000
0010
0000
0100
0000
0001
0000
0010
0000
0100
0000
,
1000
0000
0010
0000
1000
0000
0100
0000
1000
0001
1000
0000
0001
0000
0010
0000
0001
0000
0100
0000
0010
0000
1000
0000
0002
0000
0000
0000
0000
0000
0000
0000
,
0000
2003
0000
3200
,
0000
0000
0000
0300
1002
0000
0100
0000
1000
0000
0103
0000
2010
0000
0001
0000
,
0100
3001
0021
0100
0001
0130
1200
0010
,
1000
0310
1002
0100
1000
0013
2001
0010
,
0001
3100
1020
0100
0001
0130
0210
0001
,
0010
0000
0301
0000
2010
0000
0001
0000
0100
0000
3001
0000
0001
0100
0010
0100
,
0001
0000
1000
0000
0100
0000
1000
0000
0001
0000
0010
0000
0100
0000
0010
0000
0001
0000
1000
0000
0100
0000
1000
0001
1000
0000
0010
0000
1000
0000
0001
0100
,
0001
0000
0100
0000
0001
0000
0100
0010
0100
0000
0001
0000
1000
0000
0001
0100
0001
0000
0100
0000
0001
1000
0001
0000
1000
0000
0010
0000
0100
0000
0001
0010
,
0001
0000
0100
0000
0001
0000
1000
0100
1000
0000
0000
0000
0000
0000
0000
0000
0000
0000
0000
0000
0000
0000
1000
0100
1000
0000
0000
0000
0000
0000
0000
0000
,
0000
0000
0000
0000
0000
0000
1000
0100
1000
0000
0000
0000
0000
0000
1000
0100
1000
0000
0000
0000
0000
0000
1000
0100
1000
0000
0000
0000
0000
0000
1000
0100
,
1000
0000
0010
0000
0010
0000
1000
0001
1000
0000
0100
0000
0100
0000
0010
0001
0010
0000
0001
0000
0001
0000
1000
0010
1000
0000
0100
0000
0100
0000
0010
0100
,
0010
0000
0001
0000
0001
0000
1000
0001
1000
0000
0000
0000
0000
0000
0000
0000
0000
0000
0000
0000
0000
0000
0000
0000
0000
0000
0000
0000
0000
0000
0000
0000
,
0000
0000
0000
0000
0000
0000
0000
0000
0000
0000
0000
0000
0000
0000
0000
0000
0000
0000
0000
0000
0000
0000
0000
0000
0000
0000
0000
0000
0000
0000
0000
0000
0000
0000
0000
0000
0000
0000
0000
0000
0000
0000
0000
0000
0000
0000
0000
0000
0000
0000
0000
0000
0000
0000
0000
0000
0000
0000
0000
0000
0000
0000
0000
0000
0000
0000
0000
0000
0000
0000
0000
0000
0000
0000
0000
0000
0000
0000
0000
0000
0000
0000
0000
0000
0000
0000
0000
0000
0000
0000
0000
0000
0000
0000
0000
0000
0000
0000
0000
0000
0000
0000
0000
0000
0000
0000
0000
0000
0000
0000
0000
0000
0000
0000
0000
0000
0000
0000
0000
0000
0000
0000
0000
0000
0000
0000
0000
0000
0000
0000
0000
0000
0000
0000
0000
0000
0000
0000
0000
0000
0000
0000
0000
0000
2000
3000
0000
0000
0000
0000
0020
0030
0000
0000
0000
0000
2000
3000
0000
0000
0000
0000
0020
0030
0000
0000
0000
0000
2000
3000
0000
0000
0000
0000
0002
0003
0000
0000
0000
0000
2000
3000
0000
0000
0000
0000
0002
0003
0000
0000
0000
0000
,
2000
3000
0000
0000
0000
0000
0200
0300
0000
0000
0000
0000
2000
3000
0000
0000
0000
0000
0200
0300
0000
0000
0000
0000
2000
3000
0000
0000
0000
0000
0002
0003
0000
0000
0000
0000
2000
3000
0000
0000
0000
0000
0002
0003
0000
0000
0000
0000
0200
0300
0000
0000
0000
0000
0002
0003
0000
0000
0000
0000
0200
0300
0000
0000
0000
0000
0002
0003
0000
0000
0000
0000
0200
0300
0000
0000
0000
0000
0020
0030
0000
0000
0000
0000
0200
0300
0000
0000
0000
0000
0020
0030
0000
0000
0000
0000
0200
0300
0000
0000
0000
0000
0002
0003
0000
0000
0000
0000
0200
0300
0000
0000
0000
0000
0002
0003
0000
0000
0000
0000
0020
0030
0000
0000
0000
0000
0002
0003
0000
0000
0000
0000
0020
0030
0000
0000
0000
0000
0002
0003
0000
0000
0000
0000
0020
0030
0000
0000
0000
0000
0200
0300
0000
0000
0000
0000
0020
0030
0000
0000
0000
0000
0200
0300
0000
0000
0000
0000
2000
3000
0000
0000
0000
0000
0200
0300
0000
0000
0000
0000
2000
3000
0000
0000
0000
0000
0200
0300
0000
0000
0000
0000
,
2000
3000
0000
0000
0000
0000
0020
0030
0000
0000
0000
0000
2000
3000
0000
0000
0000
0000
0020
0030
0000
0000
0000
0000
2000
3000
0000
0000
0000
0000
0002
0003
0000
0000
0000
0000
2000
3000
0000
0000
0000
0000
0002
0003
0000
0000
0000
0000
0200
0300
0000
0000
0000
0000
0020
0030
0000
0000
0000
0000
0200
0300
0000
0000
0000
0000
0020
0030
0000
0000
0000
0000
0200
0300
0000
0000
0000
0000
0002
0003
0000
0000
0000
0000
0200
0300
0000
0000
0000
0000
0002
0003
0000
0000
0000
0000
2000
3000
0000
0000
0000
0000
0020
0030
0000
0000
0000
0000
2000
3000
0000
0000
0000
0000
0020
0030
0000
0000
0000
0000
2000
3000
0000
0000
0000
0000
0002
0003
0000
0000
0000
0000
2000
3000
0000
0000
0000
0000
0002
0003
0000
0000
0000
0000
0020
0030
0000
0000
0000
0000
0002
0003
0000
0000
0000
0000
0020
0030
0000
0000
0000
0000
0002
0003
0000
0000
0000
0000
0020
0030
0000
0000
0000
0000
0200
0300
0000
0000
0000
0000
0020
0030
0000
0000
0000
0000
0200
0300
0000
0000
0000
0000
,
2000
3000
0000
0000
0000
0000
0200
0300
0000
0000
0000
0000
2000
3000
0000
0000
0000
0000
0200
0300
0000
0000
0000
0000
2000
3000
0000
0000
0000
0000
0002
0003
0000
0000
0000
0000
2000
3000
0000
0000
0000
0000
0002
0003
0000
0000
0000
0000
0200
0300
0000
0000
0000
0000
0002
0003
0000
0000
0000
0000
0200
0300
0000
0000
0000
0000
0002
0003
0000
0000
0000
0000
0200
0300
0000
0000
0000
0000
0020
0030
0000
0000
0000
0000
0200
0300
0000
0000
0000
0000
0020
0030
0000
0000
0000
0000
2000
3000
0000
0000
0000
0000
0020
0030
0000
0000
0000
0000
2000
3000
0000
0000
0000
0000
0020
0030
0000
0000
0000
0000
0200
0300
0000
0000
0000
0000
0020
0030
0000
0000
0000
0000
0200
0300
0000
0000
0000
0000
0020
0030
0000
0000
0000
0000
0200
0300
0000
0000
0000
0000
0002
0003
0000
0000
0000
0000
0200
0300
0000
0000
0000
0000
0002
0003
0000
0000
0000
0000
2000
3000
0000
0000
0000
0000
0002
0003
0000
0000
0000
0000
2000
3000
0000
0000
0000
0000
0002
0003
0000
0000
0000
0000
,
2000
3000
0000
0000
0000
0000
0020
0030
0000
0000
0000
0000
2000
3000
0000
0000
0000
0000
0020
0030
0000
0000
0000
0000
0200
0300
0000
0000
0000
0000
0002
0003
0000
0000
0000
0000
0200
0300
0000
0000
0000
0000
0002
0003
0000
0000
0000
0000
0200
0300
0000
0000
0000
0000
0020
0030
0000
0000
0000
0000
0200
0300
0000
0000
0000
0000
0020
0030
0000
0000
0000
0000
2000
3000
0000
0000
0000
0000
0020
0030
0000
0000
0000
0000
2000
3000
0000
0000
0000
0000
0020
0030
0000
0000
0000
0000
2000
3000
0000
0000
0000
0000
0002
0003
0000
0000
0000
0000
2000
3000
0000
0000
0000
0000
0002
0003
0000
0000
0000
0000
0020
0030
0000
0000
0000
0000
0002
0003
0000
0000
0000
0000
0020
0030
0000
0000
0000
0000
0002
0003
0000
0000
0000
0000
0020
0000
0000
0000
0000
0000
0000
0000
0000
0000
0000
0000
0000
0000
0000
0000
0000
0000
0000
0000
0000
0000
0000
0000
0000
0000
0000
0000
0000
0000
0000
0000
0000
0000
0000
0000
0000
0000
0000
0000
0000
0000
0000
0000
0000
0000
0000
0000
,
0000
0000
0000
0000
0000
0000
0000
0000
0000
0000
0000
0000
0000
0000
0000
0000
0000
0000
0000
0000
0000
0000
0000
0000
0000
0000
0000
0000
0000
0000
0000
0000
0000
0000
0000
0000
0000
0000
0000
0000
0000
0000
0000
0000
0000
0000
0000
0000
0000
0000
0000
0000
0000
0000
0000
0000
0000
0000
0000
0000
0000
0000
0000
0000
0000
0000
0000
0000
0000
0000
0000
0000
0000
0000
0000
0000
0000
0000
0000
0000
0000
0000
0000
0000
0000
0000
0000
0000
0000
0000
0000
0000
0000
0000
0000
0000
0000
0000
0000
0000
0000
0000
0000
0000
0000
0000
0000
0000
0000
0000
0000
0000
0000
0000
0000
0000
0000
0000
0000
0000
0000
0000
0000
0000
0000
0000
0000
0000
0000
0000
0000
0000
0030
0000
0000
0000
0000
0000
0000
0000
0000
0000
0000
0000
0002
0003
0000
0000
0000
0000
0200
0300
0000
0000
0000
0000
0002
0003
0000
0000
0000
0000
0200
0300
0000
0000
0000
0000
0002
0003
0000
0000
0000
0000
2000
3000
0000
0000
0000
0000
0002
0003
0000
0000
0000
0000
2000
3000
0000
0000
0000
0000
,
0002
0003
0000
0000
0000
0000
0020
0030
0000
0000
0000
0000
0002
0003
0000
0000
0000
0000
0020
0030
0000
0000
0000
0000
0002
0003
0000
0000
0000
0000
2000
3000
0000
0000
0000
0000
0002
0003
0000
0000
0000
0000
2000
3000
0000
0000
0000
0000
0020
0030
0000
0000
0000
0000
2000
3000
0000
0000
0000
0000
0020
0030
0000
0000
0000
0000
2000
3000
0000
0000
0000
0000
0020
0030
0000
0000
0000
0000
0200
0300
0000
0000
0000
0000
0020
0030
0000
0000
0000
0000
0200
0300
0000
0000
0000
0000
0020
0030
0000
0000
0000
0000
2000
3000
0000
0000
0000
0000
0020
0030
0000
0000
0000
0000
2000
3000
0000
0000
0000
0000
0200
0300
0000
0000
0000
0000
2000
3000
0000
0000
0000
0000
0200
0300
0000
0000
0000
0000
2000
3000
0000
0000
0000
0000
0200
0300
0000
0000
0000
0000
0020
0030
0000
0000
0000
0000
0200
0300
0000
0000
0000
0000
0020
0030
0000
0000
0000
0000
0002
0003
0000
0000
0000
0000
0020
0030
0000
0000
0000
0000
0002
0003
0000
0000
0000
0000
0020
0030
0000
0000
0000
0000
,
0002
0003
0000
0000
0000
0000
0200
0300
0000
0000
0000
0000
0002
0003
0000
0000
0000
0000
0200
0300
0000
0000
0000
0000
0002
0003
0000
0000
0000
0000
2000
3000
0000
0000
0000
0000
0002
0003
0000
0000
0000
0000
2000
3000
0000
0000
0000
0000
0020
0030
0000
0000
0000
0000
0200
0300
0000
0000
0000
0000
0020
0030
0000
0000
0000
0000
0200
0300
0000
0000
0000
0000
0020
0030
0000
0000
0000
0000
2000
3000
0000
0000
0000
0000
0020
0030
0000
0000
0000
0000
2000
3000
0000
0000
0000
0000
0002
0003
0000
0000
0000
0000
0200
0300
0000
0000
0000
0000
0002
0003
0000
0000
0000
0000
0200
0300
0000
0000
0000
0000
0002
0003
0000
0000
0000
0000
2000
3000
0000
0000
0000
0000
0002
0003
0000
0000
0000
0000
2000
3000
0000
0000
0000
0000
0200
0300
0000
0000
0000
0000
2000
3000
0000
0000
0000
0000
0200
0300
0000
0000
0000
0000
2000
3000
0000
0000
0000
0000
0200
0300
0000
0000
0000
0000
0020
0030
0000
0000
0000
0000
0200
0300
0000
0000
0000
0000
0020
0030
0000
0000
0000
0000
,
0002
0003
0000
0000
0000
0000
0020
0030
0000
0000
0000
0000
0002
0003
0000
0000
0000
0000
0020
0030
0000
0000
0000
0000
0002
0003
0000
0000
0000
0000
2000
3000
0000
0000
0000
0000
0002
0003
0000
0000
0000
0000
2000
3000
0000
0000
0000
0000
0002
0000
0000
0000
0000
0000
0000
0000
0000
0000
0000
0000
0000
0000
0000
0000
0000
0000
0000
0000
0000
0000
0000
0000
0000
0000
0000
0000
0000
0000
0000
0000
0000
0000
0000
0000
0000
0000
0000
0000
0000
0000
0000
0000
0000
0000
0000
0000
0000
0000
0000
0000
0000
0000
0000
0000
0000
0000
0000
0000
0000
0000
0000
0000
0000
0000
0000
0000
0000
0000
0000
0000
0000
0000
0000
0000
0000
0000
0000
0000
0000
0000
0000
0000
0000
0000
0000
0000
0000
0000
0000
0000
0000
0000
0000
0000
0000
0000
0000
0000
0000
0000
0000
0000
0000
0000
0000
0000
0000
0000
0000
0000
0000
0000
0000
0000
0000
0000
0000
0000
0000
0000
0000
0000
0000
0000
0000
0000
0000
0000
0000
0000
0000
0000
0000
0000
0000
0000
0000
0000
0000
0000
0000
0000
,
0000
0000
0000
0000
0000
0000
0000
0000
0000
0000
0000
0000
0000
0000
0000
0000
0000
0000
0000
0000
0000
0000
0000
0000
0000
0000
0000
0000
0000
0000
0000
0000
0000
0000
0000
0000
0003
0000
0000
0000
0000
0000
0000
0000
0000
0000
0000
0000
2000
3000
0000
0000
0000
0000
0020
0030
0000
0000
0000
0000
2000
3000
0000
0000
0000
0000
0020
0030
0000
0000
0000
0000
2000
3000
0000
0000
0000
0000
0002
0003
0000
0000
0000
0000
2000
3000
0000
0000
0000
0000
0002
0003
0000
0000
0000
0000
0020
0030
0000
0000
0000
0000
0002
0003
0000
0000
0000
0000
0020
0030
0000
0000
0000
0000
0002
0003
0000
0000
0000
0000
2000
3000
0000
0000
0000
0000
0002
0003
0000
0000
0000
0000
2000
3000
0000
0000
0000
0000
0002
0003
0000
0000
0000
0000
0200
0300
0000
0000
0000
0000
0020
0030
0000
0000
0000
0000
0200
0300
0000
0000
0000
0000
0020
0030
0000
0000
0000
0000
2000
3000
0000
0000
0000
0000
0020
0030
0000
0000
0000
0000
2000
3000
0000
0000
0000
0000
0020
0030
0000
0000
0000
0000
,
0200
0300
0000
0000
0000
0000
0002
0003
0000
0000
0000
0000
0200
0300
0000
0000
0000
0000
0002
0003
0000
0000
0000
0000
2000
3000
0000
0000
0000
0000
0020
0030
0000
0000
0000
0000
2000
3000
0000
0000
0000
0000
0020
0030
0000
0000
0000
0000
2000
3000
0000
0000
0000
0000
0200
0300
0000
0000
0000
0000
2000
3000
0000
0000
0000
0000
0200
0300
0000
0000
0000
0000
0020
0030
0000
0000
0000
0000
0200
0300
0000
0000
0000
0000
0020
0030
0000
0000
0000
0000
0200
0300
0000
0000
0000
0000
0020
0030
0000
0000
0000
0000
0002
0003
0000
0000
0000
0000
0020
0030
0000
0000
0000
0000
0002
0003
0000
0000
0000
0000
2000
3000
0000
0000
0000
0000
0002
0003
0000
0000
0000
0000
2000
3000
0000
0000
0000
0000
0002
0003
0000
0000
0000
0000
0200
0300
0000
0000
0000
0000
0002
0003
0000
0000
0000
0000
0200
0300
0000
0000
0000
0000
0002
0003
0000
0000
0000
0000
0200
0300
0000
0000
0000
0000
0020
0030
0000
0000
0000
0000
0200
0300
0000
0000
0000
0000
0020
0030
0000
0000
0000
0000
,
2000
3000
0000
0000
0000
0000
0020
0030
0000
0000
0000
0000
2000
3000
0000
0000
0000
0000
0020
0030
0000
0000
0000
0000
0200
0300
0000
0000
0000
0000
0002
0003
0000
0000
0000
0000
0200
0300
0000
0000
0000
0000
0002
0003
0000
0000
0000
0000
2000
3000
0000
0000
0000
0000
0002
0003
0000
0000
0000
0000
2000
3000
0000
0000
0000
0000
0002
0003
0000
0000
0000
0000
2000
3000
0000
0000
0000
0000
0200
0300
0000
0000
0000
0000
2000
3000
0000
0000
0000
0000
0200
0300
0000
0000
0000
0000
2000
3000
0000
0000
0000
0000
0020
0030
0000
0000
0000
0000
2000
3000
0000
0000
0000
0000
0020
0030
0000
0000
0000
0000
2000
3000
0000
0000
0000
0000
0002
0003
0000
0000
0000
0000
2000
3000
0000
0000
0000
0000
0002
0003
0000
0000
0000
0000
2000
0000
0000
0000
0000
0000
0000
0000
0000
0000
0000
0000
0000
0000
0000
0000
0000
0000
0000
0000
0000
0000
0000
0000
0000
0000
0000
0000
0000
0000
0000
0000
0000
0000
0000
0000
0000
0000
0000
0000
0000
0000
0000
0000
0000
0000
0000
0000
,
0000
0000
0000
0000
0000
0000
0000
0000
0000
0000
0000
0000
0000
0000
0000
0000
0000
0000
0000
0000
0000
0000
0000
0000
0000
0000
0000
0000
0000
0000
0000
0000
0000
0000
0000
0000
0000
0000
0000
0000
0000
0000
0000
0000
0000
0000
0000
0000
0000
0000
0000
0000
0000
0000
0000
0000
0000
0000
0000
0000
0000
0000
0000
0000
0000
0000
0000
0000
0000
0000
0000
0000
0000
0000
0000
0000
0000
0000
0000
0000
0000
0000
0000
0000
0000
0000
0000
0000
0000
0000
0000
0000
0000
0000
0000
0000
0000
0000
0000
0000
0000
0000
0000
0000
0000
0000
0000
0000
0000
0000
0000
0000
0000
0000
0000
0000
0000
0000
0000
0000
0000
0000
0000
0000
0000
0000
0000
0000
0000
0000
0000
0000
3000
0000
0000
0000
0000
0000
0000
0000
0000
0000
0000
0000
0002
0003
0000
0000
0000
0000
0020
0030
0000
0000
0000
0000
0002
0003
0000
0000
0000
0000
0020
0030
0000
0000
0000
0000
0200
0300
0000
0000
0000
0000
0020
0030
0000
0000
0000
0000
0200
0300
0000
0000
0000
0000
0020
0030
0000
0000
0000
0000
,
0002
0003
0000
0000
0000
0000
2000
3000
0000
0000
0000
0000
0002
0003
0000
0000
0000
0000
2000
3000
0000
0000
0000
0000
0020
0030
0000
0000
0000
0000
0200
0300
0000
0000
0000
0000
0020
0030
0000
0000
0000
0000
0200
0300
0000
0000
0000
0000
0002
0003
0000
0000
0000
0000
0200
0300
0000
0000
0000
0000
0002
0003
0000
0000
0000
0000
0200
0300
0000
0000
0000
0000
0020
0030
0000
0000
0000
0000
2000
3000
0000
0000
0000
0000
0020
0030
0000
0000
0000
0000
2000
3000
0000
0000
0000
0000
0200
0300
0000
0000
0000
0000
2000
3000
0000
0000
0000
0000
0200
0300
0000
0000
0000
0000
2000
3000
0000
0000
0000
0000
0200
0300
0000
0000
0000
0000
0020
0030
0000
0000
0000
0000
0200
0300
0000
0000
0000
0000
0020
0030
0000
0000
0000
0000
0200
0300
0000
0000
0000
0000
2000
3000
0000
0000
0000
0000
0200
0300
0000
0000
0000
0000
2000
3000
0000
0000
0000
0000
0002
0003
0000
0000
0000
0000
2000
3000
0000
0000
0000
0000
0002
0003
0000
0000
0000
0000
2000
3000
0000
0000
0000
0000
,
0002
0003
0000
0000
0000
0000
0020
0030
0000
0000
0000
0000
0002
0003
0000
0000
0000
0000
0020
0030
0000
0000
0000
0000
0002
0003
0000
0000
0000
0000
2000
3000
0000
0000
0000
0000
0002
0003
0000
0000
0000
0000
2000
3000
0000
0000
0000
0000
0200
0300
0000
0000
0000
0000
2000
3000
0000
0000
0000
0000
0200
0300
0000
0000
0000
0000
2000
3000
0000
0000
0000
0000
0020
0030
0000
0000
0000
0000
2000
3000
0000
0000
0000
0000
0020
0030
0000
0000
0000
0000
2000
3000
0000
0000
0000
0000
0020
0030
0000
0000
0000
0000
0200
0300
0000
0000
0000
0000
0020
0030
0000
0000
0000
0000
0200
0300
0000
0000
0000
0000
0002
0003
0000
0000
0000
0000
2000
3000
0000
0000
0000
0000
0002
0003
0000
0000
0000
0000
2000
3000
0000
0000
0000
0000
0002
0003
0000
0000
0000
0000
0020
0030
0000
0000
0000
0000
0002
0003
0000
0000
0000
0000
0020
0030
0000
0000
0000
0000
0002
0003
0000
0000
0000
0000
2000
3000
0000
0000
0000
0000
0002
0003
0000
0000
0000
0000
2000
3000
0000
0000
0000
0000
,
0020
0030
0000
0000
0000
0000
2000
3000
0000
0000
0000
0000
0020
0030
0000
0000
0000
0000
2000
3000
0000
0000
0000
0000
0020
0030
0000
0000
0000
0000
0200
0300
0000
0000
0000
0000
0020
0030
0000
0000
0000
0000
0200
0300
0000
0000
0000
0000
0002
0003
0000
0000
0000
0000
0200
0300
0000
0000
0000
0000
0002
0003
0000
0000
0000
0000
0200
0300
0000
0000
0000
0000
0020
0030
0000
0000
0000
0000
2000
3000
0000
0000
0000
0000
0020
0030
0000
0000
0000
0000
2000
3000
0000
0000
0000
0000
0020
0030
0000
0000
0000
0000
0200
0300
0000
0000
0000
0000
0020
0030
0000
0000
0000
0000
0200
0300
0000
0000
0000
0000
0002
0003
0000
0000
0000
0000
2000
3000
0000
0000
0000
0000
0002
0003
0000
0000
0000
0000
2000
3000
0000
0000
0000
0000
0002
0000
0000
0000
0000
0000
00M0
0000
0000
0000
0000
0000
0M00
0000
0000
0000
0000
0000
M000
0000
0000
0000
0000
0000
0M00
0000
0000
0000
0000
0000
00M0
0000
0000
0000
0000
0000
0M00
0000
0000
0000
0000
0000
M000
0000
0000
0000
0000
0000
,
0M00
00M0
0M00
M000
0M00
00M0
0M00
M000
0M00
00M0
0M00
M000
0M00
00M0
0M00
M000
0M00
00M0
0M00
M000
0M00
00M0
0M03
00M0
2000
0M00
00M0
000M
00M0
0M00
00M0
000M
,
00M0
0M00
00M0
000M
00M0
0M00
00M0
000M
00M0
0M00
00M0
000M
00M0
0M00
00M0
000M
00M0
0M00
00M0
000M
00M0
0M00
300M
0M00
0020
000M
0M00
000M
M000
000M
0M00
000M
,
M000
000M
0M00
000M
M000
000M
0M00
000M
M000
000M
0M00
000M
M000
000M
0M00
000M
M000
000M
0M00
000M
M000
000M
0M30
000M
2000
0M00
00M0
000M
00M0
0M00
00M0
000M
,
00M0
0M00
00M0
000M
00M0
0M00
00M0
000M
00M0
0M00
00M0
000M
00M0
0M00
00M0
000M
00M0
0M00
00M0
000M
00M0
0M00
300M
0M00
0020
000M
0M00
000M
M000
000M
0M00
000M
,
M000
000M
0M00
000M
M000
000M
0M00
000M
M000
000M
0M00
000M
M000
000M
0M00
000M
M000
000M
0M00
000M
M000
000M
0M30
000M
1000
0000
0000
0000
0001
0000
0000
0000
,
0100
0010
0100
0010
1000
0010
1000
0100
,
1000
0000
0100
0000
0010
0001
0010
0100
1000
0010
0100
0010
1000
0100
0010
0100
,
1000
0000
0001
0000
0100
0000
0010
0000
0100
0001
0100
0001
0100
0000
0010
0000
1000
0000
0001
0000
1000
0100
1000
0100
1000
0000
0001
0000
0100
0000
0010
0000
,
1000
0000
0001
0000
0100
0010
0100
0010
0200
0000
0000
0000
0000
0000
0000
0000
0000
0000
0000
0000
0000
0000
0000
0000
0000
0000
0000
0000
0000
0000
0000
0000
,
0000
0000
0000
0000
,
0000
0300
0000
0000
;

//---------------dance-single - Mute----------------
#NOTES:
     dance-single:
     Mute:
     Hard:
     12:
     0.903,1.000,0.256,0.246,1.000,608.000,27.000,26.000,163.000,0.000:
0000
0000
0000
0000
0000
0000
0000
0000
0000
0000
0000
0000
0000
0000
0000
0000
0000
0000
0000
0000
0000
0000
0000
0000
0M00
00M0
0M00
00M0
0M00
00M0
0M00
00M0
,
1000
0001
0010
0001
1000
0010
0001
0010
,
0100
0010
1000
0010
0001
0010
1000
0001
,
1000
0000
0100
0000
0001
0000
0100
0000
0010
0000
0100
0000
1000
0010
0100
0001
,
0100
0000
0010
0000
1000
0000
0001
0000
0010
0100
0010
0000
1000
0100
1000
0000
0001
1000
0001
0000
0100
0001
0100
0000
0010
0000
1000
0000
0001
0000
1000
0000
,
0010
0100
0001
0100
0001
0010
0001
0010
0100
1000
0100
0100
0010
0100
1000
0010
,
1000
0100
1000
0010
0200
0000
0000
0000
0302
0000
0000
0000
2003
0000
0000
0000
,
3020
0000
0000
0000
0000
0000
0000
0000
1030
0100
0010
0001
1000
0000
1000
0000
0100
0000
0100
0010
0001
1000
0100
0000
0010
0000
0100
0000
1000
0000
0010
0000
,
0100
0000
0001
0000
0100
0000
0010
0000
1000
0001
1000
0001
1000
0000
0010
0000
0100
0000
0000
0000
0001
0000
0000
0000
1000
0000
0000
0000
0100
0000
0000
0000
,
1000
0000
0000
0000
0010
0000
0000
0000
0110
0000
0000
0000
0101
0000
0000
0000
0011
0000
0000
0000
1001
0000
0000
0000
1000
0100
1000
0100
1000
0000
0000
0000
,
1010
1100
0011
1001
0101
1010
1010
1000
,
0001
0000
0000
0000
0100
0000
0000
0000
0010
1000
0010
0000
1000
0010
1000
0000
0010
0100
0010
0000
0100
0010
0100
0000
0001
0100
0001
0100
0001
1000
0001
1000
,
0001
0010
0001
0000
1000
0001
1000
0000
0001
0000
0000
0000
0101
0000
0000
0000
0011
0000
0000
0000
0101
0000
0000
0000
1001
0000
0000
0000
1100
0000
0000
0000
,
1010
0000
0000
0000
1100
0000
0000
0000
1000
0100
1000
0000
0010
0000
1000
0000
0001
0000
1000
0000
0001
0000
0010
0000
0100
0000
0010
0000
0001
0000
0010
0000
,
0100
1000
0100
0000
0010
0000
0000
0000
0001
0000
0000
0000
0100
0000
0000
0000
0010
0000
0000
0000
1000
0000
0000
0000
0002
0000
0000
0000
0100
0000
0000
0000
,
0100
0100
0100
0100
0100
0100
0103
0100
,
0010
1000
0100
1000
0010
0100
0001
0010
,
0001
0000
0000
0000
0100
0000
0000
0000
0040
4000
0000
0000
0000
0000
0000
0000
0000
0000
0000
0000
0000
0000
0030
3000
0040
0400
0000
0000
0000
0000
0000
0000
,
0000
0000
0000
0000
0000
0000
0030
0300
0004
0400
0000
0000
0000
0000
0000
0000
0000
0000
0000
0000
0000
0000
0003
0300
0001
0000
1000
0000
0010
0000
1000
0000
,
0001
0000
0010
0000
0001
0000
0100
0000
0001
1000
0001
0000
0100
0000
0010
0000
0100
0000
0001
0000
1000
0000
0010
0000
0100
0000
0001
0000
0010
0000
0100
0000
,
1000
0000
0010
0000
1000
0000
0100
0000
1000
0001
1000
0000
0001
0000
0010
0000
0001
0000
0100
0000
0010
0000
1000
0000
0002
0000
0000
0000
0000
0000
0000
0000
,
0000
2003
0000
3200
,
0000
0000
0000
0300
1002
0000
0100
0000
1000
0000
0103
0000
2010
0000
0001
0000
,
0100
3001
0021
0100
0001
0130
1200
0010
,
1000
0310
1002
0100
1000
0013
2001
0010
,
0001
3100
1020
0100
0001
0130
0210
0001
,
0010
0000
0301
0000
2010
0000
0001
0000
0100
0000
3001
0000
0001
0100
0010
0100
,
0001
0000
1000
0000
0100
0000
1000
0000
0001
0000
0010
0000
0100
0000
0010
0000
0001
0000
1000
0000
0100
0000
1000
0001
1000
0000
0010
0000
1000
0000
0001
0100
,
0001
0000
0100
0000
0001
0000
0100
0010
0100
0000
0001
0000
1000
0000
0001
0100
0001
0000
0100
0000
0001
1000
0001
0000
1000
0000
0010
0000
0100
0000
0001
0010
,
0001
0000
0100
0000
0001
0000
1000
0100
1000
0000
0000
0000
0000
0000
0000
0000
0000
0000
0000
0000
0000
0000
1000
0100
1000
0000
0000
0000
0000
0000
0000
0000
,
0000
0000
0000
0000
0000
0000
1000
0100
1000
0000
0000
0000
0000
0000
1000
0100
1000
0000
0000
0000
0000
0000
1000
0100
1000
0000
0000
0000
0000
0000
1000
0100
,
1000
0000
0010
0000
0010
0000
1000
0001
1000
0000
0100
0000
0100
0000
0010
0001
0010
0000
0001
0000
0001
0000
1000
0010
1000
0000
0100
0000
0100
0000
0010
0100
,
0010
0000
0001
0000
0001
0000
1000
0001
1000
0000
0000
0000
0000
0000
0000
0000
0000
0000
0000
0000
0000
0000
0000
0000
0000
0000
0000
0000
0000
0000
0000
0000
,
0000
0000
0000
0000
0000
0000
0000
0000
0000
0000
0000
0000
0001
0010
0100
1000
,
0001
0100
0010
1000
0100
0010
0001
1000
0010
1000
0001
0100
0010
0100
0001
0010
,
0100
1000
0001
0100
0010
1000
0010
1000
0001
0100
0010
0100
0001
1000
0010
1000
,
0100
0010
0100
1000
0001
0100
0001
1000
0001
0010
0001
0100
0010
1000
0100
0010
,
0001
1000
0010
1000
0100
1000
0010
0100
0001
1000
0100
1000
0200
0000
0000
0000
,
0000
0000
0000
0000
0000
0000
0000
0000
0000
0000
0000
0300
1000
0010
1000
0010
,
0100
0001
0100
0001
1000
0100
0010
0100
1000
0010
0100
0010
1000
0010
0100
0001
,
1000
0010
1000
0100
1000
0001
0010
0100
1000
0010
1000
0001
0010
0100
0010
0001
,
0100
0010
1000
0010
2000
0000
0000
0000
0000
0000
0000
0000
0000
0000
0000
0000
,
0000
0000
0000
3000
0001
0100
0010
0100
0010
1000
0001
1000
0001
0010
0001
0010
,
0100
1000
0100
0010
0001
1000
0010
0100
0001
0100
0010
1000
0001
1000
0010
1000
,
0100
0010
0001
1000
0010
0100
0001
1000
0010
0100
0010
1000
0002
0000
0000
0000
,
0000
0000
0000
0000
0000
0000
0000
0000
0000
0000
0000
0003
1000
0010
1000
0001
,
0010
0100
1000
0100
0010
0001
0100
0010
1000
0010
0100
0001
0010
0001
1000
0100
,
0010
0100
1000
0001
1000
0010
0001
0010
1000
0100
1000
0100
0010
0001
0010
0001
,
0100
0000
0010
0000
1000
0000
0001
0000
0010
0000
0100
0000
1000
0000
0001
0000
0100
0000
0010
0000
1000
0000
0001
0000
2000
0M00
00M0
000M
00M0
0M00
00M0
000M
,
00M0
0M00
00M0
000M
00M0
0M00
00M0
000M
00M0
0M00
00M0
000M
00M0
0M00
00M0
000M
00M0
0M00
00M0
000M
00M0
0M00
30M0
0M00
0002
00M0
0M00
M000
0M00
00M0
0M00
M000
,
0M00
00M0
0M00
M000
0M00
00M0
0M00
M000
0M00
00M0
0M00
M000
0M00
00M0
0M00
M000
0M00
00M0
0M00
M000
0M00
00M0
M003
00M0
0200
M000
00M0
M000
000M
M000
00M0
M000
,
000M
M000
00M0
M000
000M
M000
00M0
M000
000M
M000
00M0
M000
000M
M000
00M0
M000
000M
M000
00M0
M000
000M
M000
03M0
M000
0002
00M0
0M00
M000
0M00
00M0
0M00
M000
,
0M00
00M0
0M00
M000
0M00
00M0
0M00
M000
0M00
00M0
0M00
M000
0M00
00M0
0M00
M000
0M00
00M0
0M00
M000
0M00
00M0
M003
00M0
0200
M000
00M0
M000
000M
M000
00M0
M000
,
000M
M000
00M0
M000
000M
M000
00M0
M000
000M
M000
00M0
M000
000M
M000
00M0
M000
000M
M000
00M0
M000
000M
M000
03M0
M000
0001
0000
0000
0000
1000
0000
0000
0000
,
0010
0100
0010
0100
0001
0100
0001
0010
,
0001
0000
0010
0000
0100
1000
0100
0010
0001
0100
0010
0100
0001
0010
0100
0010
,
0001
0000
1000
0000
0010
0000
0100
0000
0010
1000
0010
1000
0010
0000
0100
0000
0001
0000
1000
0000
0001
0010
0001
0010
0001
0000
1000
0000
0010
0000
0100
0000
,
0001
0000
0010
0000
0100
1000
0100
1000
0200
0000
0000
0000
0000
0000
0000
0000
0000
0000
0000
0000
0000
0000
0000
0000
0000
0000
0000
0000
0000
0000
0000
0000
,
0000
0000
0000
0000
,
0000
0300
0000
0000
;
