#TITLE:Zora's Domain;
#SUBTITLE:;
#ARTIST:djmason;
#TITLETRANSLIT:;
#SUBTITLETRANSLIT:;
#ARTISTTRANSLIT:;
#CREDIT:;
#BANNER:!djmasontitle.bmp;
#BACKGROUND:05_ice_walk-bg.jpg;
#LYRICSPATH:;
#CDTITLE:;
#MUSIC:Zorasdomain.mp3;
#OFFSET:0.000;
#SAMPLESTART:50.000;
#SAMPLELENGTH:12.000;
#SELECTABLE:YES;
#BPMS:0.000=120.000;
#STOPS:;
#BGCHANGES:;
// cache tags:
#FIRSTBEAT:6.250;
#LASTBEAT:343.000;
#SONGFILENAME:Songs/newbie/OOTMasonstyle/ZORAMAN.sm;
#HASMUSIC:1;
#HASBANNER:1;
#MUSICLENGTH:171.082;
// end cache tags

//---------------dance-single - ----------------
#NOTES:
     dance-single:
     :
     Easy:
     1:
     0.000,0.000,0.000,0.000,0.000,0.000,0.000,0.000,0.000,0.000:
0000
0000
0000
0000
;

//---------------dance-single - Copied from----------------
#NOTES:
     dance-single:
     Copied from:
     Hard:
     1:
     0.426,0.426,0.111,0.129,0.701,469.000,19.000,22.000,0.000,0.000:
0000
0000
0000
0000
,
0000
0000
0000
0000
0000
0000
0000
0000
0000
1000
0100
0000
0010
0001
0000
1000
,
0100
0000
0010
0001
0000
0000
0000
0000
0000
0000
1000
0100
0000
0010
0001
0000
,
0100
0000
1000
0010
0000
0001
0000
0000
0000
0000
0000
2000
0000
0000
0000
0000
,
0000
3002
0000
0000
0000
0000
0000
0000
0000
0000
0000
0000
0000
0000
0000
0000
,
0003
0000
0000
0000
0000
0000
0000
1000
0000
0000
0010
0000
0000
0001
0000
1000
,
0010
0000
0000
1000
0100
0000
0000
0001
0000
0000
1000
0000
0010
0000
0000
0000
,
0000
1000
0000
0000
0001
1000
0000
0010
0000
1000
0000
0000
0001
0000
0000
0010
,
0000
0000
1000
0000
0000
0000
0000
0000
0000
0002
0000
0000
0000
0000
0000
0000
,
0000
0000
0000
0000
0000
0000
0000
0003
,
0000
0000
0000
0010
0000
1000
0000
0001
0100
0000
0000
0000
0010
0000
0000
1000
,
0001
0000
0100
0000
0010
1000
0000
0001
0100
0000
0010
0000
1000
0000
0000
0000
,
0000
0000
0000
0000
,
0000
0002
1000
0000
0000
0000
0000
0000
0000
0000
0000
0000
0000
0010
0000
0000
,
0000
0000
1000
0000
0000
0010
0000
0000
0000
0000
1000
0000
0010
0000
1000
0000
,
0000
0100
0000
0000
0000
0000
0000
0000
0010
0000
0000
0003
0000
0000
0000
0000
,
0000
0000
0000
0000
1000
0000
0010
0000
0000
0001
0000
0000
1000
0000
0000
0000
,
0100
0000
0000
0010
0000
0000
1000
0001
0000
1000
0000
0000
0000
0010
0000
1000
,
0100
0000
0000
0001
0000
0100
0000
0010
0000
0000
1000
0000
0001
0000
0100
0000
,
0000
0000
2020
0000
0000
0000
0000
0000
0000
0030
3000
0000
0000
0202
0000
0000
,
0000
0000
0000
0000
0000
0303
0000
0000
2020
0000
0000
0000
0000
0000
0000
3030
,
0000
0000
0000
0000
2002
0000
0000
0000
0000
0000
0000
0000
0000
3003
0000
0000
,
0100
0000
0000
0000
0010
0000
0000
1000
0000
0001
0100
0000
1000
0000
0000
0010
,
0000
1000
0100
0000
0001
0000
1000
0000
0010
0000
1000
0010
1000
0010
0000
0000
,
0000
0010
0000
0000
0001
0000
0000
1000
0000
0000
0100
0000
0001
0000
0000
0000
,
0000
2020
0000
0000
0000
0000
0000
0000
0000
3030
0000
0000
0000
2200
0000
0000
,
0000
0000
0000
0000
0000
3300
0000
0000
0202
0000
0000
0000
0000
0000
0000
0000
,
0000
0000
0303
0000
0000
1010
0000
0000
0101
0000
0010
0000
1000
0000
0000
0100
,
0000
0000
0000
0001
0000
0000
0010
0000
1000
0000
0000
0000
0100
0000
0001
0000
,
1000
0000
0010
1000
0000
0000
0000
0100
0000
0001
0000
0000
0000
0001
0000
0010
,
1000
0000
0000
1000
0000
0000
0000
0010
1000
0000
0100
0000
0000
0100
0000
0000
,
0000
0001
0000
0000
0010
0000
1000
0100
0000
0010
0000
1000
0000
0000
1000
0000
,
0010
0000
0100
0000
0100
0000
0000
0000
0001
0000
0000
0000
0010
1000
0000
0100
,
0010
0000
0000
1000
0000
0000
0000
1000
0010
1000
0000
0001
0000
0000
0000
0000
,
0000
0010
0000
0000
0010
0000
1000
0001
0000
0100
0000
0000
0010
0000
0000
0010
,
1000
0000
0100
0010
0000
0001
0000
0000
0000
0010
0000
0000
0010
0000
1000
0001
,
0000
0100
0000
0010
0000
0000
0010
0000
1000
0010
0000
1000
0100
0000
0000
0000
,
0000
0001
0000
0000
0001
0000
0010
1000
0000
0100
0000
0001
0000
0000
0001
0000
,
0010
1000
0000
0100
0000
0000
0000
0000
0100
0000
0000
0000
0100
1000
0000
0010
,
0100
0000
0000
0000
0010
0000
0000
1000
0000
0001
0010
0000
1000
0000
0000
0000
,
0000
0010
0000
0000
0000
0010
1000
0000
0001
0100
0000
0000
0000
0010
0000
0000
,
0010
0000
1000
0001
0100
0000
1000
0000
0000
2000
0000
0000
3000
0010
0000
1000
,
0001
0000
0000
0000
0010
0000
0000
0010
0000
0000
0010
0000
0000
0010
0000
0000
,
0000
2000
0000
0000
0000
0000
0000
0000
0000
0000
0000
0000
0000
0000
0000
0000
,
0000
0000
0000
0000
0000
0000
3000
0000
0000
1010
0000
0000
0100
0000
0001
1000
,
0000
0010
0000
0010
0000
0000
1000
0000
0001
0100
0000
0010
0000
0000
0010
0000
,
0000
1000
0000
0001
0000
0000
1000
0000
0000
0100
0000
0000
0001
0000
0010
0000
,
1000
0001
0000
0100
0010
0000
1000
0001
0100
0000
1000
0010
0000
1000
0000
0000
,
0000
0100
0000
0000
0100
0000
0000
0100
0000
0000
0100
0000
0100
0000
0000
0000
,
0002
0000
0000
0000
0000
0000
0000
0000
0000
0000
0000
0003
0000
1010
0000
0000
,
0101
0000
0000
1010
0000
0000
0101
0000
0000
1000
0000
0000
0010
0000
0000
0100
,
0000
0000
0001
1000
0000
0000
0010
0000
0100
0000
0000
0001
1000
0000
0010
0000
,
0000
0000
0000
0100
0000
0001
0000
0000
0000
1000
0000
0000
0010
0000
0000
0100
,
0000
0001
1000
0000
0010
0000
1000
0100
0000
0000
0100
1000
0100
1000
0000
0100
,
0000
0000
0000
0010
0000
0000
0100
0000
0001
0000
0000
1000
0000
0000
0010
0000
,
0000
1100
0000
0000
0101
0000
0000
1010
0000
0000
0100
0000
0000
0010
0000
0000
,
0100
0000
0001
1000
0000
0010
0100
0000
0000
0001
0000
0000
0010
0000
1000
0100
,
0000
0001
0000
0000
0010
0000
0000
0010
0000
0000
0100
0000
0100
0000
0000
0000
,
0001
0000
0000
1000
0000
0000
0010
0000
0000
0100
0000
1000
0000
0001
0000
0010
,
0000
0100
0000
1000
0000
0010
0000
1000
0000
0010
1000
0010
1000
0010
0000
0000
,
0000
0010
0000
0000
0000
0000
0000
0001
0000
0000
0010
0000
0000
0100
0000
0000
,
1000
0001
0000
0000
0010
0000
1000
0000
0100
0000
0010
0000
1000
0000
0000
0010
,
1000
0000
0100
0001
0000
1000
0000
0000
0000
1010
0000
0000
0100
0000
0001
0000
,
1000
0010
0000
0000
0100
0000
0000
0100
0000
0000
0001
0010
0000
1000
0000
0000
,
0000
0000
0000
1000
0000
0100
0000
0010
0000
1000
0000
0000
0000
1000
0000
0000
,
0000
0001
0010
0000
0100
0000
0010
0000
1000
0001
0000
0000
0010
0000
1000
0100
,
0000
0010
0000
0010
0000
0000
0000
0010
0000
1000
0000
0001
0100
0000
0000
0000
,
0010
0000
0000
0000
0010
1000
0000
0001
0100
0000
0000
0010
0000
0000
0010
0000
,
1000
0001
0100
0000
0000
0000
0000
0000
0001
0000
0000
0001
0000
0010
1000
0000
,
0100
0000
0000
0100
0000
0000
0100
0000
1000
0010
0000
0100
0000
0000
0001
0000
,
0000
0001
0000
0000
0010
1000
0000
0001
0100
0000
0000
0010
0000
0000
0010
0000
,
1000
0100
0001
0000
0010
1000
0000
0100
0000
0000
0001
0000
0000
0001
0010
1000
,
0000
0100
0000
0001
0000
0000
1000
0000
0010
0000
0010
0000
0000
1000
0000
0000
,
0000
0001
0000
0000
0010
1000
0000
0100
0000
0001
0000
0000
0010
0000
0000
0010
,
1000
0001
0100
0000
0000
0000
0000
0010
0000
0010
0000
0000
0010
1000
0000
0001
,
0100
0000
0000
0010
0000
0000
1000
0000
0100
0001
0000
0010
0000
0010
0000
0000
,
0000
0001
0000
0010
0000
1000
0000
0100
0001
0000
0010
0000
0100
0000
0001
0000
,
0010
0000
1000
0100
0000
0000
0010
0000
0000
1010
0000
0000
0100
0000
0001
0010
,
0000
1000
0000
0001
0100
0000
0000
0010
0000
0000
0010
0000
0000
1000
0000
0000
,
0001
0000
0000
0000
1000
0000
0000
0010
0000
0001
1000
0000
0010
0000
0000
0100
,
0000
0000
0001
0000
1000
0000
0000
0010
0000
0000
1000
0000
0000
0001
0000
0000
,
0000
0010
0000
0000
1000
0000
0000
0001
0100
0000
0010
1000
0000
0000
0000
0000
,
0000
0001
0000
0000
0010
0000
0000
2000
0000
0000
0000
0000
0000
0000
0000
0000
,
0000
0000
0000
0000
,
0000
0000
0000
0000
,
0000
0000
0000
3000
;
