#TITLE:Klassiker Einheit;
#SUBTITLE:;
#ARTIST:DJ Sharpnel;
#TITLETRANSLIT:;
#SUBTITLETRANSLIT:;
#ARTISTTRANSLIT:;
#CREDIT:;
#BANNER:klassiker full bn.png;
#BACKGROUND:klassiker bg.png;
#LYRICSPATH:;
#CDTITLE:;
#MUSIC:klassiker einheit.ogg;
#OFFSET:-0.064;
#SAMPLESTART:112.713;
#SAMPLELENGTH:23.039;
#SELECTABLE:YES;
#BPMS:0.000=187.500;
#STOPS:;
#BGCHANGES:;
// cache tags:
#FIRSTBEAT:0.000;
#LASTBEAT:888.000;
#SONGFILENAME:Songs/SHARPNELSTREAMZ v2/Klassiker Einheit/Klassiker Einheit.sm;
#HASMUSIC:1;
#HASBANNER:1;
#MUSICLENGTH:284.577;
// end cache tags

//---------------dance-single - 17+ (@@)----------------
#NOTES:
     dance-single:
     17+ (@@):
     Challenge:
     17:
     1.000,1.000,0.000,0.060,1.000,3433.000,0.000,17.000,0.000,0.000:
1000
0100
0010
0001
0100
0001
1000
0100
0010
0100
1000
0010
1000
0001
0010
0001
,
1000
0100
0010
0001
0100
0001
1000
0100
0010
0100
1000
0010
1000
0001
1000
0100
,
1000
0010
0100
0001
0010
0001
1000
0010
0100
0010
1000
0100
1000
0001
0100
0001
,
1000
0010
0100
0001
0010
0001
1000
0010
0100
0010
1000
0100
1000
0001
1000
0010
,
1000
0100
0010
0100
1000
0010
1000
0001
0010
0100
1000
0010
1000
0100
0010
0001
,
1000
0100
0010
0100
1000
0010
1000
0001
0010
0100
1000
0010
1000
0001
1000
0100
,
1000
0010
0100
0010
1000
0100
1000
0001
0100
0010
1000
0100
1000
0010
0100
0001
,
1000
0010
0100
0010
1000
0100
1000
0001
0100
0010
1000
0100
1000
0001
1000
0010
,
1000
0100
0010
0001
0100
0001
0010
0100
0010
0001
0100
0010
1000
0100
0010
0100
,
1000
0100
0010
0001
0100
0001
0010
0100
0010
0001
1000
0001
0100
0001
0010
0001
,
0100
0010
0100
0001
0010
0001
1000
0010
0100
0010
1000
0100
1000
0010
0100
0001
,
0100
0010
0100
0001
0010
0001
1000
0010
0100
0001
1000
0001
0010
0001
0100
0001
,
0010
0100
0010
0001
0100
0001
0010
0100
1000
0100
0010
0100
1000
0010
0100
0001
,
0010
0100
0010
0001
0100
0001
0010
0100
1000
0100
0010
0100
1000
0010
1000
0100
,
1000
0001
0100
0010
1000
0100
1000
0001
0100
0010
1000
0100
1000
0010
0100
0001
,
1000
0000
0000
0000
0000
0000
0000
0000
0000
0010
0000
0000
0000
0000
0000
0000
0000
0000
0000
1000
0000
0000
0000
0000
0000
0000
0000
0000
0000
0010
0000
0000
0000
0000
0000
0000
0000
0000
0100
0000
0000
0000
0000
0000
0000
0000
0000
0000
0001
0000
0000
0000
0000
0000
0000
0000
0000
1000
0000
0000
0000
0000
0000
0000
0000
0000
0000
0010
0000
0000
0000
0000
0000
0000
0000
0000
0000
0100
0000
0000
0000
0000
0000
0000
0000
0000
0010
0000
0000
0000
0000
0000
0000
0000
0000
0000
1000
0000
0000
0000
0000
0000
0000
0000
0000
0001
0000
0000
0000
0000
0000
0000
0000
0000
0000
1000
0000
0000
0000
0000
0000
0000
0000
0000
0000
0001
0000
0000
0000
0000
0000
0000
0000
0000
0100
0000
0000
0000
0000
0000
0000
0000
0000
0000
0010
0000
0000
0000
0000
0000
0000
0000
0000
1000
0000
0000
0000
0000
0000
0000
0000
0000
0000
0001
0000
0000
0000
0000
0000
0000
0000
0000
0000
0100
0000
0000
0000
0000
0000
0000
0000
0000
0001
0000
0000
0000
0000
0000
0000
0000
0000
0000
,
1000
0010
0100
0001
0010
0001
1000
0010
0100
0010
1000
0100
1000
0001
0100
0001
,
1000
0010
0100
0001
0010
0001
1000
0010
0100
0010
1000
0100
1000
0001
1000
0010
,
1000
0100
0010
0001
0100
0001
1000
0100
0010
0100
1000
0010
1000
0001
0010
0001
,
1000
0100
0010
0001
0100
0001
1000
0100
0010
0100
1000
0010
1000
0001
1000
0100
,
1000
0010
0100
0010
1000
0100
1000
0001
0100
0010
1000
0100
1000
0010
0100
0001
,
1000
0010
0100
0010
1000
0100
1000
0001
0100
0010
1000
0100
1000
0001
1000
0010
,
1000
0100
0010
0100
1000
0010
1000
0001
0010
0100
1000
0010
1000
0100
0010
0001
,
1000
0100
0010
0100
1000
0010
1000
0001
0010
0100
1000
0010
1000
0001
1000
0100
,
1000
0010
0100
0001
0010
0001
0100
0010
0100
0001
0010
0100
1000
0010
0100
0010
,
1000
0010
0100
0001
0010
0001
0100
0010
0100
0001
1000
0001
0010
0001
0100
0001
,
0010
0100
0010
0001
0100
0001
1000
0100
0010
0100
1000
0010
1000
0100
0010
0001
,
0010
0100
0010
0001
0100
0001
1000
0100
0010
0100
1000
0001
0100
0001
0010
0001
,
0100
0010
0100
0001
0010
0001
0100
0010
1000
0010
0100
0010
1000
0100
0010
0001
,
0100
0010
0100
0001
0010
0001
0100
0010
1000
0010
0100
0010
1000
0100
1000
0010
,
1000
0001
0010
0100
1000
0010
1000
0001
0010
0100
1000
0010
1000
0100
0010
0001
,
1000
0000
0000
0001
0000
0000
0100
0000
0000
0010
0000
0000
1000
0000
0000
0100
0000
0000
1000
0000
0000
0001
0000
0000
0100
0000
0000
0010
0000
0000
1000
0000
0000
0100
0000
0000
1000
0000
0000
0010
0000
0000
1000
0000
0001
0000
1000
0000
,
0001
0010
0100
1000
0010
1000
0001
0010
0100
0010
0001
0100
0001
1000
0100
1000
,
0001
0010
0100
1000
0010
1000
0001
0010
0100
0010
0001
0100
0001
1000
0001
0010
,
0001
0100
0010
1000
0100
1000
0001
0100
0010
0100
0001
0010
0001
1000
0010
1000
,
0001
0100
0010
1000
0100
1000
0001
0100
0010
0100
0001
0010
0001
1000
0001
0100
,
0001
0010
0100
0010
0001
0100
0001
1000
0100
0010
0001
0100
0001
0010
0100
1000
,
0001
0010
0100
0010
0001
0100
0001
1000
0100
0010
0001
0100
0001
1000
0001
0010
,
0001
0100
0010
0100
0001
0010
0001
1000
0010
0100
0001
0010
0001
0100
0010
1000
,
0001
0100
0010
0100
0001
0010
0001
1000
0010
0100
0001
0010
0001
1000
0001
0100
,
0001
0010
0100
1000
0010
1000
0100
0010
0100
1000
0010
0100
0001
0010
0100
0010
,
0001
0010
0100
1000
0010
1000
0100
0010
0100
1000
0001
1000
0010
1000
0100
1000
,
0010
0100
0010
1000
0100
1000
0001
0100
0010
0100
0001
0010
0001
0100
0010
1000
,
0010
0100
0010
1000
0100
1000
0001
0100
0010
1000
0001
1000
0100
1000
0010
1000
,
0100
0010
0100
1000
0010
1000
0100
0010
0001
0010
0100
0010
0001
0100
0010
1000
,
0100
0010
0100
1000
0010
1000
0100
0010
0001
0010
0100
0010
0001
0100
0001
0010
,
0001
1000
0010
0100
0001
0010
0001
1000
0100
0010
0001
0100
0001
0010
0100
1000
,
0001
0000
0000
0000
0000
0000
0000
0000
0000
0010
0000
0000
0000
0000
0000
0000
0000
0000
0000
0001
0000
0000
0000
0000
0000
0000
0000
0000
0000
0010
0000
0000
0000
0000
0000
0000
0000
0000
0100
0000
0000
0000
0000
0000
0000
0000
0000
0000
1000
0000
0000
0000
0000
0000
0000
0000
0000
0001
0000
0000
0000
0000
0000
0000
0000
0000
0000
0010
0000
0000
0000
0000
0000
0000
0000
0000
0000
0100
0000
0000
0000
0000
0000
0000
0000
0000
0010
0000
0000
0000
0000
0000
0000
0000
0000
0000
0001
0000
0000
0000
0000
0000
0000
0000
0000
1000
0000
0000
0000
0000
0000
0000
0000
0000
0000
0001
0000
0000
0000
0000
0000
0000
0000
0000
0000
1000
0000
0000
0000
0000
0000
0000
0000
0000
0100
0000
0000
0000
0000
0000
0000
0000
0000
0000
0010
0000
0000
0000
0000
0000
0000
0000
0000
0001
0000
0000
0000
0000
0000
0000
0000
0000
0000
1000
0000
0000
0000
0000
0000
0000
0000
0000
0000
0100
0000
0000
0000
0000
0000
0000
0000
0000
1000
0000
0000
0000
0000
0000
0000
0000
0000
0000
,
0002
0003
0000
0000
0000
0000
0002
0003
0000
0000
0000
0000
0000
0000
0000
0000
,
0200
0300
0000
0000
0000
0000
0200
0300
0000
0000
0000
0000
0000
0000
0000
0000
,
0020
0030
0000
0000
0000
0000
0020
0030
0000
0000
0000
0000
0000
0000
0000
0000
,
2000
3000
0000
0000
0000
0000
2000
3000
0000
0000
0000
0000
0200
0300
0000
0000
,
0020
0030
0000
0000
0000
0000
0020
0030
0000
0000
0000
0000
0000
0000
0000
0000
,
0200
0300
0000
0000
0000
0000
0200
0300
0000
0000
0000
0000
0000
0000
0000
0000
,
2000
3000
0000
0000
0000
0000
2000
3000
0000
0000
0000
0000
0000
0000
0000
0000
,
0002
0003
0000
0000
0000
0000
0002
0003
0000
0000
0000
0000
0100
0010
1000
0001
,
0010
0100
1000
0010
1000
0001
0010
0100
1000
0010
1000
0001
0010
0100
1000
0010
,
1000
0100
0010
0001
0100
0001
1000
0100
0010
0001
0100
0001
1000
0100
0010
0001
,
0100
0010
1000
0100
0010
0001
0100
0010
1000
0100
0010
0001
0100
0010
1000
0100
,
1000
0010
0100
0001
0010
0100
1000
0010
0100
0001
0010
0100
1000
0010
0100
0001
,
0100
0010
1000
0100
1000
0001
0100
0010
1000
0100
1000
0001
0100
0010
1000
0100
,
1000
0010
0100
0001
0010
0001
1000
0010
0100
0001
0010
0001
1000
0010
0100
0001
,
0010
0100
1000
0010
0100
0001
0010
0100
1000
0010
0100
0001
0010
0100
1000
0010
,
1000
0000
0000
0100
0000
0000
0010
0000
0000
0001
0000
0000
0100
0000
0000
0010
0000
0000
1000
0000
0000
0100
0000
0000
0010
0000
0000
0001
0000
0000
0100
0000
0000
0010
0000
0000
1000
0000
0000
0100
0000
0000
1000
0000
0100
0000
1000
0000
,
0100
0010
0001
0100
0001
1000
0100
0010
0001
0100
0001
1000
0100
0010
0001
0100
,
0001
0010
0100
1000
0010
1000
0001
0010
0100
1000
0010
1000
0001
0010
0100
1000
,
0010
0100
0001
0010
0100
1000
0010
0100
0001
0010
0100
1000
0010
0100
0001
0010
,
0001
0100
0010
1000
0100
0010
0001
0100
0010
1000
0100
0010
0001
0100
0010
1000
,
0010
0100
0001
0010
0001
1000
0010
0100
0001
0010
0001
1000
0010
0100
0001
0010
,
0001
0100
0010
1000
0100
1000
0001
0100
0010
1000
0100
1000
0001
0100
0010
1000
,
0100
0010
0001
0100
0010
1000
0100
0010
0001
0100
0010
1000
0100
0010
0001
0100
,
0001
0000
0000
0000
0000
0000
0000
0000
0000
1000
0000
0000
0000
0000
0000
0000
0000
0000
0000
0001
0000
0000
0000
0000
0000
0000
0000
0000
0000
1000
0000
0000
0000
0000
0000
0000
0000
0000
0010
0000
0000
0000
0000
0000
0000
0000
0000
0000
0100
0000
0000
0000
0000
0000
0000
0000
0000
0001
0000
0000
0000
0000
0000
0000
0000
0000
0000
1000
0000
0000
0000
0000
0000
0000
0000
0000
0000
0010
0000
0000
0000
0000
0000
0000
0000
0000
1000
0000
0000
0000
0000
0000
0000
0000
0000
0000
0001
0000
0000
0000
0000
0000
0000
0000
0000
0100
0000
0000
0000
0000
0000
0000
0000
0000
0000
0001
0000
0000
0000
0000
0000
0000
0000
0000
0000
0100
0000
0000
0000
0000
0000
0000
0000
0000
0010
0000
0000
0000
0000
0000
0000
0000
0000
0000
1000
0000
0000
0000
0000
0000
0000
0000
0000
0001
0000
0000
0000
0000
0000
0000
0000
0000
0000
0100
0000
0000
0000
0000
0000
0000
0000
0000
0000
0010
0000
0000
0000
0000
0000
0000
0000
0000
1000
0000
0000
0000
0000
0000
0000
0000
0000
0000
,
0001
0100
0010
0100
0001
1000
0010
1000
0001
0010
0100
0010
0001
1000
0100
0010
,
0001
1000
0001
0100
0010
1000
0010
0100
0001
1000
0001
0010
0100
0010
0001
1000
,
0010
0100
0010
1000
0001
0100
0001
1000
0100
0010
0100
1000
0001
1000
0010
0100
,
0001
1000
0100
0010
0001
1000
0100
1000
0001
0100
0010
1000
0001
0010
0001
0100
,
0001
0010
0100
1000
0100
0010
0100
1000
0001
0100
0010
0100
0001
1000
0010
0100
,
0001
1000
0001
0010
0100
1000
0001
1000
0010
0100
0001
1000
0010
1000
0001
0100
,
0001
1000
0100
1000
0001
1000
0100
1000
0010
0100
0001
0100
0010
0100
0001
0100
,
0010
1000
0100
0010
0100
1000
0010
0100
0001
0100
0010
1000
0001
0010
0001
1000
,
0010
0100
0001
0100
0010
1000
0001
1000
0100
0010
0100
1000
0001
0100
0001
1000
,
0100
0010
0001
1000
0010
1000
0001
0010
0001
1000
0100
1000
0001
0100
0010
1000
,
0010
0100
0001
1000
0001
0100
0010
1000
0001
0010
0100
1000
0100
0010
0001
1000
,
0010
1000
0001
0100
0010
1000
0001
0010
0100
1000
0100
0010
0100
1000
0010
1000
,
0001
0010
0100
1000
0001
0010
0001
1000
0010
0100
0001
0100
0010
1000
0001
1000
,
0100
0010
0100
1000
0001
0100
0001
1000
0100
0010
0001
1000
0010
0100
0001
0100
,
0010
1000
0001
1000
0100
0010
0001
1000
0001
0010
0100
0010
0001
1000
0100
1000
,
0001
0000
0000
0000
0000
0000
0000
0000
0000
0010
0000
0000
0000
0000
0000
0000
0000
0000
0000
0001
0000
0000
0000
0000
0000
0000
0000
0000
0000
0010
0000
0000
0000
0000
0000
0000
0000
0000
0100
0000
0000
0000
0000
0000
0000
0000
0000
0000
1000
0000
0000
0000
0000
0000
0000
0000
0000
0001
0000
0000
0000
0000
0000
0000
0000
0000
0000
0010
0000
0000
0000
0000
0000
0000
0000
0000
0000
0100
0000
0000
0000
0000
0000
0000
0000
0000
0010
0000
0000
0000
0000
0000
0000
0000
0000
0000
0001
0000
0000
0000
0000
0000
0000
0000
0000
1000
0000
0000
0000
0000
0000
0000
0000
0000
0000
0001
0000
0000
0000
0000
0000
0000
0000
0000
0000
1000
0000
0000
0000
0000
0000
0000
0000
0000
0100
0000
0000
0000
0000
0000
0000
0000
0000
0000
0010
0000
0000
0000
0000
0000
0000
0000
0000
0100
0000
0000
0000
0000
0000
0000
0000
0000
0000
1000
0000
0000
0000
0000
0000
0000
0000
0000
0000
0001
0000
0000
0000
0000
0000
0000
0000
0000
0010
0000
0000
0000
0000
0000
0000
0000
0000
0000
,
0100
1000
0100
1000
0010
0100
0001
0100
0010
1000
0001
1000
0100
0010
0001
1000
,
0010
0100
0010
0100
0001
0010
0100
0010
0001
1000
0100
1000
0001
0100
0001
1000
,
0100
0010
0100
0010
0001
0100
0001
1000
0100
1000
0001
0100
0001
1000
0010
1000
,
0100
0010
0100
0010
0001
1000
0100
1000
0010
1000
0001
1000
0010
1000
0100
1000
,
0010
0100
0010
0100
0001
0010
0100
1000
0001
0010
0001
1000
0010
0100
0010
1000
,
0100
1000
0100
1000
0010
0100
0001
0100
0010
1000
0001
0100
0001
1000
0100
0010
,
0001
0100
0001
0100
0001
0010
0100
1000
0100
0010
0001
1000
0001
0100
0010
1000
,
0001
0010
0100
1000
0001
0010
0001
1000
0010
0100
0010
1000
0001
0100
0001
1000
,
0010
0100
0010
0100
0001
0010
0100
0010
0001
1000
0001
0100
0010
0100
0001
1000
,
0100
0010
0100
0010
0001
0100
0010
1000
0001
0100
0010
0100
0001
1000
0100
0010
,
0001
0100
0001
0100
0001
0010
0100
1000
0001
1000
0100
0010
0001
1000
0100
1000
,
0010
0100
0010
0100
0001
0010
0100
1000
0010
1000
0001
1000
0100
1000
0010
1000
,
0100
0010
0100
0010
0001
0100
0010
0100
0001
1000
0100
0010
0001
0010
0100
1000
,
0010
0100
0010
0100
0001
0010
0100
1000
0001
1000
0100
0010
0001
1000
0010
0100
,
0001
0010
0001
0010
0001
0100
0010
1000
0010
0100
0001
1000
0001
0010
0100
1000
,
0001
0100
0010
1000
0001
0100
0001
1000
0100
0010
0100
1000
0001
0010
0001
1000
,
0010
0100
0010
1000
0001
0100
0001
1000
0100
0010
0100
1000
0001
0010
0001
1000
,
0010
0100
0010
1000
0001
0100
0001
1000
0100
0010
0100
1000
0001
0010
0001
1000
,
0010
0100
0010
0100
0001
0010
0001
0010
0100
1000
0100
1000
0010
0100
0010
0100
,
0001
0010
0001
0010
0001
0100
0001
0100
0010
1000
0010
1000
0100
1000
0100
1000
,
0010
0100
0010
0100
0001
0010
0001
0010
0100
1000
0100
1000
0010
0100
0010
0100
,
0001
0010
0001
1000
0001
0010
0001
1000
0001
0100
0010
1000
0100
0010
0001
1000
,
0010
0100
0010
0100
0001
0010
0001
0010
0100
1000
0100
1000
0010
0100
0010
0100
,
0001
0010
0001
0010
0001
0100
0001
0100
0010
1000
0010
1000
0100
1000
0100
1000
,
0010
0100
0010
0100
0001
0010
0001
0010
0100
1000
0100
1000
0010
1000
0010
1000
,
0100
0010
0001
0010
0100
0010
0001
0010
0100
1000
0010
0100
0010
1000
0010
0100
,
0001
0010
0001
0010
0100
1000
0100
1000
0010
0100
0010
0100
0001
0010
0001
0010
,
0001
0100
0001
0100
0010
1000
0010
1000
0100
1000
0100
1000
0010
0100
0010
0100
,
0001
0010
0001
0010
0100
1000
0100
1000
0010
1000
0010
1000
0001
0100
0001
0100
,
0001
0010
0100
0010
0001
0010
0100
0010
0001
0100
0010
0100
0001
0100
0010
0100
,
0001
0010
0001
0010
0001
0100
0001
0100
0010
1000
0010
1000
0100
1000
0100
1000
,
0001
0010
0001
0010
0001
0100
0001
0100
0010
1000
0010
1000
0100
1000
0100
1000
,
0010
0100
0010
0100
0001
0010
0001
0010
0100
1000
0100
1000
0010
1000
0010
1000
,
0001
0100
0001
0100
0001
0010
0001
0010
0100
1000
0100
1000
0010
0100
0010
0100
,
0001
0010
0100
1000
0010
1000
0001
0010
0100
1000
0010
1000
0001
0010
0100
1000
,
0010
0100
0001
0010
0001
1000
0010
0100
0001
0010
0001
1000
0010
0100
0001
0010
,
0001
0100
0010
1000
0100
0010
0001
0100
0010
1000
0100
0010
0001
0100
0010
1000
,
0001
0010
0100
1000
0010
0100
0001
0010
0100
1000
0010
0100
0001
0010
0100
1000
,
0001
0100
0010
1000
0100
1000
0001
0100
0010
1000
0100
1000
0001
0100
0010
1000
,
0100
0010
0001
0100
0001
1000
0100
0010
0001
0100
0001
1000
0100
0010
0001
0100
,
0001
0010
0100
1000
0010
0100
0001
0010
0100
1000
0010
0100
0001
0010
0100
1000
,
0001
0000
0000
0100
0000
0000
0010
0000
0000
1000
0000
0000
0100
0000
0000
0010
0000
0000
0001
0000
0000
0100
0000
0000
0010
0000
0000
1000
0000
0000
0100
0000
0000
0010
0000
0000
0001
0000
0000
0100
0000
0000
0010
0000
1000
0000
0010
0000
,
1000
0010
0100
0001
0010
0001
1000
0010
0100
0001
0010
0001
1000
0010
0100
0001
,
0010
0100
1000
0010
1000
0001
0010
0100
1000
0010
1000
0001
0010
0100
1000
0010
,
1000
0100
0010
0001
0100
0010
1000
0100
0010
0001
0100
0010
1000
0100
0010
0001
,
1000
0010
0100
0001
0010
0100
1000
0010
0100
0001
0010
0100
1000
0010
0100
0001
,
1000
0100
0010
0001
0100
0001
1000
0100
0010
0001
0100
0001
1000
0100
0010
0001
,
0100
0010
1000
0100
1000
0001
0100
0010
1000
0100
1000
0001
0100
0010
1000
0100
,
1000
0010
0100
0001
0010
0100
1000
0010
0100
0001
0010
0100
1000
0010
0100
0001
,
1000
0100
0010
0001
0100
0010
1000
0100
0010
0001
0100
0010
1000
0100
0010
0001
,
0010
0100
1000
0001
0010
0001
1000
0100
1000
0010
0100
0001
1000
0100
0010
0001
,
0100
0010
1000
0001
0100
0001
1000
0010
1000
0100
0010
0001
1000
0010
0100
0001
,
1000
0100
0010
0100
1000
0001
0010
0100
1000
0010
0100
0001
1000
0001
0010
0100
,
1000
0010
1000
0001
0100
0010
1000
0010
0100
0001
0010
0100
1000
0001
0100
0010
,
1000
0100
0010
0001
1000
0100
0010
0100
1000
0010
0100
0010
1000
0001
0010
0100
,
1000
0010
0100
0010
1000
0001
0100
0001
0010
0100
1000
0001
1000
0010
0100
0001
,
0010
0100
0010
0001
1000
0100
0010
0001
0100
0010
1000
0001
1000
0100
0010
0100
,
1000
0010
1000
0001
0100
0010
0100
0001
0010
0100
1000
0001
1000
0010
0100
0001
,
0010
0100
1000
0001
1000
0100
0010
0001
0100
0010
0100
0001
1000
0100
0010
0001
,
0100
0010
1000
0001
0100
0001
1000
0010
1000
0100
0010
0001
1000
0010
0100
0001
,
0010
0100
1000
0001
0010
0001
1000
0100
1000
0010
0100
0001
1000
0100
0010
0001
,
1000
0010
0100
0010
1000
0001
0100
0010
1000
0100
0010
0001
1000
0001
0100
0010
,
1000
0100
1000
0001
0010
0100
1000
0100
0010
0001
0100
0010
1000
0001
0010
0100
,
1000
0010
0100
0001
1000
0010
0100
0010
1000
0100
0010
0100
1000
0001
0100
0010
,
1000
0100
0010
0100
1000
0001
0010
0001
0100
0010
1000
0001
1000
0100
0010
0001
,
0100
0010
0100
0001
1000
0010
0100
0001
0010
0100
1000
0001
1000
0010
0100
0010
,
1000
0100
0010
0001
1000
0010
1000
0001
0010
0001
0100
0001
1000
0010
0100
0001
,
1000
0100
0010
0001
1000
0010
0100
0001
1000
0100
1000
0010
0100
0001
1000
0010
,
1000
0100
0010
0100
1000
0001
0100
0001
1000
0100
1000
0010
1000
0001
0100
0010
,
1000
0100
0010
0001
1000
0010
1000
0001
0100
0001
1000
0001
0100
0001
0010
0001
,
0100
0010
1000
0001
0010
0001
1000
0010
0100
0001
0010
0001
1000
0100
0010
0001
,
1000
0010
0100
0010
1000
0001
0010
0001
1000
0010
1000
0100
1000
0001
0010
0100
,
1000
0010
0100
0001
1000
0100
1000
0001
0100
0001
0010
0100
1000
0001
0010
0001
,
1000
0010
1000
0001
0010
0100
1000
0001
0100
0001
0010
0100
1000
0001
0010
0001
,
1000
0010
1000
0001
0010
0100
0010
0001
1000
0010
1000
0100
0010
0001
1000
0100
,
1000
0001
0100
0010
1000
0001
0010
0100
1000
0010
0100
0001
0010
0001
0100
0010
,
1000
0100
1000
0100
0010
0001
0010
0001
0100
0010
0100
0010
1000
0100
1000
0100
,
1000
0010
1000
0010
0100
0001
0100
0001
0010
0001
0010
0001
0100
0010
0100
0010
,
1000
0100
1000
0100
0010
0001
0010
0001
0100
0010
0100
0010
1000
0100
1000
0100
,
0010
0001
0100
0001
1000
0001
0100
0001
1000
0100
0010
0001
0100
0010
1000
0001
,
0010
0100
0010
0100
1000
0010
1000
0010
0100
0001
0100
0001
0010
0100
0010
0100
,
1000
0010
1000
0010
1000
0100
1000
0100
0010
0001
0010
0001
0100
0001
0100
0001
,
0010
0100
0010
0100
1000
0010
1000
0010
0100
0001
0100
0001
0010
0001
0010
0001
,
0100
0010
1000
0010
0100
0010
1000
0010
0100
0001
0010
0100
0010
0001
0010
0100
,
1000
0010
1000
0010
0100
0001
0100
0001
0010
0100
0010
0100
1000
0010
1000
0010
,
1000
0100
1000
0100
0010
0001
0010
0001
0100
0001
0100
0001
0010
0100
0010
0100
,
1000
0010
1000
0010
0100
0001
0100
0001
0010
0001
0010
0001
1000
0100
1000
0100
,
1000
0010
0100
0010
1000
0010
0100
0010
1000
0100
0010
0100
1000
0010
0100
0001
,
0010
0100
0010
0100
1000
0010
1000
0010
0100
0001
0100
0001
0010
0100
0010
0100
,
1000
0010
1000
0010
0100
0001
0100
0001
0010
0001
0010
0001
0100
0010
0100
0010
,
1000
0100
1000
0100
0010
0001
0010
0001
0100
0001
0100
0001
1000
0010
1000
0010
,
1000
0100
0010
0100
1000
0100
0010
0100
1000
0010
0100
0010
1000
0010
0100
0001
,
0010
0100
0010
0100
1000
0010
1000
0010
1000
0100
1000
0100
0010
0001
0010
0001
,
0100
0001
0100
0001
0010
0100
0010
0100
1000
0010
1000
0010
0100
0001
0100
0001
,
0010
0100
0010
0100
1000
0010
1000
0010
0100
0001
0100
0001
0010
0100
0010
0100
,
1000
0010
0100
0001
0100
0010
0100
0001
0010
0100
0010
0001
0010
0100
0010
0001
,
0100
0010
0100
0010
1000
0100
1000
0100
0010
0001
0010
0001
0100
0010
0100
0010
,
1000
0100
1000
0100
1000
0010
1000
0010
0100
0001
0100
0001
0010
0001
0010
0001
,
0100
0010
0100
0010
1000
0100
1000
0100
0010
0001
0010
0001
0100
0001
0100
0001
,
1000
0010
1000
0010
1000
0100
1000
0100
0010
0001
0010
0001
0100
0010
0100
0010
,
1000
0010
0100
0001
0010
0001
1000
0010
0100
0010
1000
0100
1000
0001
0100
0001
,
1000
0010
0100
0001
0010
0001
1000
0010
0100
0010
1000
0100
1000
0001
1000
0010
,
1000
0100
0010
0001
0100
0001
1000
0100
0010
0100
1000
0010
1000
0001
0010
0001
,
1000
0100
0010
0001
0100
0001
1000
0100
0010
0100
1000
0010
1000
0001
1000
0100
,
1000
0010
0100
0010
1000
0100
1000
0001
0100
0010
1000
0100
1000
0010
0100
0001
,
1000
0010
0100
0010
1000
0100
1000
0001
0100
0010
1000
0100
1000
0001
1000
0010
,
1000
0100
0010
0100
1000
0010
1000
0001
0010
0100
1000
0010
1000
0100
0010
0001
,
1000
0100
0010
0100
1000
0010
1000
0001
0010
0100
1000
0010
1000
0001
1000
0100
,
1000
0010
0100
0001
0010
0001
0100
0010
0100
0001
0010
0100
1000
0010
0100
0010
,
1000
0010
0100
0001
0010
0001
0100
0010
0100
0001
1000
0001
0100
0010
0100
0001
,
0010
0100
0010
0001
0100
0001
1000
0100
0010
0100
1000
0010
1000
0100
0010
0001
,
0010
0100
0010
0001
0100
0001
1000
0100
0010
0100
1000
0001
0100
0001
0010
0001
,
0100
0010
0100
0001
0010
0001
0100
0010
0100
0001
1000
0010
1000
0100
0010
0001
,
0100
0010
0100
0001
0010
0001
0100
0010
1000
0010
0100
0010
1000
0100
1000
0010
,
1000
0001
0010
0100
1000
0010
1000
0001
0010
0100
1000
0010
1000
0100
0010
0001
,
0100
0010
1000
0001
0100
0001
0010
0001
0100
0010
1000
0100
0010
0001
0100
0010
,
1000
0100
0010
0100
1000
0010
0100
0010
1000
0001
0100
0010
1000
0100
0010
0100
,
1000
0010
0100
0001
0010
0100
0010
0001
1000
0100
0010
0001
0100
0010
0100
0001
,
0010
0100
0010
0001
0100
0010
1000
0010
0100
0001
1000
0010
1000
0100
0010
0001
,
0100
0001
1000
0010
1000
0100
0010
0001
1000
0001
0010
0100
0010
0001
0100
0001
,
1000
0010
0100
0010
1000
0100
0010
0100
1000
0001
0010
0100
1000
0010
0100
0010
,
1000
0100
0010
0001
0100
0010
0100
0001
1000
0010
0100
0001
0010
0100
0010
0001
,
0100
0010
0100
0001
0010
0100
1000
0100
0010
0001
1000
0100
1000
0010
0100
0001
,
0010
0001
1000
0100
1000
0010
0100
0001
1000
0001
0100
0010
0100
0001
0010
0001
,
1000
0100
0010
0001
0100
0010
1000
0001
0100
0001
1000
0010
1000
0100
0010
0001
,
0100
0001
1000
0010
1000
0100
0010
0001
1000
0100
1000
0010
0100
0010
1000
0100
,
0010
0100
1000
0010
0100
0001
0100
0010
1000
0010
0100
0001
0010
0100
1000
0010
,
0100
0010
1000
0100
1000
0001
0010
0100
1000
0100
0010
0100
1000
0010
1000
0001
,
1000
0010
0100
0001
0010
0100
1000
0001
0010
0001
1000
0100
1000
0010
0100
0001
,
0010
0001
1000
0100
1000
0010
0100
0001
1000
0010
1000
0100
0010
0100
1000
0010
,
0100
0010
1000
0100
0010
0001
0010
0100
1000
0100
0010
0001
0100
0010
1000
0100
,
0010
0001
1000
0100
1000
0001
0010
0100
1000
0001
0100
0001
1000
0010
0100
0001
,
0000
0000
0000
0000
,
1000
0000
0000
0000
;

//---------------dance-single - 17+ (@@)----------------
#NOTES:
     dance-single:
     17+ (@@):
     Hard:
     17:
     1.000,1.000,0.000,0.060,1.000,3380.000,0.000,17.000,2.000,0.000:
1000
0100
0010
0001
0100
0001
1000
0100
0010
0100
1000
0010
1000
0001
0010
0001
,
1000
0100
0010
0001
0100
0001
1000
0100
0010
0100
1000
0010
1000
0001
1000
0100
,
1000
0010
0100
0001
0010
0001
1000
0010
0100
0010
1000
0100
1000
0001
0100
0001
,
1000
0010
0100
0001
0010
0001
1000
0010
0100
0010
1000
0100
1000
0001
1000
0010
,
1000
0100
0010
0100
1000
0010
1000
0001
0010
0100
1000
0010
1000
0100
0010
0001
,
1000
0100
0010
0100
1000
0010
1000
0001
0010
0100
1000
0010
1000
0001
1000
0100
,
1000
0010
0100
0010
1000
0100
1000
0001
0100
0010
1000
0100
1000
0010
0100
0001
,
1000
0010
0100
0010
1000
0100
1000
0001
0100
0010
1000
0100
1000
0001
1000
0010
,
1000
0100
0010
0001
0100
0001
0010
0100
0010
0001
0100
0010
1000
0100
0010
0100
,
1000
0100
0010
0001
0100
0001
0010
0100
0010
0001
1000
0001
0100
0001
0010
0001
,
0100
0010
0100
0001
0010
0001
1000
0010
0100
0010
1000
0100
1000
0010
0100
0001
,
0100
0010
0100
0001
0010
0001
1000
0010
0100
0010
1000
0001
0010
0001
0100
0001
,
0010
0100
0010
0001
0100
0001
0010
0100
1000
0100
0010
0100
1000
0010
0100
0001
,
0010
0100
0010
0001
0100
0001
0010
0100
1000
0100
0010
0100
1000
0010
1000
0100
,
1000
0001
0100
0010
1000
0100
1000
0001
0100
0010
1000
0100
1000
0010
0100
0001
,
0010
0001
0100
0010
1000
0100
1000
0010
0100
0001
0010
0001
0100
0010
1000
0100
,
1000
0010
0100
0001
0010
0001
1000
0010
0100
0010
1000
0100
1000
0001
0100
0001
,
1000
0010
0100
0001
0010
0001
1000
0010
0100
0010
1000
0100
1000
0001
1000
0010
,
1000
0100
0010
0001
0100
0001
1000
0100
0010
0100
1000
0010
1000
0001
0010
0001
,
1000
0100
0010
0001
0100
0001
1000
0100
0010
0100
1000
0010
1000
0001
1000
0100
,
1000
0010
0100
0010
1000
0100
1000
0001
0100
0010
1000
0100
1000
0010
0100
0001
,
1000
0010
0100
0010
1000
0100
1000
0001
0100
0010
1000
0100
1000
0001
1000
0010
,
1000
0100
0010
0100
1000
0010
1000
0001
0010
0100
1000
0010
1000
0100
0010
0001
,
1000
0100
0010
0100
1000
0010
1000
0001
0010
0100
1000
0010
1000
0001
1000
0100
,
1000
0010
0100
0001
0010
0001
0100
0010
0100
0001
0010
0100
1000
0010
0100
0010
,
1000
0010
0100
0001
0010
0001
0100
0010
0100
0001
1000
0001
0010
0001
0100
0001
,
0010
0100
0010
0001
0100
0001
1000
0100
0010
0100
1000
0010
1000
0100
0010
0001
,
0010
0100
0010
0001
0100
0001
1000
0100
0010
0100
1000
0001
0100
0001
0010
0001
,
0100
0010
0100
0001
0010
0001
0100
0010
1000
0010
0100
0010
1000
0100
0010
0001
,
0100
0010
0100
0001
0010
0001
0100
0010
1000
0010
0100
0010
1000
0100
1000
0010
,
1000
0001
0010
0100
1000
0010
1000
0001
0010
0100
1000
0010
1000
0100
0010
0001
,
1000
0000
0000
0001
0000
0000
0100
0000
0000
0010
0000
0000
1000
0000
0000
0100
0000
0000
1000
0000
0000
0001
0000
0000
0100
0000
0000
0010
0000
0000
1000
0000
0000
0100
0000
0000
1000
0000
0000
0010
0000
0000
1000
0000
0001
0000
1000
0000
,
0001
0010
0100
1000
0010
1000
0001
0010
0100
0010
0001
0100
0001
1000
0100
1000
,
0001
0010
0100
1000
0010
1000
0001
0010
0100
0010
0001
0100
0001
1000
0001
0010
,
0001
0100
0010
1000
0100
1000
0001
0100
0010
0100
0001
0010
0001
1000
0010
1000
,
0001
0100
0010
1000
0100
1000
0001
0100
0010
0100
0001
0010
0001
1000
0001
0100
,
0001
0010
0100
0010
0001
0100
0001
1000
0100
0010
0001
0100
0001
0010
0100
1000
,
0001
0010
0100
0010
0001
0100
0001
1000
0100
0010
0001
0100
0001
1000
0001
0010
,
0001
0100
0010
0100
0001
0010
0001
1000
0010
0100
0001
0010
0001
0100
0010
1000
,
0001
0100
0010
0100
0001
0010
0001
1000
0010
0100
0001
0010
0001
1000
0001
0100
,
0001
0010
0100
1000
0010
1000
0100
0010
0100
1000
0010
0100
0001
0010
0100
0010
,
0001
0010
0100
1000
0010
1000
0100
0010
0100
1000
0001
1000
0010
1000
0100
1000
,
0010
0100
0010
1000
0100
1000
0001
0100
0010
0100
0001
0010
0001
0100
0010
1000
,
0010
0100
0010
1000
0100
1000
0001
0100
0010
0100
0001
1000
0100
1000
0010
1000
,
0100
0010
0100
1000
0010
1000
0100
0010
0001
0010
0100
0010
0001
0100
0010
1000
,
0100
0010
0100
1000
0010
1000
0100
0010
0001
0010
0100
0010
0001
0100
0001
0010
,
0001
1000
0010
0100
0001
0010
0001
1000
0100
0010
0001
0100
0001
0010
0100
1000
,
0010
0100
0001
0010
0100
0010
0001
0100
0010
1000
0100
0010
0100
1000
0010
0100
,
0002
0003
0000
0000
0000
0000
0002
0003
0000
0000
0000
0000
0000
0000
0000
0000
,
0200
0300
0000
0000
0000
0000
0200
0300
0000
0000
0000
0000
0000
0000
0000
0000
,
0020
0030
0000
0000
0000
0000
0020
0030
0000
0000
0000
0000
0000
0000
0000
0000
,
2000
3000
0000
0000
0000
0000
2000
3000
0000
0000
0000
0000
0200
0300
0000
0000
,
0020
0030
0000
0000
0000
0000
0020
0030
0000
0000
0000
0000
0000
0000
0000
0000
,
0200
0300
0000
0000
0000
0000
0200
0300
0000
0000
0000
0000
0000
0000
0000
0000
,
2000
3000
0000
0000
0000
0000
2000
3000
0000
0000
0000
0000
0000
0000
0000
0000
,
0002
0003
0000
0000
0000
0000
0002
0003
0000
0000
0000
0000
0100
0010
1000
0001
,
0010
0100
1000
0010
1000
0001
0010
0100
1000
0010
1000
0001
0010
0100
1000
0010
,
1000
0100
0010
0001
0100
0001
1000
0100
0010
0001
0100
0001
1000
0100
0010
0001
,
0100
0010
1000
0100
0010
0001
0100
0010
1000
0100
0010
0001
0100
0010
1000
0100
,
1000
0010
0100
0001
0010
0100
1000
0010
0100
0001
0010
0100
1000
0010
0100
0001
,
0100
0010
1000
0100
1000
0001
0100
0010
1000
0100
1000
0001
0100
0010
1000
0100
,
1000
0010
0100
0001
0010
0001
1000
0010
0100
0001
0010
0001
1000
0010
0100
0001
,
0010
0100
1000
0010
0100
0001
0010
0100
1000
0010
0100
0001
0010
0100
1000
0010
,
1000
0000
0000
0100
0000
0000
0010
0000
0000
0001
0000
0000
0100
0000
0000
0010
0000
0000
1000
0000
0000
0100
0000
0000
0010
0000
0000
0001
0000
0000
0100
0000
0000
0010
0000
0000
1000
0000
0000
0100
0000
0000
1000
0000
0100
0000
1000
0000
,
0100
0010
0001
0100
0001
1000
0100
0010
0001
0100
0001
1000
0100
0010
0001
0100
,
0001
0010
0100
1000
0010
1000
0001
0010
0100
1000
0010
1000
0001
0010
0100
1000
,
0010
0100
0001
0010
0100
1000
0010
0100
0001
0010
0100
1000
0010
0100
0001
0010
,
0001
0100
0010
1000
0100
0010
0001
0100
0010
1000
0100
0010
0001
0100
0010
1000
,
0010
0100
0001
0010
0001
1000
0010
0100
0001
0010
0001
1000
0010
0100
0001
0010
,
0001
0100
0010
1000
0100
1000
0001
0100
0010
1000
0100
1000
0001
0100
0010
1000
,
0100
0010
0001
0100
0010
1000
0100
0010
0001
0100
0010
1000
0100
0010
0001
0100
,
0001
0010
0100
1000
0010
0100
0010
1000
0100
0010
0001
0100
0010
0100
0001
0010
,
0001
0000
0100
0010
1000
0000
0010
0100
0001
0000
0010
0100
1000
0000
0010
1000
,
0001
0000
0100
0010
1000
0000
0100
0010
0001
0000
0100
0001
1000
0000
0100
0010
,
0001
0000
0100
0010
1000
0000
0100
1000
0001
0000
0100
0001
1000
0000
0100
0010
,
0001
0000
0100
0010
1000
0000
0100
0010
0001
0000
0100
0001
1000
0000
1000
0000
,
0001
0000
0010
0100
1000
0000
0100
0010
0001
0000
0100
0010
1000
0000
0100
1000
,
0001
0000
0010
0100
1000
0000
0010
0100
0001
0000
0010
0001
1000
0000
0010
0100
,
0001
0000
0010
0100
1000
0000
0010
1000
0001
0000
0010
0001
1000
0000
0010
0100
,
0001
0000
0010
0100
1000
0000
0010
0100
0001
0000
0010
0001
1000
0000
0001
1000
,
0010
0100
0001
0100
0010
1000
0001
1000
0100
0010
0100
1000
0001
0100
0001
1000
,
0100
0010
0001
1000
0010
1000
0001
0010
0001
1000
0100
1000
0001
0100
0010
1000
,
0010
0100
0001
1000
0001
0100
0010
1000
0001
0010
0100
1000
0100
0010
0001
1000
,
0010
1000
0001
0100
0010
1000
0001
0010
0100
1000
0100
0010
0100
1000
0010
1000
,
0001
0010
0100
1000
0001
0010
0001
1000
0010
0100
0001
0100
0010
1000
0001
1000
,
0100
0010
0100
1000
0001
0100
0001
1000
0100
0010
0001
1000
0010
0100
0001
0100
,
0010
1000
0001
1000
0100
0010
0001
1000
0001
0010
0100
0010
0001
1000
0100
1000
,
0010
0100
0001
0010
0001
0100
0010
1000
0100
0010
0100
1000
0010
0100
0001
0010
,
0100
1000
0100
1000
0010
0100
0001
0100
0010
1000
0001
1000
0100
0010
0001
1000
,
0010
0100
0010
0100
0001
0010
0100
0010
0001
1000
0100
1000
0001
0100
0001
1000
,
0100
0010
0100
0010
0001
0100
0001
1000
0100
1000
0001
0100
0001
1000
0010
1000
,
0100
0010
0100
0010
0001
1000
0100
1000
0010
1000
0001
1000
0010
1000
0100
1000
,
0010
0100
0010
0100
0001
0010
0100
1000
0001
0010
0001
1000
0010
0100
0010
1000
,
0100
1000
0100
1000
0010
0100
0001
0100
0010
1000
0001
0100
0001
1000
0100
0010
,
0001
0100
0001
0100
0001
0010
0100
1000
0100
0010
0001
1000
0001
0100
0010
1000
,
0001
0010
0100
1000
0001
0010
0001
1000
0010
0100
0010
1000
0001
0100
0001
1000
,
0010
0100
0010
0100
0001
0010
0100
0010
0001
1000
0001
0100
0010
0100
0001
1000
,
0100
0010
0100
0010
0001
0100
0010
1000
0001
0100
0010
0100
0001
1000
0100
0010
,
0001
0100
0001
0100
0001
0010
0100
1000
0001
1000
0100
0010
0001
1000
0100
1000
,
0010
0100
0010
0100
0001
0010
0100
1000
0010
1000
0001
1000
0100
1000
0010
1000
,
0100
0010
0100
0010
0001
0100
0010
0100
0001
1000
0100
0010
0001
0010
0100
1000
,
0010
0100
0010
0100
0001
0010
0100
1000
0001
1000
0100
0010
0001
1000
0010
0100
,
0001
0010
0001
0010
0001
0100
0010
1000
0010
0100
0001
1000
0001
0010
0100
1000
,
0001
0100
0010
1000
0001
0100
0001
1000
0100
0010
0100
1000
0001
0010
0001
1000
,
0010
0100
0010
1000
0001
0100
0001
1000
0100
0010
0100
1000
0001
0010
0001
1000
,
0010
0100
0010
1000
0001
0100
0001
1000
0100
0010
0100
1000
0001
0010
0001
1000
,
0010
0100
0010
0100
0001
0010
0001
0010
0100
1000
0100
1000
0010
0100
0010
0100
,
0001
0010
0001
0010
0001
0100
0001
0100
0010
1000
0010
1000
0100
1000
0100
1000
,
0010
0100
0010
0100
0001
0010
0001
0010
0100
1000
0100
1000
0010
0100
0010
0100
,
0001
0010
0001
1000
0001
0010
0001
1000
0001
0100
0010
1000
0100
0010
0001
1000
,
0010
0100
0010
0100
0001
0010
0001
0010
0100
1000
0100
1000
0010
0100
0010
0100
,
0001
0010
0001
0010
0001
0100
0001
0100
0010
1000
0010
1000
0100
1000
0100
1000
,
0010
0100
0010
0100
0001
0010
0001
0010
0100
1000
0100
1000
0010
1000
0010
1000
,
0100
0010
0001
0010
0100
0010
0001
0010
0100
1000
0010
0100
0010
1000
0010
0100
,
0001
0010
0001
0010
0100
1000
0100
1000
0010
0100
0010
0100
0001
0010
0001
0010
,
0001
0100
0001
0100
0010
1000
0010
1000
0100
1000
0100
1000
0010
0100
0010
0100
,
0001
0010
0001
0010
0100
1000
0100
1000
0010
1000
0010
1000
0001
0100
0001
0100
,
0001
0010
0100
0010
0001
0010
0100
0010
0001
0100
0010
0100
0001
0100
0010
0100
,
0001
0010
0001
0010
0001
0100
0001
0100
0010
1000
0010
1000
0100
1000
0100
1000
,
0001
0010
0001
0010
0001
0100
0001
0100
0010
1000
0010
1000
0100
1000
0100
1000
,
0010
0100
0010
0100
0001
0010
0001
0010
0100
1000
0100
1000
0010
1000
0010
1000
,
0001
0100
0001
0100
0001
0010
0001
0010
0100
1000
0100
1000
0010
0100
0010
0100
,
0001
0010
0100
1000
0010
1000
0001
0010
0100
1000
0010
1000
0001
0010
0100
1000
,
0010
0100
0001
0010
0001
1000
0010
0100
0001
0010
0001
1000
0010
0100
0001
0010
,
0001
0100
0010
1000
0100
0010
0001
0100
0010
1000
0100
0010
0001
0100
0010
1000
,
0001
0010
0100
1000
0010
0100
0001
0010
0100
1000
0010
0100
0001
0010
0100
1000
,
0001
0100
0010
1000
0100
1000
0001
0100
0010
1000
0100
1000
0001
0100
0010
1000
,
0100
0010
0001
0100
0001
1000
0100
0010
0001
0100
0001
1000
0100
0010
0001
0100
,
0001
0010
0100
1000
0010
0100
0001
0010
0100
1000
0010
0100
0001
0010
0100
1000
,
0001
0000
0000
0100
0000
0000
0010
0000
0000
1000
0000
0000
0100
0000
0000
0010
0000
0000
0001
0000
0000
0100
0000
0000
0010
0000
0000
1000
0000
0000
0100
0000
0000
0010
0000
0000
0001
0000
0000
0100
0000
0000
0010
0000
1000
0000
0010
0000
,
1000
0010
0100
0001
0010
0001
1000
0010
0100
0001
0010
0001
1000
0010
0100
0001
,
0010
0100
1000
0010
1000
0001
0010
0100
1000
0010
1000
0001
0010
0100
1000
0010
,
1000
0100
0010
0001
0100
0010
1000
0100
0010
0001
0100
0010
1000
0100
0010
0001
,
1000
0010
0100
0001
0010
0100
1000
0010
0100
0001
0010
0100
1000
0010
0100
0001
,
1000
0100
0010
0001
0100
0001
1000
0100
0010
0001
0100
0001
1000
0100
0010
0001
,
0100
0010
1000
0100
1000
0001
0100
0010
1000
0100
1000
0001
0100
0010
1000
0100
,
1000
0010
0100
0001
0010
0100
1000
0010
0100
0001
0010
0100
1000
0010
0100
0001
,
1000
0100
0010
0001
0100
0010
1000
0100
0010
0001
0100
0010
1000
0100
0010
0001
,
0010
0100
1000
0001
0010
0001
1000
0100
1000
0010
0100
0001
1000
0100
0010
0001
,
0100
0010
1000
0001
0100
0001
1000
0010
1000
0100
0010
0001
1000
0010
0100
0001
,
1000
0100
0010
0100
1000
0001
0010
0100
1000
0010
0100
0001
1000
0001
0010
0100
,
1000
0010
1000
0001
0100
0010
1000
0010
0100
0001
0010
0100
1000
0001
0100
0010
,
1000
0100
0010
0001
1000
0100
0010
0100
1000
0010
0100
0010
1000
0001
0010
0100
,
1000
0010
0100
0010
1000
0001
0100
0001
0010
0100
1000
0001
1000
0010
0100
0001
,
0010
0100
0010
0001
1000
0100
0010
0001
0100
0010
1000
0001
1000
0100
0010
0100
,
1000
0010
1000
0001
0100
0010
0100
0001
0010
0100
1000
0001
1000
0010
0100
0001
,
0010
0100
1000
0001
1000
0100
0010
0001
0100
0010
0100
0001
1000
0100
0010
0001
,
0100
0010
1000
0001
0100
0001
1000
0010
1000
0100
0010
0001
1000
0010
0100
0001
,
0010
0100
1000
0001
0010
0001
1000
0100
1000
0010
0100
0001
1000
0100
0010
0001
,
1000
0010
0100
0010
1000
0001
0100
0010
1000
0100
0010
0001
1000
0001
0100
0010
,
1000
0100
1000
0001
0010
0100
1000
0100
0010
0001
0100
0010
1000
0001
0010
0100
,
1000
0010
0100
0001
1000
0010
0100
0010
1000
0100
0010
0100
1000
0001
0100
0010
,
1000
0100
0010
0100
1000
0001
0010
0001
0100
0010
1000
0001
1000
0100
0010
0001
,
0100
0010
0100
0001
1000
0010
0100
0001
0010
0100
1000
0001
1000
0010
0100
0010
,
1000
0100
0010
0001
1000
0010
1000
0001
0010
0001
0100
0001
1000
0010
0100
0001
,
1000
0100
0010
0001
1000
0010
0100
0001
1000
0100
1000
0010
0100
0001
1000
0010
,
1000
0100
0010
0100
1000
0001
0100
0001
1000
0100
1000
0010
1000
0001
0100
0010
,
1000
0100
0010
0001
1000
0010
1000
0001
0100
0001
1000
0001
0100
0001
0010
0001
,
0100
0010
1000
0001
0010
0001
1000
0010
0100
0001
0010
0001
1000
0100
0010
0001
,
1000
0010
0100
0010
1000
0001
0010
0001
1000
0010
1000
0100
1000
0001
0010
0100
,
1000
0010
0100
0001
1000
0100
1000
0001
0100
0001
0010
0100
1000
0001
0010
0001
,
1000
0010
1000
0001
0010
0100
1000
0001
0100
0001
0010
0100
1000
0001
0010
0001
,
1000
0010
1000
0001
0010
0100
0010
0001
1000
0010
1000
0100
0010
0001
1000
0100
,
1000
0001
0100
0010
1000
0001
0010
0100
1000
0010
0100
0001
0010
0001
0100
0010
,
1000
0100
1000
0100
0010
0001
0010
0001
0100
0010
0100
0010
1000
0100
1000
0100
,
1000
0010
1000
0010
0100
0001
0100
0001
0010
0001
0010
0001
0100
0010
0100
0010
,
1000
0100
1000
0100
0010
0001
0010
0001
0100
0010
0100
0010
1000
0100
1000
0100
,
0010
0001
0100
0001
1000
0001
0100
0001
1000
0100
0010
0001
0100
0010
1000
0001
,
0010
0100
0010
0100
1000
0010
1000
0010
0100
0001
0100
0001
0010
0100
0010
0100
,
1000
0010
1000
0010
1000
0100
1000
0100
0010
0001
0010
0001
0100
0001
0100
0001
,
0010
0100
0010
0100
1000
0010
1000
0010
0100
0001
0100
0001
0010
0001
0010
0001
,
0100
0010
1000
0010
0100
0010
1000
0010
0100
0001
0010
0100
0010
0001
0010
0100
,
1000
0010
1000
0010
0100
0001
0100
0001
0010
0100
0010
0100
1000
0010
1000
0010
,
1000
0100
1000
0100
0010
0001
0010
0001
0100
0001
0100
0001
0010
0100
0010
0100
,
1000
0010
1000
0010
0100
0001
0100
0001
0010
0001
0010
0001
1000
0100
1000
0100
,
1000
0010
0100
0010
1000
0010
0100
0010
1000
0100
0010
0100
1000
0010
0100
0001
,
0010
0100
0010
0100
1000
0010
1000
0010
0100
0001
0100
0001
0010
0100
0010
0100
,
1000
0010
1000
0010
0100
0001
0100
0001
0010
0001
0010
0001
0100
0010
0100
0010
,
1000
0100
1000
0100
0010
0001
0010
0001
0100
0001
0100
0001
1000
0010
1000
0010
,
1000
0100
0010
0100
1000
0100
0010
0100
1000
0010
0100
0010
1000
0010
0100
0001
,
0010
0100
0010
0100
1000
0010
1000
0010
1000
0100
1000
0100
0010
0001
0010
0001
,
0100
0001
0100
0001
0010
0100
0010
0100
1000
0010
1000
0010
0100
0001
0100
0001
,
0010
0100
0010
0100
1000
0010
1000
0010
0100
0001
0100
0001
0010
0100
0010
0100
,
1000
0010
0100
0001
0100
0010
0100
0001
0010
0100
0010
0001
0010
0100
0010
0001
,
0100
0010
0100
0010
1000
0100
1000
0100
0010
0001
0010
0001
0100
0010
0100
0010
,
1000
0100
1000
0100
1000
0010
1000
0010
0100
0001
0100
0001
0010
0001
0010
0001
,
0100
0010
0100
0010
1000
0100
1000
0100
0010
0001
0010
0001
0100
0001
0100
0001
,
1000
0010
1000
0010
1000
0100
1000
0100
0010
0001
0010
0001
0100
0010
0100
0010
,
1000
0010
0100
0001
0010
0001
1000
0010
0100
0010
1000
0100
1000
0001
0100
0001
,
1000
0010
0100
0001
0010
0001
1000
0010
0100
0010
1000
0100
1000
0001
1000
0010
,
1000
0100
0010
0001
0100
0001
1000
0100
0010
0100
1000
0010
1000
0001
0010
0001
,
1000
0100
0010
0001
0100
0001
1000
0100
0010
0100
1000
0010
1000
0001
1000
0100
,
1000
0010
0100
0010
1000
0100
1000
0001
0100
0010
1000
0100
1000
0010
0100
0001
,
1000
0010
0100
0010
1000
0100
1000
0001
0100
0010
1000
0100
1000
0001
1000
0010
,
1000
0100
0010
0100
1000
0010
1000
0001
0010
0100
1000
0010
1000
0100
0010
0001
,
1000
0100
0010
0100
1000
0010
1000
0001
0010
0100
1000
0010
1000
0001
1000
0100
,
1000
0010
0100
0001
0010
0001
0100
0010
0100
0001
0010
0100
1000
0010
0100
0010
,
1000
0010
0100
0001
0010
0001
0100
0010
0100
0001
1000
0001
0010
0001
0100
0001
,
0010
0100
0010
0001
0100
0001
1000
0100
0010
0100
1000
0010
1000
0100
0010
0001
,
0010
0100
0010
0001
0100
0001
1000
0100
0010
0100
1000
0001
0100
0001
0010
0001
,
0100
0010
0100
0001
0010
0001
0100
0010
0100
0001
1000
0010
1000
0100
0010
0001
,
0100
0010
0100
0001
0010
0001
0100
0010
1000
0010
0100
0010
1000
0100
1000
0010
,
1000
0001
0010
0100
1000
0010
1000
0001
0010
0100
1000
0010
1000
0100
0010
0001
,
0100
0010
1000
0001
0100
0001
0010
0001
0100
0010
1000
0100
0010
0001
0100
0010
,
1000
0100
0010
0100
1000
0010
0100
0010
1000
0001
0100
0010
1000
0100
0010
0100
,
1000
0010
0100
0001
0010
0100
0010
0001
1000
0100
0010
0001
0100
0010
0100
0001
,
0010
0100
0010
0001
0100
0010
1000
0010
0100
0001
1000
0010
1000
0100
0010
0001
,
0100
0001
1000
0010
1000
0100
0010
0001
1000
0001
0010
0100
0010
0001
0100
0001
,
1000
0010
0100
0010
1000
0100
0010
0100
1000
0001
0010
0100
1000
0010
0100
0010
,
1000
0100
0010
0001
0100
0010
0100
0001
1000
0010
0100
0001
0010
0100
0010
0001
,
0100
0010
0100
0001
0010
0100
1000
0100
0010
0001
1000
0100
1000
0010
0100
0001
,
0010
0001
1000
0100
1000
0010
0100
0001
1000
0001
0100
0010
0100
0001
0010
0001
,
1000
0100
0010
0001
0100
0010
1000
0001
0100
0001
1000
0010
1000
0100
0010
0001
,
0100
0001
1000
0010
1000
0100
0010
0001
1000
0100
1000
0010
0100
0010
1000
0100
,
0010
0100
1000
0010
0100
0001
0100
0010
1000
0010
0100
0001
0010
0100
1000
0010
,
0100
0010
1000
0100
1000
0001
0010
0100
1000
0100
0010
0100
1000
0010
1000
0001
,
1000
0010
0100
0001
0010
0100
1000
0001
0010
0001
1000
0100
1000
0010
0100
0001
,
0010
0001
1000
0100
1000
0010
0100
0001
1000
0010
1000
0100
0010
0100
1000
0010
,
0100
0010
1000
0100
0010
0001
0010
0100
1000
0100
0010
0001
0100
0010
1000
0100
,
0010
0000
0100
1000
0010
0000
0100
0001
0010
0000
0100
1000
0010
0000
0100
0001
,
1000
0000
0000
0000
,
0000
0000
0000
0000
,
00MM
0000
0000
0000
;

//---------------dance-single - 15+ (@@TYLR)----------------
#NOTES:
     dance-single:
     15+ (@@TYLR):
     Medium:
     15:
     1.000,1.000,0.088,0.098,1.000,2722.000,25.000,28.000,0.000,0.000:
0000
0000
0000
0000
,
0000
0000
0000
0000
,
0000
0000
0000
0000
,
0000
0000
0000
0000
,
0000
0000
0000
0000
,
0000
0000
0000
0000
,
0000
0000
0000
0000
,
0000
0000
0000
0000
,
1001
0001
0010
0001
0100
0010
1000
0010
,
0100
0001
0010
0100
1000
0001
0100
0010
,
1000
0100
0010
0100
1000
0001
0100
0001
,
1000
0100
0010
0001
1000
0010
0100
0100
,
0001
0100
0010
0100
0001
1000
0100
1000
,
0001
0100
0010
1000
0001
0010
0100
1000
,
0001
1000
0001
1000
0100
0010
0001
1000
0001
0010
0001
1000
0001
0100
0010
1000
,
0100
0010
0100
1000
0010
0100
0001
0010
0100
1000
0100
0010
0001
0100
0010
1000
,
0002
0000
1003
0100
1000
0000
0001
0010
0001
0000
1000
0010
1000
0000
0001
0100
,
0001
0000
0010
0100
0010
0000
0001
0010
0001
0000
1000
0010
1000
0000
0100
0010
,
0001
0000
1000
0001
1000
0000
0010
0100
0010
0000
0100
0001
0100
0000
0001
0010
,
0100
0000
1000
0001
1000
0000
0001
0100
0001
0000
1000
0010
1000
0000
0001
0000
,
0001
0000
0010
0001
0010
0000
0100
1000
0100
0000
1000
0001
1000
0000
0001
0100
,
0010
0000
1000
0010
1000
0000
0001
1000
0001
0000
0010
0001
0010
0000
0100
1000
,
0001
0000
0100
0001
0100
0000
0010
1000
0010
0000
1000
0001
1000
0000
0001
1000
,
0100
0000
0010
0001
0010
0000
0001
1000
0001
0000
1000
0010
1000
0000
0001
0000
,
1002
0000
1003
0001
0010
0000
0100
1000
0100
0000
0010
0001
0100
0000
0001
1000
,
0001
0000
0100
0001
0010
0000
0100
1000
0100
0000
1000
0100
0010
0000
0001
1000
,
0010
0000
1000
0100
0010
0000
0001
1000
0001
0000
0100
0010
1000
0000
0001
1000
,
0001
0000
0010
0100
1000
0000
0001
0100
0001
0000
1000
0100
0010
0000
0001
0000
,
0001
0000
1000
0010
0100
0000
0001
0100
0001
0000
0010
0100
1000
0000
0001
1000
,
0001
0000
0100
0010
1000
0000
0001
0010
0001
0000
1000
0010
1000
0000
0100
0010
,
0001
0000
0100
0010
1000
0000
0001
1000
0001
0000
0010
0100
1000
0000
0100
1000
,
0100
0000
0000
0000
0000
0000
0010
0000
0000
0001
0000
0000
0100
0000
0000
0000
0000
0000
0001
0000
0000
0100
0000
0000
0001
0000
0000
0000
0000
0000
1000
0000
0000
0010
0000
0000
1000
0000
0000
0000
0000
0000
0001
0000
1000
0000
0001
0000
,
2000
0000
3001
0010
0001
0000
1000
0100
1000
0000
0001
0100
0001
0000
1000
0010
,
1000
0000
0100
0010
0100
0000
1000
0100
1000
0000
0001
0100
0001
0000
0010
0100
,
1000
0000
0001
1000
0001
0000
0100
0010
0100
0000
0010
1000
0010
0000
1000
0100
,
0010
0000
0001
1000
0001
0000
1000
0010
1000
0000
0001
0100
0001
0000
1000
0000
,
1000
0000
0100
1000
0100
0000
0010
0001
0010
0000
0001
1000
0001
0000
1000
0010
,
0100
0000
0001
0100
0001
0000
1000
0001
1000
0000
0100
1000
0100
0000
0010
0001
,
1000
0000
0010
1000
0010
0000
0100
0001
0100
0000
0001
1000
0001
0000
1000
0001
,
0010
0000
0100
1000
0100
0000
1000
0001
1000
0000
0001
0100
0001
0000
1000
0000
,
0001
0010
0100
1000
0001
1000
0100
0010
0100
1000
0001
1000
0010
0100
0001
1000
,
0001
0010
0100
1000
0001
1000
0100
0010
0001
1000
0010
0100
0001
1000
0100
0010
,
0001
0010
0100
1000
0001
1000
0100
0010
0100
1000
0001
1000
0010
0100
0001
1000
,
0001
0010
0100
1000
0001
1000
0100
0010
0001
1000
0010
1000
0001
0100
0010
1000
,
0100
0010
0100
1000
0010
1000
0100
0010
0001
0010
0100
0010
0001
0100
0010
1000
,
0100
0010
0100
1000
0010
1000
0100
0010
0001
0010
0100
0010
0001
0100
0001
0010
,
0001
1000
0010
0100
0001
0010
0001
1000
0100
0010
0001
0100
0001
0010
0100
1000
,
0010
0100
0001
0010
0100
0010
0001
0100
0010
1000
0100
0010
0100
1000
0010
0100
,
0002
0003
0000
0000
0000
0000
0002
0003
0000
0000
0000
0000
0000
0000
0000
0000
,
0200
0300
0000
0000
0000
0000
0200
0300
0000
0000
0000
0000
0000
0000
0000
0000
,
0020
0030
0000
0000
0000
0000
0020
0030
0000
0000
0000
0000
0000
0000
0000
0000
,
2000
3000
0000
0000
0000
0000
2000
3000
0000
0000
0000
0000
0200
0300
0000
0000
,
0020
0030
0000
0000
0000
0000
0020
0030
0000
0000
0000
0000
0000
0000
0000
0000
,
0200
0300
0000
0000
0000
0000
0200
0300
0000
0000
0000
0000
0000
0000
0000
0000
,
2000
3000
0000
0000
0000
0000
2000
3000
0000
0000
0000
0000
0000
0000
0000
0000
,
0002
0003
0000
0000
0000
0000
0002
0003
0000
0000
0000
0000
1000
0001
1000
0001
,
0010
0100
1000
0001
1000
0001
0010
0100
1000
0001
1000
0001
0010
0100
1000
0001
,
1000
0010
0100
0001
0100
0001
1000
0010
0100
0001
0100
0001
1000
0010
0100
0001
,
0100
0010
1000
0001
1000
0001
0100
0010
1000
0001
1000
0001
0100
0010
1000
0001
,
1000
0100
0010
0001
0010
0001
1000
0100
0010
0001
0010
0001
1000
0010
0100
0001
,
0010
0100
1000
0001
1000
0001
0010
0100
1000
0001
1000
0001
0010
0100
1000
0001
,
1000
0010
0100
0001
0100
0001
1000
0010
0100
0001
0100
0001
1000
0010
0100
0001
,
0100
0010
1000
0001
1000
0001
0100
0010
1000
0001
1000
0001
0100
0010
1000
0001
,
1000
0000
0000
0100
0000
0000
0010
0000
0000
0001
0000
0000
0010
0000
0000
0001
0000
0000
1000
0000
0000
0100
0000
0000
0010
0000
0000
0001
0000
0000
0010
0000
0000
0001
0000
0000
1000
0000
0000
0000
0000
0000
0001
0000
1000
0000
0001
0000
,
1000
0100
0010
0001
0010
0001
1000
0100
0010
0001
0010
0001
1000
0100
0010
0001
,
1000
0010
0100
0001
0100
0001
1000
0010
0100
0001
0100
0001
1000
0010
0100
0001
,
0100
0010
1000
0001
1000
0001
0100
0010
1000
0001
1000
0001
0100
0010
1000
0001
,
1000
0100
0010
0001
1000
0001
1000
0100
0010
0001
1000
0001
1000
0100
0010
0001
,
0100
0010
1000
0100
1000
0001
0100
0010
1000
0100
1000
0001
0100
0010
1000
0100
,
1000
0010
0100
0001
0010
0001
1000
0010
0100
0001
0010
0001
1000
0010
0100
0001
,
0010
0100
1000
0010
0100
0001
0010
0100
1000
0010
0100
0001
0010
0100
1000
0010
,
1000
0100
0010
0001
0100
0010
0100
0001
0010
0100
1000
0010
0100
0010
1000
0100
,
1000
0000
0001
0100
0001
0000
1000
0001
1000
0000
0100
0010
0100
0000
0010
0001
,
0010
0000
0001
0100
0001
0000
1000
0010
1000
0000
0001
1000
0001
0000
0010
0100
,
1000
0000
0100
0010
0100
0000
0010
0001
0010
0000
0001
1000
0001
0000
0100
0001
,
0100
0000
0010
1000
0010
0000
0100
0001
0100
0000
0001
1000
0100
0000
0100
0000
,
1000
0000
0001
0010
0001
0000
1000
0001
1000
0000
0001
0100
0001
0000
1000
0100
,
1000
0000
0001
0010
0001
0000
0010
0100
0010
0000
0001
0010
0001
0000
0100
0001
,
0100
0000
0010
1000
0010
0000
0100
0001
0100
0000
0001
1000
0001
0000
1000
0100
,
1000
0000
0001
0010
0001
0000
0100
0001
0100
0000
0010
0000
0010
0000
1000
0001
,
0010
0000
0100
1000
0001
0000
0100
0001
1000
0000
0010
0100
0001
0000
1000
0100
,
0010
0000
0001
0100
0001
0000
1000
0010
0100
0000
0001
1000
0100
0000
0010
0001
,
0100
0000
0010
1000
0001
0000
1000
0010
0100
0000
0001
1000
0100
0000
0010
0001
,
0100
0000
0001
1000
0100
0000
0010
0001
1000
0000
0001
0100
0010
0000
1000
0000
,
1000
0000
0001
1000
0100
0000
1000
0001
0010
0000
0001
1000
0010
0000
0100
0001
,
1000
0000
0100
0010
0100
0000
1000
0001
0100
0000
0001
1000
0010
0000
0100
0001
,
0010
0000
0001
1000
0010
0000
0100
0001
1000
0000
0001
0100
0010
0000
1000
0001
,
0010
0000
0000
0000
0200
0300
0000
0000
2000
3000
0000
0000
0020
0030
0000
0000
,
1000
0010
0100
0001
1000
0010
1000
0010
0100
0001
1000
0001
0010
0100
1000
0001
,
0100
0010
0100
0010
1000
0100
0010
0100
1000
0001
0010
0001
1000
0010
1000
0001
,
0010
0100
0010
0100
1000
0010
1000
0001
0010
0001
1000
0010
1000
0001
0100
0001
,
0010
0100
0010
0100
1000
0001
0010
0001
0100
0001
1000
0001
0100
0001
0010
0001
,
0100
0010
0100
0010
1000
0100
0010
0001
1000
0100
1000
0001
0100
0010
0100
0001
,
0010
0001
0010
0001
0100
0010
1000
0010
0100
0001
1000
0010
1000
0001
0010
0100
,
1000
0010
1000
0010
1000
0100
0010
0001
0010
0100
1000
0001
1000
0010
0100
0001
,
1000
0100
0010
0001
1000
0100
1000
0001
0100
0010
0100
0001
1000
0010
1000
0001
,
0100
0010
0100
0010
1000
0100
0010
0100
1000
0001
1000
0010
0100
0010
1000
0001
,
0010
0100
0010
0100
1000
0010
0100
0001
1000
0010
0100
0010
1000
0001
0010
0100
,
1000
0010
1000
0010
1000
0100
0010
0001
1000
0001
0010
0100
1000
0001
0010
0001
,
0100
0010
0100
0010
1000
0100
0010
0001
0100
0001
1000
0001
0010
0001
0100
0001
,
0010
0100
0010
0100
1000
0010
0100
0010
1000
0001
0010
0100
1000
0100
0010
0001
,
0100
0010
0100
0010
1000
0100
0010
0001
1000
0001
0010
0100
1000
0001
0100
0010
,
1000
0100
1000
0100
1000
0010
0100
0001
0100
0010
1000
0001
1000
0100
0010
0001
,
1000
0010
0100
0001
1000
0010
1000
0001
0010
0100
0010
0001
1000
0100
1000
0001
,
0100
0010
0100
0001
1000
0010
1000
0001
0010
0100
0010
0001
1000
0100
1000
0001
,
0100
0010
0100
0001
1000
0010
1000
0001
0010
0100
0010
0001
1000
0100
1000
0001
,
0100
0010
0100
0010
1000
0100
1000
0100
0010
0001
0010
0001
0100
0010
0100
0010
,
1000
0100
1000
0100
1000
0010
1000
0010
0100
0001
0100
0001
0010
0001
0010
0001
,
0100
0010
0100
0010
1000
0100
1000
0100
0010
0001
0010
0001
0100
0010
0100
0010
,
1000
0100
1000
0001
1000
0100
1000
0001
1000
0010
0100
0001
0010
0100
1000
0001
,
0100
0010
0100
0010
1000
0100
1000
0100
0010
0001
0010
0001
0100
0010
0100
0010
,
1000
0100
1000
0100
1000
0010
1000
0010
0100
0001
0100
0001
0010
0001
0010
0001
,
0100
0010
0100
0010
1000
0100
1000
0100
0010
0001
0010
0001
0100
0001
0100
0001
,
0010
0100
1000
0100
0010
0100
1000
0100
0010
0001
0100
0010
0100
0001
0100
0010
,
1000
0100
1000
0100
0010
0001
0010
0001
0100
0010
0100
0010
1000
0100
1000
0100
,
1000
0010
1000
0010
0100
0001
0100
0001
0010
0001
0010
0001
0100
0010
0100
0010
,
1000
0100
1000
0100
0010
0001
0010
0001
0100
0001
0100
0001
1000
0010
1000
0010
,
1000
0100
0010
0100
1000
0100
0010
0100
1000
0010
0100
0010
1000
0010
0100
0010
,
1000
0100
1000
0100
1000
0010
1000
0010
0100
0001
0100
0001
0010
0001
0010
0001
,
1000
0100
1000
0100
1000
0010
1000
0010
0100
0001
0100
0001
0010
0001
0010
0001
,
0100
0010
0100
0010
1000
0100
1000
0100
0010
0001
0010
0001
0100
0001
0100
0001
,
1000
0010
1000
0010
1000
0100
1000
0100
0010
0001
0010
0001
0100
0010
0100
0010
,
1000
0000
0001
0010
0001
0000
1000
0000
0001
0010
0001
0000
1000
0000
0001
0010
,
0100
0000
1000
0001
1000
0000
0100
0000
1000
0001
1000
0000
0100
0000
1000
0001
,
0100
0000
0010
1000
0010
0000
0100
0000
0010
1000
0010
0000
0100
0000
0010
0000
,
0100
0000
0001
1000
0001
0000
0100
0000
0001
1000
0001
0000
0010
0000
0010
0000
,
0100
0000
1000
0001
1000
0000
0100
0000
1000
0001
1000
0000
0100
0000
1000
0001
,
0100
0000
0010
1000
0010
0000
0100
0000
0010
1000
0010
0000
0100
0000
0010
1000
,
0001
0000
1000
0100
1000
0000
0001
0000
1000
0100
1000
0000
0001
0000
1000
0000
,
0001
0000
0000
0000
0000
0000
0010
0000
0000
0100
0000
0000
0010
0000
0000
0000
0000
0000
0001
0000
0000
0000
0000
0000
0010
0000
0000
0100
0000
0000
1000
0000
0000
0001
0000
0000
1000
0000
0000
0000
0000
0000
0001
0000
1000
0000
0001
0000
,
1000
0100
0010
0001
0010
0001
1000
0100
0010
0001
0010
0001
1000
0100
0010
0001
,
1000
0010
0100
0001
0100
0001
1000
0010
0100
0001
0100
0001
1000
0010
0100
0001
,
0100
0010
1000
0001
1000
0001
0100
0010
1000
0001
1000
0001
0100
0010
1000
0001
,
1000
0100
0010
0001
1000
0001
1000
0100
0010
0001
1000
0001
1000
0010
0100
0001
,
1000
0100
0010
0001
0010
0001
1000
0100
0010
0001
0010
0001
1000
0100
0010
0001
,
1000
0010
0100
0001
0100
0001
1000
0010
0100
0001
0100
0001
1000
0010
0100
0001
,
0010
0100
1000
0001
1000
0001
0010
0100
1000
0001
1000
0001
0010
0100
0010
0001
,
0010
0100
1000
0001
1000
0001
0010
0100
1000
0001
1000
0001
0100
0010
1000
0001
,
1000
0100
0010
0000
0001
0010
0000
0001
0010
0000
0001
0010
0000
0001
0010
0000
,
0100
1000
0010
0000
1000
0010
0000
1000
0010
0000
1000
0010
0000
1000
0010
0000
,
0100
0001
0010
0000
0001
0010
0000
0001
0010
0000
0001
0010
0000
0001
0010
0000
,
0100
1000
0010
0000
1000
0010
0000
1000
0010
0000
1000
0010
0000
1000
0010
0000
,
0100
0001
0010
0000
0100
0010
0000
0100
0010
0000
0100
0010
0000
0100
0010
0000
,
0100
1000
0001
0000
1000
0001
0000
1000
0001
0000
1000
0001
0000
1000
0001
0000
,
0100
0010
1000
0000
0010
1000
0000
0010
1000
0000
0010
1000
0000
0010
1000
0000
,
0001
0010
0100
0000
0010
0100
0000
0010
0100
0000
0010
0100
0000
0010
0100
0000
,
1000
0001
0100
0000
0001
0100
0000
0001
0100
0000
0001
0100
0000
0001
0100
0000
,
0010
1000
0100
0000
1000
0100
0000
1000
0100
0000
1000
0100
0000
1000
0100
0000
,
0010
0001
0100
0000
0001
0100
0000
0001
0100
0000
0001
0100
0000
0001
0100
0000
,
0010
1000
0100
0000
1000
0100
0000
1000
0100
0000
1000
0100
0000
1000
0100
0000
,
0010
0001
0100
0000
0010
0100
0000
0010
0100
0000
0010
0100
0000
0010
0100
0000
,
0010
1000
0001
0000
1000
0001
0000
1000
0001
0000
1000
0001
0000
1000
0001
0000
,
0010
0100
1000
0000
0100
1000
0000
0100
1000
0000
0100
1000
0000
0100
1000
0000
,
0001
0100
0010
0000
0100
0010
0000
0100
0010
0000
0100
0001
0020
0000
0000
0000
,
0031
1000
1010
0010
1000
0001
0011
0010
,
0100
1000
1001
0001
0100
0001
1001
1000
,
0100
0010
0011
0001
0100
0010
1010
1000
,
0100
0010
0110
0100
1000
0010
0110
0100
,
0001
1000
1100
0100
1000
0001
0101
0100
,
0001
0010
0110
0100
1000
0010
0110
0100
,
0001
1000
1010
0010
1000
0001
0011
0010
,
0100
1000
1001
0001
0100
0001
1001
1000
,
1100
0100
0011
0001
0100
0010
1010
1000
,
0001
0010
0110
0100
1000
0010
0110
0100
,
0001
0100
0001
0100
0010
1000
0010
1000
0100
0010
0100
0010
0001
0100
0001
0100
,
0001
0010
0001
0010
0100
1000
0100
1000
0010
1000
0010
1000
0100
0010
0100
0010
,
0001
0100
0001
0100
0010
1000
0010
1000
0100
0010
0100
0010
0001
0100
0001
0100
,
0010
1000
0100
1000
0001
1000
0100
1000
0001
0100
0010
1000
0100
0010
0001
1000
,
0010
0100
0010
0100
0001
0010
0001
0010
0100
1000
0100
1000
0010
0100
0010
0100
,
0001
0010
0001
0010
0001
0100
0001
0100
0010
1000
0010
1000
0100
1000
0100
1000
,
0010
0100
0010
0100
0001
0010
0001
0010
0100
1000
0100
1000
0010
1000
0010
1000
,
0100
0010
0001
0010
0100
0010
0001
0010
0100
1000
0010
0100
0010
1000
0010
0100
,
0001
0010
0001
0010
0100
1000
0100
1000
0010
0100
0010
0100
0001
0010
0001
0010
,
0001
0100
0001
0100
0010
1000
0010
1000
0100
1000
0100
1000
0010
0100
0010
0100
,
0001
0010
0001
0010
0100
1000
0100
1000
0010
1000
0010
1000
0001
0100
0001
0100
,
0001
0010
0100
0010
0001
0010
0100
0010
0001
0100
0010
0100
0001
0010
0100
1000
,
0010
0100
0010
0100
0001
0010
0001
0010
0100
1000
0100
1000
0010
0100
0010
0100
,
0001
0010
0001
0010
0100
1000
0100
1000
0010
1000
0010
1000
0100
0010
0100
0010
,
0001
0100
0001
0100
0010
1000
0010
1000
0100
1000
0100
1000
0001
0010
0001
0010
,
0001
0100
0010
0100
0001
0100
0010
0100
0001
0010
0100
0010
0001
0010
0100
1000
,
0010
0100
0010
0100
0001
0010
0001
0010
0001
0100
0001
0100
0010
1000
0010
1000
,
0100
1000
0100
1000
0010
0100
0010
0100
0001
0010
0001
0010
0100
1000
0100
1000
,
0010
0100
0010
0100
0001
0010
0001
0010
0100
1000
0100
1000
0010
0100
0010
0100
,
0001
0010
0100
1000
0100
0010
0100
1000
0010
0100
0010
1000
0010
0100
0010
1000
,
0100
0010
0100
0010
0001
0100
0001
0100
0010
1000
0010
1000
0100
0010
0100
0010
,
0001
0100
0001
0100
0001
0010
0001
0010
0100
1000
0100
1000
0010
1000
0010
1000
,
0100
0010
0100
0010
0001
0100
0001
0100
0010
1000
0010
1000
0100
1000
0100
1000
,
0001
0010
0001
0010
0001
0100
0001
0100
0010
1000
0010
1000
0100
0010
0100
0010
,
0002
0000
1003
0100
1000
0000
0001
0010
0001
0000
1000
0010
1000
0000
0001
0100
,
0001
0000
0010
0100
0010
0000
0001
0010
0001
0000
1000
0010
1000
0000
0100
0010
,
0001
0000
1000
0001
1000
0000
0010
0100
0010
0000
0100
0001
0100
0000
0001
0010
,
0100
0000
1000
0001
1000
0000
0001
0100
0001
0000
1000
0010
1000
0000
0001
0000
,
0001
0000
0010
0001
0010
0000
0100
1000
0100
0000
1000
0001
1000
0000
0001
0100
,
0010
0000
1000
0010
1000
0000
0001
1000
0001
0000
0010
0001
0010
0000
0100
1000
,
0001
0000
0100
0001
0100
0000
0010
1000
0010
0000
1000
0001
1000
0000
0001
1000
,
0100
0000
0010
0001
0010
0000
0001
1000
0001
0000
1000
0010
1000
0000
0001
0000
,
1002
0000
1003
0001
0010
0000
0100
1000
0100
0000
0010
0001
0100
0000
0001
1000
,
0001
0000
0100
0001
0010
0000
0100
1000
0100
0000
1000
0100
0010
0000
0001
1000
,
0010
0000
1000
0100
0010
0000
0001
1000
0001
0000
0100
0010
1000
0000
0001
1000
,
0001
0000
0010
0100
1000
0000
0001
0100
0001
0000
1000
0100
0010
0000
0001
0000
,
0001
0000
1000
0010
0100
0000
0001
0100
0001
0000
0010
0100
1000
0000
0001
1000
,
0001
0000
0100
0010
1000
0000
0001
0010
0001
0000
1000
0010
1000
0000
0100
0010
,
0001
0000
0100
0010
1000
0000
0001
1000
0001
0000
0010
0100
1000
0000
0100
1000
,
0100
0000
0010
0000
0001
0000
1000
0000
0001
0100
0001
0100
0010
1000
0010
1000
,
0002
0000
1003
0100
1000
0000
0001
0010
0001
0000
1000
0010
1000
0000
0001
0100
,
0001
0000
0010
0100
0010
0000
0001
0010
0001
0000
1000
0010
1000
0000
0100
0010
,
0001
0000
1000
0001
1000
0000
0010
0100
0010
0000
0100
0001
0100
0000
0001
0010
,
0100
0000
1000
0001
1000
0000
0001
0100
0001
0000
1000
0010
1000
0000
0001
0000
,
0001
0000
0010
0001
0010
0000
0100
1000
0100
0000
1000
0001
1000
0000
0001
0100
,
0010
0000
1000
0010
1000
0000
0001
1000
0001
0000
0010
0001
0010
0000
0100
1000
,
0001
0000
0100
0001
0100
0000
0010
1000
0010
0000
1000
0001
1000
0000
0001
1000
,
0100
0000
0010
0001
0010
0000
0001
1000
0001
0000
1000
0010
1000
0000
0001
0000
,
1002
0000
1003
0001
0010
0000
0100
1000
0100
0000
0010
0001
0100
0000
0001
1000
,
0001
0000
0100
0001
0010
0000
0100
1000
0100
0000
1000
0100
0010
0000
0001
1000
,
0010
0000
1000
0100
0010
0000
0001
1000
0001
0000
0100
0010
1000
0000
0001
1000
,
0001
0000
0010
0100
1000
0000
0001
0100
0001
0000
1000
0100
0010
0000
0001
0000
,
0001
0000
1000
0010
0100
0000
0001
0100
0001
0000
0010
0100
1000
0000
0001
1000
,
0001
0000
0100
0010
1000
0000
0001
0010
0001
0000
1000
0010
1000
0000
0100
0010
,
0001
0000
0100
0010
1000
0000
0001
1000
0001
0000
0010
0100
1000
0000
0100
1000
,
0100
0010
0001
1000
0001
0100
0010
1000
;
