#TITLE:Buzz Steps Get Bass;
#SUBTITLE:;
#ARTIST:DJ Sharpnel;
#TITLETRANSLIT:;
#SUBTITLETRANSLIT:;
#ARTISTTRANSLIT:;
#CREDIT:;
#BANNER:buzz steps get bass bn.png;
#BACKGROUND:buzz steps get bass bg.png;
#LYRICSPATH:;
#CDTITLE:;
#MUSIC:Buzz Steps Get Bass.ogg;
#OFFSET:-1.408;
#SAMPLESTART:22.584;
#SAMPLELENGTH:21.333;
#SELECTABLE:YES;
#BPMS:0.000=180.000;
#STOPS:;
#BGCHANGES:;
// cache tags:
#FIRSTBEAT:32.000;
#LASTBEAT:672.000;
#SONGFILENAME:Songs/SHARPNELSTREAMZ v2/Buzz Steps Get Bass/Buzz Steps Get Bass.sm;
#HASMUSIC:1;
#HASBANNER:1;
#MUSICLENGTH:228.075;
// end cache tags

//---------------dance-single - 14+ (CTalon)----------------
#NOTES:
     dance-single:
     14+ (CTalon):
     Challenge:
     14:
     1.000,1.000,0.254,0.149,1.000,1773.000,58.000,34.000,0.000,0.000:
0000
0000
0000
0000
,
0000
0000
0000
0000
,
0000
0000
0000
0000
,
0000
0000
0000
0000
,
0000
0000
0000
0000
,
0000
0000
0000
0000
,
0000
0000
0000
0000
,
0000
0000
0000
0000
,
0001
0010
0001
1000
0010
0100
0010
1000
,
0001
0010
0100
1000
0100
0010
0001
0100
,
0010
1000
0001
0100
0001
1000
0001
0010
,
0100
0010
0001
0100
0010
0100
0001
0010
,
0100
1000
0001
0100
0010
0100
0001
1000
,
0100
1000
0010
1000
0001
0100
0010
1000
,
0001
0000
0000
0010
0000
0001
1000
0000
0010
0100
0000
0010
1000
0000
0001
0000
,
1000
0100
1000
0001
0100
0001
1000
0100
1000
0000
0001
0000
0400
0000
0000
0000
,
0301
1000
0100
0010
0001
0010
0100
1000
0001
0100
0010
1000
0010
1000
0001
0010
,
0001
0100
0010
1000
0100
0010
0001
1000
0001
1000
0010
0100
0001
0010
0100
1000
,
0001
0010
0001
0100
0010
1000
0100
1000
0010
0100
0001
0010
0001
1000
0001
1000
,
0010
0100
0001
0010
0100
1000
0001
1000
0001
0010
0100
1000
0010
0100
0001
0100
,
0001
1000
0100
1000
0001
0100
0010
0100
0001
1000
0100
1000
0001
0010
0100
1000
,
0100
0010
0001
0100
0010
0100
0010
1000
0100
0010
0001
1000
0001
1000
0010
0100
,
0001
0010
0001
1000
0010
1000
0001
0010
0001
1000
0100
0010
0001
1000
0001
1000
,
0001
0010
0001
0100
0010
0100
0001
0010
0100
1000
0010
0100
0010
1000
0100
1000
,
0001
1000
0100
0010
0001
0010
0100
1000
0001
0100
0010
1000
0010
1000
0001
0010
,
0001
0100
0010
1000
0100
0010
0001
1000
0001
1000
0010
0100
0001
0010
0100
1000
,
0001
0010
0001
0100
0010
1000
0100
1000
0010
0100
0001
0010
0001
1000
0001
1000
,
0010
0100
0001
0010
0100
1000
0001
1000
0001
0010
0100
1000
0010
0100
0001
0100
,
0001
1000
0100
1000
0001
0100
0010
0100
0001
1000
0100
1000
0001
0010
0100
1000
,
0100
0010
0001
0100
0010
0100
0010
1000
0100
0010
0001
1000
0001
1000
0010
0100
,
0001
0010
0001
1000
0010
1000
0001
0010
0001
1000
0100
0010
0001
1000
0001
1000
,
0001
0010
0001
0100
0010
0100
0001
0010
0100
1000
0010
0100
0010
1000
0100
1000
,
0001
1000
0010
0100
0001
0100
0010
1000
0001
0010
0100
1000
0100
1000
0001
0100
,
0001
0010
0100
1000
0010
0100
0001
1000
0001
1000
0100
0010
0001
0100
0010
1000
,
0001
0100
0001
0010
0100
1000
0010
1000
0100
0010
0001
0100
0001
1000
0001
1000
,
0100
0010
0001
0100
0010
1000
0001
1000
0001
0100
0010
1000
0100
0010
0001
0010
,
0001
1000
0010
1000
0001
0010
0100
0010
0001
1000
0010
1000
0001
0100
0010
1000
,
0010
0100
0001
0010
0100
0010
0100
1000
0010
0100
0001
1000
0001
1000
0100
0010
,
0001
0100
0001
1000
0100
1000
0001
0100
0001
1000
0010
0100
0001
1000
0001
1000
,
0001
0100
0001
0010
0100
0010
0001
0100
0010
1000
0100
0010
0100
1000
0010
1000
,
0001
1000
0010
0100
0001
0100
0010
1000
0001
0010
0100
1000
0100
1000
0001
0100
,
0001
0010
0100
1000
0010
0100
0001
1000
0001
1000
0100
0010
0001
0100
0010
1000
,
0001
0100
0001
0010
0100
1000
0010
1000
0100
0010
0001
0100
0001
1000
0001
1000
,
0100
0010
0001
0100
0010
1000
0001
1000
0001
0100
0010
1000
0100
0010
0001
0010
,
0001
1000
0010
1000
0001
0010
0100
0010
0001
1000
0010
1000
0001
0100
0010
1000
,
0010
0100
0001
0010
0100
0010
0100
1000
0010
0100
0001
1000
0001
1000
0100
0010
,
0001
0100
0001
1000
0100
1000
0001
0100
0001
1000
0010
0100
0001
1000
0001
1000
,
0001
0100
0001
0010
0100
0010
0001
0100
0010
1000
0100
0010
0100
1000
0010
1000
,
0001
0101
0100
0110
,
0010
1010
1000
1001
,
0100
1001
1000
0110
,
0001
0000
0101
0000
0010
0010
1001
0000
,
0100
0011
1000
0101
,
0010
1001
1000
1100
,
0100
1001
0001
1010
,
1000
0000
0001
0100
0010
1000
0100
0010
0001
1000
0010
1000
,
0010
0101
1000
1100
,
0010
1001
0001
0110
,
1000
0101
0100
1010
,
1000
0000
1001
0000
0010
0010
1100
0000
,
1000
0101
0001
1100
,
0010
1001
0100
0011
,
1000
0101
1000
0110
,
0001
0000
1000
0010
0100
0010
1000
0100
0010
0001
0000
0000
,
1000
0000
1001
0000
,
0010
0000
0000
0010
0000
0000
0010
0000
0110
0000
0000
0000
0000
0000
0000
0000
,
1000
0000
1010
0000
,
0010
0010
0101
0000
,
0001
0000
1001
0000
,
0100
0000
0000
0100
0000
0000
0100
0000
0101
0000
0000
0000
0000
0000
0000
0000
,
0010
0000
1001
0000
,
1000
1000
1100
0000
,
0200
0000
0000
0320
0001
0000
0230
0000
,
1000
0000
0000
1000
0000
0000
1300
0000
1001
0000
0000
0000
0000
0000
0000
0000
,
0001
0000
0110
0000
,
1000
1000
0101
0000
,
0002
0000
0000
2003
0100
0000
3020
0000
,
0100
0000
0000
0100
0000
0000
0130
0000
1001
0000
0000
0000
0000
0000
0000
0000
,
1000
0000
0011
0000
,
1000
1000
0101
0000
,
0002
0000
0000
2003
0010
0000
3002
0000
,
0100
0000
0000
0100
0000
0000
0103
0000
1010
0000
0000
0000
0000
0000
0000
0000
,
1000
0000
0110
0000
,
0001
0001
1010
0000
,
0020
0000
0000
2030
0100
0000
3002
0000
,
0010
0000
0000
0010
0000
0000
0013
0000
1100
0000
0000
0000
0000
0000
0000
0000
,
1000
0000
0101
0000
,
1000
1000
0110
0000
,
0002
0000
0000
0023
0100
0000
0032
0000
,
1000
0000
0000
1000
0000
0000
1003
0000
1010
0000
0000
0000
0000
0000
0000
0000
,
0010
0000
1001
0000
,
0100
0100
1001
0000
,
2000
0000
0000
3002
0100
0000
0023
0000
,
0001
0000
0000
0001
0000
0000
0031
0000
1100
0000
0000
0000
0000
0000
0000
0000
,
1000
0000
0011
0000
,
1000
0000
0000
0000
1000
0000
0000
0000
0101
0000
0000
0000
0000
0000
0001
1000
,
0001
0000
1000
0100
0010
0000
0001
0100
0010
0000
1000
0100
1000
0000
0001
0100
,
0010
0000
0100
0001
1000
0000
0001
0010
0100
0000
0010
0001
1000
0000
0001
0100
,
0010
0000
0100
0001
1000
0000
0100
0010
0001
0000
0010
0100
1000
0000
0001
0100
,
0010
0000
0100
0001
1000
0000
0001
0010
0001
0000
0100
0010
0100
0000
0010
1000
,
0001
0000
0010
0100
1000
0000
0001
0100
0001
0000
0010
0100
0010
0000
0001
1000
,
0100
0000
0010
0100
1000
0000
0001
0100
0010
0000
1000
0100
0010
0000
0100
1000
,
0001
0000
0100
0001
0100
0000
0001
1000
0100
0000
0010
0001
1000
0000
0010
1000
,
0001
0010
0001
1000
0010
1000
0001
0010
0001
0000
1000
0000
0040
0000
0000
0000
,
1030
0001
1000
0001
0100
0010
1000
0001
0010
0100
1000
0001
1000
0100
1000
0010
,
1000
0001
0010
0001
1000
0010
0100
0001
1000
0100
1000
0001
1000
0010
1000
0100
,
1000
0001
0010
0001
1000
0010
0100
0001
1000
0001
0100
0001
1000
0100
1000
0010
,
1000
0001
0100
0001
0100
0010
1000
0001
0010
0100
0010
0001
1000
0010
1000
0100
,
1000
0001
1000
0001
0100
0010
1000
0001
0010
0100
1000
0001
1000
0100
1000
0010
,
1000
0001
0010
0001
1000
0010
0100
0001
1000
0100
1000
0001
1000
0010
1000
0100
,
1000
0001
0010
0001
1000
0010
0100
0001
1000
0001
0100
0001
1000
0100
1000
0010
,
1000
0001
0100
0001
0100
0010
1000
0001
0010
0100
0010
0001
1000
0010
1000
0100
,
1000
0001
1000
0001
0100
0010
1000
0001
0010
0100
1000
0001
1000
0100
1000
0010
,
1000
0001
0010
0001
1000
0010
0100
0001
1000
0100
1000
0001
1000
0010
1000
0100
,
1000
0001
0010
0001
1000
0010
0100
0001
1000
0001
0100
0001
1000
0100
1000
0010
,
1000
0001
0100
0001
0100
0010
1000
0001
0010
0100
0010
0001
1000
0010
1000
0100
,
1000
0001
1000
0001
0100
0010
1000
0001
0010
0100
1000
0001
1000
0100
1000
0010
,
1000
0001
0010
0001
1000
0010
0100
0001
1000
0100
1000
0001
1000
0010
1000
0100
,
1000
0001
0010
0001
1000
0010
0100
0001
1000
0001
0100
0001
1000
0100
1000
0010
,
1000
0001
0100
0001
0100
0010
1000
0001
0010
0100
0010
0001
1000
0010
1000
0100
,
1000
0001
1000
0001
1000
0100
1000
0100
0010
0001
0010
0001
2000
0000
0000
0000
,
3001
0100
0001
0100
0010
1000
0010
1000
0001
0010
0001
0010
0200
0000
0000
0000
,
0310
0001
0010
0001
1000
0001
1000
0001
0100
0010
0100
0010
2000
0000
0000
0000
,
3001
0010
0001
0010
0100
1000
0100
1000
0001
0100
0001
0100
0020
0000
0000
0000
,
1030
0100
0010
0001
1000
0001
0100
0010
1000
0001
0010
0100
2000
0000
0000
0000
,
3001
0100
0010
1000
0001
1000
0100
0010
0001
0010
0001
1000
0002
0000
0000
0000
,
0013
0100
1000
0100
0010
0001
1000
0010
0100
0010
1000
0001
0020
0000
0000
0000
,
0130
1000
0001
1000
0001
0100
0010
1000
0001
1000
0100
0010
0200
0000
0000
0000
,
1300
0001
1000
0010
0100
0001
0010
0100
1000
0001
0100
0010
0200
0000
0000
0000
,
0301
1000
0010
1000
0001
0010
0001
0100
0010
1000
0001
0010
0002
0000
0000
0000
,
1003
0010
0100
0001
0100
0010
1000
0100
0010
0001
1000
0001
2000
0000
0000
0000
,
3010
0100
0001
1000
0100
1000
0010
1000
0001
0010
0100
1000
0002
0000
0000
0000
,
1003
0010
1000
0100
0010
0001
1000
0001
0100
0010
1000
0100
0020
0000
0000
0000
,
0130
1000
0010
0100
0001
1000
0100
0010
0001
0100
0001
1000
0002
0000
0000
0000
,
0013
0100
1000
0010
1000
0001
0100
0001
1000
0100
1000
0010
0200
0000
0000
0000
,
0310
1000
0100
1000
0001
0010
0100
0010
0001
0100
0010
1000
0002
0000
0000
0000
,
1003
0001
0010
0100
1000
0100
0010
0001
1000
0010
0100
0001
0100
0001
1000
0100
,
1000
0010
0100
0001
0010
0100
1000
0001
1000
0001
0100
0010
1000
0100
0010
0001
,
1000
0100
1000
0010
0100
0001
0010
0001
0100
0010
1000
0100
1000
0001
1000
0001
,
0100
0010
1000
0100
0010
0001
1000
0001
1000
0100
0010
0001
0100
0010
1000
0010
,
1000
0001
0010
0001
1000
0010
0100
0010
1000
0001
0010
0001
1000
0100
0010
0001
,
0010
0100
1000
0010
0100
0010
0100
0001
0010
0100
1000
0001
1000
0001
0100
0010
,
1000
0100
1000
0001
0100
0001
1000
0100
1000
0001
0010
0100
1000
0001
1000
0001
,
1000
0100
1000
0010
0100
0010
1000
0100
0010
0001
0100
0010
0100
0001
0010
0001
,
1000
0100
0000
0010
0000
0001
1000
0000
0010
0000
0100
0001
0000
0000
0000
0000
,
1000
0100
0010
0000
0001
0000
1000
0000
0010
0000
0100
0000
0001
0000
0010
0000
,
0100
1000
0100
0010
0001
1000
0001
0100
0010
1000
0001
1000
0001
0000
0000
0010
,
0100
1000
0001
0000
0100
0000
0010
1000
0100
0010
0001
0000
1000
0000
0010
0000
,
0100
0000
0001
0000
1000
0000
0100
0000
0010
0001
0000
1000
0000
0000
0000
0001
,
0100
0000
0010
1000
0001
0000
1000
0100
0010
0000
0001
0000
0100
0010
1000
0000
,
0001
0000
0010
0100
1000
0000
0010
0100
0001
0000
1000
0000
0001
0000
0100
0001
,
1000
0100
1000
0001
0100
0001
1000
0100
1000
0000
0001
0000
0400
0000
0000
0000
,
0301
1000
0010
0100
0001
0100
0010
1000
0001
0010
0100
1000
0100
1000
0001
0100
,
0001
0010
0100
1000
0010
0100
0001
1000
0001
1000
0100
0010
0001
0100
0010
1000
,
0001
0100
0001
0010
0100
1000
0010
1000
0100
0010
0001
0100
0001
1000
0001
1000
,
0100
0010
0001
0100
0010
1000
0001
1000
0001
0100
0010
1000
0100
0010
0001
0010
,
0001
1000
0010
1000
0001
0010
0100
0010
0001
1000
0010
1000
0001
0100
0010
1000
,
0010
0100
0001
0010
0100
0010
0100
1000
0010
0100
0001
1000
0001
1000
0100
0010
,
0001
0100
0001
1000
0100
1000
0001
0100
0001
1000
0010
0100
0001
1000
0001
1000
,
0001
0100
0001
0010
0100
0010
0001
0100
0010
1000
0100
0010
0100
1000
0010
1000
,
0001
1000
0010
0100
0001
0100
0010
1000
0001
0010
0100
1000
0100
1000
0001
0100
,
0001
0010
0100
1000
0010
0100
0001
1000
0001
1000
0100
0010
0001
0100
0010
1000
,
0001
0100
0001
0010
0100
1000
0010
1000
0100
0010
0001
0100
0001
1000
0001
1000
,
0100
0010
0001
0100
0010
1000
0001
1000
0001
0100
0010
1000
0100
0010
0001
0010
,
0001
1000
0010
1000
0001
0010
0100
0010
0001
1000
0010
1000
0001
0100
0010
1000
,
0010
0100
0001
0010
0100
0010
0100
1000
0010
0100
0001
1000
0001
1000
0100
0010
,
0001
0000
1000
0010
0100
0000
0001
0010
0100
0000
0010
0000
0001
0000
1000
0001
,
1000
0010
1000
0001
0010
0001
1000
0010
1000
0000
0001
0000
0040
0000
0000
0000
,
0031
0000
0000
0000
;
