#TITLE:PARANOiA -CRaZE- MAX;
#SUBTITLE:;
#ARTIST:Kita Keru vs. 290;
#TITLETRANSLIT:;
#SUBTITLETRANSLIT:;
#ARTISTTRANSLIT:;
#CREDIT:;
#BANNER:PARANOiA -CRaZE- MAX BN.png;
#BACKGROUND:PARANOiA -CRaZE- MAX BG1.png;
#LYRICSPATH:;
#CDTITLE:;
#MUSIC:PARANOiA -CRaZE- MAX.mp3;
#OFFSET:0.000;
#SAMPLESTART:44.680;
#SAMPLELENGTH:12.000;
#SELECTABLE:YES;
#BPMS:0.000=290.000,344.500=261.340,345.000=197.120,345.500=157.100,346.000=113.840,346.500=88.620,347.000=110.999,348.000=145.000,380.000=290.000;
#STOPS:532.000=1.400
;
#BGCHANGES:40.000=PARANOiA -CRaZE- MAX BG2.png=1.000=0=0=1,
41.000=PARANOiA -CRaZE- MAX BG1.png=1.000=1=0=1,
56.000=PARANOiA -CRaZE- MAX BG2.png=1.000=0=0=1,
57.000=PARANOiA -CRaZE- MAX BG1.png=1.000=1=0=1,
72.000=PARANOiA -CRaZE- MAX BG2.png=1.000=0=0=1,
73.000=PARANOiA -CRaZE- MAX BG1.png=1.000=1=0=1,
88.000=PARANOiA -CRaZE- MAX BG2.png=1.000=0=0=1,
89.000=PARANOiA -CRaZE- MAX BG1.png=1.000=1=0=1,
104.000=PARANOiA -CRaZE- MAX BG2.png=1.000=1=0=1,
232.000=PARANOiA -CRaZE- MAX BG1.png=1.000=1=0=1,
348.000=PARANOiA -CRaZE- MAX BG2.png=2.000=1=0=1,
364.000=PARANOiA -CRaZE- MAX BG1.png=1.000=0=0=1,
364.500=PARANOiA -CRaZE- MAX BG2.png=1.000=1=0=1,
380.000=PARANOiA -CRaZE- MAX BG1.png=1.000=1=0=1,
508.000=PARANOiA -CRaZE- MAX BG2.png=1.000=1=0=1,
532.000=PARANOiA -CRaZE- MAX BG3.png=1.000=1=0=1,
533.000=PARANOiA -CRaZE- MAX BG1.png=1.000=0=0=1,
99999=-nosongbg-=1.000=0=0=0 // don't automatically add -songbackground-
;
// cache tags:
#FIRSTBEAT:40.000;
#LASTBEAT:544.000;
#SONGFILENAME:Songs/toune 2/PARANOiA -CRaZE- MAX/PARANOiA -CRaZE- MAX.sm;
#HASMUSIC:1;
#HASBANNER:1;
#MUSICLENGTH:122.331;
// end cache tags

//---------------dance-single - ----------------
#NOTES:
     dance-single:
     :
     Challenge:
     12:
     0.955,1.000,0.801,0.213,0.172,694.000,98.000,26.000,198.000,4.000:
0000
0000
0000
0000
,
0000
0000
0000
0000
,
0000
0000
0000
0000
,
0000
0000
0000
0000
,
0000
0000
0000
0000
,
0000
0000
0000
0000
,
0000
0000
0000
0000
,
0000
0000
0000
0000
,
0000
0000
0000
0000
,
0000
0000
0000
0000
,
1MM1
0100
0001
0100
,
0001
0000
0100
0000
0100
0001
0100
0000
,
0001
1000
0010
0100
,
0011
0110
1100
0110
,
1MM1
0100
0001
1000
,
0001
0000
0100
0000
0010
1000
0010
0000
,
0100
0001
0010
0010
,
1100
0110
0011
0110
,
1MMM
0000
0001
0010
0001
0010
0001
0000
,
0100
0000
0010
0100
0010
0100
0010
0000
,
0001
0000
0100
1000
0100
1000
0100
1000
,
0100
0010
0100
0001
0010
0001
0100
0000
,
MM1M
0000
0100
0001
0100
0001
0100
0000
,
0001
0000
1000
0001
1000
0001
1000
0000
,
0001
0010
0100
1000
0001
0010
0100
1000
,
0001
0100
0010
1000
0001
0100
0010
1000
,
MMM1
0010
0001
1100
,
0000
0001
0010
0000
0100
0000
0001
0000
,
1000
0001
0100
0011
,
0000
1000
0100
1000
0010
0100
0010
1000
,
0010
0100
0001
1001
,
0000
0100
0010
0000
1001
0000
0011
0000
,
0100
0010
1000
0011
,
2100
3100
0102
0103
,
0100
0001
0100
1010
,
0000
0100
0001
0000
1000
0000
0100
0000
,
0010
0100
1000
0101
,
0000
0010
1000
0010
0001
1000
0001
0010
,
0001
1000
0100
0110
,
0000
1000
0001
0000
0110
0000
0101
0000
,
1000
0001
0010
0101
,
1020
1030
1200
1300
,
0001
0010
0000
0010
0100
0000
0100
0010
,
0000
0010
1000
0000
0011
0000
0011
0000
,
0100
0010
0000
0010
0001
0000
0001
0100
,
0000
0100
1000
0000
0110
0000
0110
0000
,
0001
0010
0001
0100
0010
1000
0100
1000
,
0001
0010
0100
0010
0200
0000
1300
0000
,
0010
0100
0010
1000
0001
0100
0001
0010
,
0001
0100
0010
0100
2000
0000
3101
0000
,
0010
1000
0000
1000
0001
0000
0001
1000
,
0000
1000
0100
0000
1010
0000
1010
0000
,
0001
1000
0000
1000
0010
0000
0010
0001
,
0000
0001
0100
0000
1001
0000
1001
0000
,
0010
1000
0010
0001
1000
0100
0001
0100
,
0010
1000
0001
1000
0002
0000
0103
0000
,
1000
0001
1000
0100
0010
0001
0010
1000
,
0010
0001
1000
0001
0200
0000
0311
0000
,
1000
0100
1000
0010
0100
0010
0001
0010
,
0001
0100
0010
0100
1000
0100
0010
0100
,
0010
0001
0010
0001
0100
0010
0100
1000
,
0010
0100
0010
1000
0000
0100
0010
0000
,
0001
0010
0001
0100
0010
0100
1000
0100
,
1000
0010
0100
0010
0001
0010
0100
0010
,
0100
1000
0100
1000
0010
0100
0010
0001
,
0100
0010
0100
0001
0000
0010
0100
0000
,
0001
MM11
0100
M11M
,
1000
1MM1
0001
M1M1
,
1000
1M1M
0100
M1M1
,
0001
0010
0100
1000
0100
0010
0100
0010
,
1000
1MM1
0010
MM11
,
0100
11MM
0010
M11M
,
0001
1MM1
0100
M1M1
,
1000
0010
0100
0001
0100
0010
1000
0000
,
0020
0100
1000
0100
,
0031
0000
0000
0011
0000
0100
0010
0000
,
2000
0010
0001
0100
,
3001
0010
0001
0010
0100
0010
0100
1000
,
0200
1000
0001
1000
,
0310
0000
0000
0110
0000
1000
0100
0000
,
0002
0100
0010
1000
,
0013
0100
0010
0100
1000
0100
1000
0001
,
2000
0001
0100
0001
,
3010
0000
0000
1010
0000
0001
1000
0000
,
0200
1000
0010
0001
,
0310
1000
0010
1000
0001
1000
0001
0100
,
2MM2
0MM0
0MM0
0MM0
0MM0
0MM0
0MM0
3MM3
,
1001
0000
0000
0011
0000
0000
1010
0000
,
0011
0000
0001
0010
0001
0000
0011
0000
0100
0010
0100
0000
1000
0000
1001
0000
,
0110
0000
0000
1100
0000
0000
0011
0000
,
0001
0010
0100
0001
0010
0001
0100
1000
0100
1000
0100
0001
0010
0001
0010
0100
,
1M1M
0000
0000
0101
0000
0000
0011
0000
,
0101
0000
0100
0001
0100
0000
0101
0000
1000
0001
1000
0000
0010
0000
0110
0000
,
1001
0000
0000
1010
0000
0000
0101
0000
,
0100
0001
1000
0100
0001
0100
1000
0010
1000
0010
1000
0100
0001
0100
0001
1000
,
MM1M
1000
0010
0101
,
0000
0010
1000
0000
0001
0000
0010
0000
,
0100
0010
0001
1010
,
0000
0100
0001
0100
1000
0001
1000
0100
,
1000
0001
0010
0110
,
0000
0001
1000
0000
0110
0000
1010
0000
,
0001
1000
0100
1010
,
0201
0301
0021
0031
,
0001
0010
0001
1100
,
0000
0001
0010
0000
0100
0000
0001
0000
,
1000
0001
0100
0011
,
0000
1000
0100
1000
0010
0100
0010
1000
,
0010
0100
0001
1001
,
0000
0100
0010
0000
1001
0000
0011
0000
,
0100
0010
1000
0011
,
2100
3100
0102
0103
,
0010
1000
0000
1000
0001
0000
0001
1000
,
0000
1000
0100
0000
1010
0000
1010
0000
,
0001
1000
0000
1000
0010
0000
0010
0001
,
0000
0001
0100
0000
1001
0000
1001
0000
,
0010
1000
0010
0001
1000
0100
0001
0100
,
0010
1000
0001
1000
0002
0000
0103
0000
,
1000
0001
1000
0100
0010
0001
0010
1000
,
0010
0001
1000
0001
0200
0000
0311
0000
,
1000
0100
0000
0100
0010
0000
0010
0100
,
0000
0100
0001
0000
1100
0000
1100
0000
,
0010
0100
0000
0100
1000
0000
1000
0010
,
0000
0010
0001
0000
0110
0000
0110
0000
,
1000
0100
1000
0010
0100
0001
0010
0001
,
1000
0100
0010
0100
0020
0000
0031
0000
,
0100
0010
0100
0001
1000
0010
1000
0100
,
1000
0010
0100
0010
0002
0000
1103
0000
,
M001
0M10
M001
0M10
M001
0M10
M001
0M10
,
M100
001M
M100
001M
M100
001M
M100
001M
,
01M0
100M
01M0
100M
01M0
100M
01M0
100M
,
01M0
100M
0M10
100M
0M10
100M
0M10
100M
,
M010
010M
M010
010M
M010
010M
M010
010M
,
0M10
100M
0M10
100M
0M10
100M
0M10
100M
,
1001
0000
0000
0000
M22M
M00M
M00M
M00M
M00M
M00M
M00M
M00M
M00M
M00M
M00M
M00M
,
M00M
M00M
M00M
M00M
M00M
M00M
M00M
M00M
M00M
M00M
M00M
M00M
M00M
M00M
M00M
M00M
,
M00M
M00M
M00M
M00M
M33M
M00M
M00M
M00M
M00M
M00M
M00M
M00M
M00M
M00M
M00M
M00M
,
MMMM
0000
0000
0000
;

//---------------dance-single - ----------------
#NOTES:
     dance-single:
     :
     Hard:
     10:
     0.897,1.000,0.850,0.376,0.065,618.000,104.000,46.000,0.000,0.000:
0000
0000
0000
0000
,
0000
0000
0000
0000
,
0000
0000
0000
0000
,
0000
0000
0000
0000
,
0000
0000
0000
0000
,
0000
0000
0000
0000
,
0000
0000
0000
0000
,
0000
0000
0000
0000
,
0000
0000
0000
0000
,
0000
0000
0000
0000
,
1000
1000
0100
0100
,
0001
0100
0001
0010
,
0001
0001
0010
0010
,
1000
0001
0100
0010
,
1001
1000
0001
0001
,
0010
0100
0001
1000
,
0100
0100
0010
0010
,
1000
0001
0100
0010
,
1001
1010
1010
1010
,
1001
0101
0101
0101
,
1001
0110
0110
0110
,
0001
0010
0100
1000
0001
0010
0100
1000
,
1001
0000
0001
0010
0001
0010
0001
0000
,
1001
0000
1000
0100
1000
0100
1000
0000
,
0001
0010
0100
1000
0100
0010
0001
0010
,
0100
1000
0100
0010
0001
0010
0100
1000
,
0001
0001
0001
0101
,
0000
0001
0010
0000
0011
0000
0011
0000
,
1000
1000
1000
1100
,
0000
1000
0100
0000
1100
0000
1100
0000
,
0002
0023
0230
2300
,
3000
0001
0010
0000
0100
0000
1000
0000
,
2000
3200
0320
0032
,
0003
1000
0100
0000
0010
0000
0001
0000
,
0001
0010
0001
0000
0100
0010
0100
0000
,
1000
0001
1000
0001
0000
0001
1000
0000
,
0100
0010
0100
0000
1000
0100
1000
0000
,
0100
0001
0100
0001
0000
0100
0001
0000
,
1000
0100
1000
0100
0010
0100
0010
0100
,
0001
0010
0001
0010
0100
0010
0100
0000
,
0001
0010
0001
0010
0100
0010
0100
0010
,
1000
0100
1000
0100
0010
0100
0010
0000
,
0100
0100
0100
1100
,
0000
0100
0001
0000
0101
0000
0101
0000
,
0010
0010
0010
1010
,
0000
0010
1000
0000
1010
0000
1010
0000
,
0200
0302
2003
3020
,
0030
0100
0001
0000
1000
0000
0010
0000
,
0020
2030
3002
0203
,
0300
0010
1000
0000
0001
0000
0100
0000
,
0100
0001
0100
0000
1000
0001
1000
0000
,
0010
0100
0010
0100
0000
0100
0010
0000
,
1000
0001
1000
0000
0010
1000
0010
0000
,
1000
0100
1000
0100
0000
1000
0100
0000
,
0010
1000
0010
1000
0001
1000
0001
1000
,
0100
0001
0100
0001
1000
0001
1000
0000
,
0100
0001
0100
0001
1000
0001
1000
0001
,
0010
1000
0010
1000
0001
1000
0001
0000
,
0101
0110
1010
1001
,
0011
0000
0000
0110
0000
0100
1000
0000
,
1010
0110
0011
1010
,
0101
0000
0000
1100
0000
0001
0010
0000
,
1001
0110
0011
0101
,
1001
0000
0000
0110
0000
1000
0001
0000
,
0101
1100
0011
0110
,
2100
0000
0100
0000
0100
0000
0010
3000
,
1100
1001
0011
0110
,
0101
0000
0000
1001
0000
1000
0010
0000
,
0011
1001
0101
0011
,
1100
0000
0000
1010
0000
0100
0001
0000
,
0110
1001
0101
1100
,
0110
0000
0000
1001
0000
0010
0100
0000
,
1100
1010
0101
1001
,
1020
0000
1000
0000
1000
0000
0001
0030
,
0001
0010
0001
0000
0100
0010
0100
0000
,
1000
0010
1000
0000
0010
0100
0010
0000
,
0001
0100
0001
0000
0100
0001
0100
0000
,
1000
0001
1000
0000
0100
1000
0100
0000
,
0001
1000
0100
0000
0100
0010
0001
0000
,
1000
0001
0100
0000
0001
0010
1000
0000
,
0100
0001
0010
0000
1000
0001
0010
0000
,
2002
0000
0000
0000
0000
0000
0000
3003
,
0001
0010
0000
0010
0100
0000
0100
0010
,
0000
0010
1000
0000
1000
0100
0000
0100
,
0001
0000
0001
0100
0000
0100
0010
0000
,
0010
0100
0000
0100
1000
0000
1000
0000
,
2002
0000
0000
0000
0000
0000
0000
3003
,
0011
0000
0000
0110
0000
0000
0101
0000
,
0110
0000
0000
1010
0000
0000
0101
0000
,
1010
0000
0000
0110
0000
0000
1001
0000
,
0011
0000
0000
1010
0000
0000
0011
0000
,
0001
0010
0100
1000
0001
0010
0100
1000
,
0001
0010
0001
0010
0001
0010
0001
0010
1000
0100
1000
0100
1000
0100
1000
0100
,
1000
0100
0010
0001
1000
0100
0010
0001
,
1000
0100
0010
0001
1000
0100
0010
0001
1000
0010
0100
0001
1000
0010
0100
0001
,
0010
0010
0010
0011
,
0000
0010
1000
0000
1010
0000
1010
0000
,
0100
0100
0100
0101
,
0000
0100
0001
0000
0101
0000
0101
0000
,
0020
2030
3002
0203
,
0300
0010
1000
0000
0001
0000
0100
0000
,
0200
0302
2003
3020
,
0030
0100
0001
0000
1000
0000
0010
0000
,
0010
1000
0010
0000
0001
1000
0001
0000
,
0100
0010
0100
0010
0000
0010
0100
0000
,
0001
1000
0001
0000
0100
0001
0100
0000
,
0001
0010
0001
0010
0000
0001
0010
0000
,
0100
0001
0100
0001
1000
0001
1000
0001
,
0010
1000
0010
1000
0001
1000
0001
0000
,
0010
1000
0010
1000
0001
1000
0001
1000
,
0100
0001
0100
0001
1000
0001
1000
0000
,
0001
0001
0001
0101
,
0000
0001
0010
0000
0011
0000
0011
0000
,
1000
1000
1000
1100
,
0000
1000
0100
0000
1100
0000
1100
0000
,
0002
0023
0230
2300
,
3000
0001
0010
0000
0100
0000
1000
0000
,
2000
3200
0320
0032
,
0003
1000
0100
0000
0010
0000
0001
0000
,
0001
0010
0001
0000
0100
0010
0100
0000
,
1000
0001
1000
0001
0000
0001
1000
0000
,
0100
0010
0100
0000
1000
0100
1000
0000
,
0100
0001
0100
0001
0000
0100
0001
0000
,
1000
0100
1000
0100
0010
0100
0010
0100
,
0001
0010
0001
0010
0100
0010
0100
0000
,
0001
0010
0001
0010
0100
0010
0100
0010
,
1000
0100
1000
0100
0010
0100
0010
0000
,
0022
0000
0000
0000
,
0000
0000
0000
0000
0000
0000
0000
0033
,
2200
0000
0000
0000
,
0000
0000
0000
0000
0000
0000
0000
3300
,
0220
0000
0000
0000
,
0000
0000
0000
0000
0000
0000
0000
0330
,
1001
2020
0000
0000
,
0000
0000
0000
0000
,
0000
3030
0000
0000
;
