#TITLE:Ripoff;
#SUBTITLE:;
#ARTIST:Stunt Rock;
#TITLETRANSLIT:;
#SUBTITLETRANSLIT:;
#ARTISTTRANSLIT:;
#CREDIT:;
#BANNER:../fthescorept1bn.png;
#BACKGROUND:../fthescorept1bg.png;
#LYRICSPATH:;
#CDTITLE:;
#MUSIC:Ripoff.ogg;
#OFFSET:-0.041;
#SAMPLESTART:7.160;
#SAMPLELENGTH:12.780;
#SELECTABLE:YES;
#BPMS:0.000=84.808,1.000=83.312,2.000=85.731,3.000=81.586,4.000=84.515,5.000=83.323,6.000=84.000,7.000=86.731,8.000=84.000,9.000=85.565,10.000=85.465,11.000=83.145,12.000=85.731,13.000=81.991,14.000=85.554,15.000=81.747,16.000=85.731,17.000=82.978,18.000=85.728,19.000=83.145,20.000=84.246,21.000=83.229,22.000=84.000,23.000=83.323,24.000=85.742,25.000=83.323,26.000=84.000,27.000=83.239,28.000=84.429,29.000=84.000;
#STOPS:;
#BGCHANGES:;
// cache tags:
#FIRSTBEAT:0.000;
#LASTBEAT:33.000;
#SONGFILENAME:Songs/Fuck The Score Part I/Ripoff [Dossar]/Ripoff.sm;
#HASMUSIC:1;
#HASBANNER:1;
#MUSICLENGTH:23.954;
// end cache tags

//---------------dance-single - ----------------
#NOTES:
     dance-single:
     :
     Challenge:
     12:
     0.901,0.689,0.000,0.000,1.000,151.000,0.000,0.000,0.000,0.000:
1000
0000
0000
0000
1000
0000
0000
0000
1000
0000
0000
0000
0100
0000
0000
0000
0010
0000
0000
0000
0010
0000
0000
0000
0010
0000
0000
0000
0001
0000
0000
0000
0100
0000
0000
0000
0100
0000
0000
0000
0100
0000
0000
0000
0010
0000
0000
0000
1000
0000
0000
0000
1000
0000
0000
0000
1000
0001
0100
0001
1000
0010
1000
0001
,
0100
0000
0000
0000
0000
0000
0100
0000
0000
0001
0000
0000
0100
0000
0000
0000
0000
0000
0010
0000
0000
0000
0000
0000
0010
0000
0000
0000
0000
0000
0010
0000
0000
0000
0000
0000
1000
0000
0000
0000
0000
0000
0001
0000
0000
0000
0000
0000
0001
0000
0000
0000
0000
0000
0001
0000
0000
0000
0000
0000
0001
0000
0000
0000
0000
0000
0001
0000
0000
0000
0000
0000
0100
0000
0000
0000
0010
0000
0000
0000
0000
0000
0000
0000
0000
0000
0000
0000
0000
0000
0000
0000
0000
0000
0000
0000
,
0000
0000
0000
0000
0000
0000
0000
0000
1000
1000
1000
0001
0010
0010
0010
0100
,
0010
0000
0000
0000
0010
0000
0000
0000
0010
0000
0000
0000
0001
0000
0000
0000
1000
0000
0000
0000
1000
0000
0000
0000
1000
0100
1000
0001
0010
0100
1000
0001
0010
0000
0000
0000
0010
0000
0100
0000
0010
0000
0000
0000
0001
0000
0000
0000
0001
0000
0000
0000
0001
0000
0000
0000
1000
0000
0000
0000
0010
0000
0000
0000
,
0100
0000
0000
0000
0100
0000
0000
0000
0100
0000
0000
0000
0001
0000
0000
0000
1000
0000
0000
0000
1000
0000
0000
0000
1000
0000
0000
0000
0100
0000
0000
0000
0010
0000
0000
0000
0010
0000
0000
0000
0010
0000
0000
0000
0100
0000
0000
0000
1000
0000
0000
0000
1000
0000
0000
0000
1000
0010
1000
0001
0100
0001
1000
0010
,
0100
0000
0100
0001
0100
0000
0010
0000
0010
0000
0010
0000
1000
0000
0100
0000
0010
0000
0010
0000
0010
0000
0001
0000
0100
0000
0100
0000
0100
0000
0010
0000
,
1000
0000
0000
0000
1000
0000
0000
0000
1000
0000
0000
0000
0100
0000
0000
0000
0010
0000
0000
0000
0010
0000
0000
0000
0010
0001
1000
0100
1000
0001
0010
0100
1000
0000
0000
0000
1000
0000
0100
0000
1000
0000
0000
0000
0001
0000
0000
0000
0001
0000
0000
0000
0001
0000
0000
0000
0100
0000
0000
0000
0010
0000
0000
0000
,
1000
1000
1000
0100
0010
0010
0010
0001
0100
0100
0100
0010
1000
1000
1000
0100
,
0010
0010
0010
0001
0001
0000
0000
0000
0000
0000
0000
0000
0000
0000
0000
0000
;
