#TITLE:Comic Party;
#SUBTITLE:- Kimi No Mama De;
#ARTIST:Emi Motoda;
#TITLETRANSLIT:;
#SUBTITLETRANSLIT:;
#ARTISTTRANSLIT:;
#CREDIT:;
#BANNER:ComicPartylogo.png;
#BACKGROUND:ComicParty.png;
#LYRICSPATH:;
#CDTITLE:;
#MUSIC:ComicParty.mp3;
#OFFSET:0.152;
#SAMPLESTART:59.360;
#SAMPLELENGTH:12.000;
#SELECTABLE:YES;
#BPMS:0.000=133.960;
#STOPS:;
#BGCHANGES:21.250=comicparty.avi=1.000=0=0=1,
188.000=comicparty.png=1.000=0=0=1,
99999=-nosongbg-=1.000=0=0=0 // don't automatically add -songbackground-
;
// cache tags:
#FIRSTBEAT:5.000;
#LASTBEAT:197.250;
#SONGFILENAME:Songs/Anime Songs/ComicParty/ComicParty.sm;
#HASMUSIC:1;
#HASBANNER:1;
#MUSICLENGTH:92.708;
// end cache tags

//---------------dance-single - BASIC----------------
#NOTES:
     dance-single:
     BASIC:
     Easy:
     3:
     0.228,0.211,0.032,0.054,0.005,140.000,3.000,5.000,0.000,0.000:



0000
0000
0000
0000
,
0000
0000
0000
0000
0000
0000
0000
1001
,
0000
0000
0000
0001
0000
0000
0000
1000
,
0000
0000
0000
0001
0000
0000
0000
0010
,
0000
0010
0000
0010
0000
0010
0000
0010
,
0000
0010
0000
0000
0000
0000
0000
1000
,
0000
0000
0000
0001
0000
0000
0000
1000
,
0000
0000
0000
0100
0000
0100
0000
0100
,
0000
0100
0000
0100
0000
0100
0000
0000
,
0000
0000
0000
1000
0000
0100
0000
0001
,
0000
0100
0000
1000
0000
0100
0000
0001
,
0000
0100
0000
1000
0000
0100
0000
0001
,
0000
1000
0000
0010
0000
0100
0000
0001
,
0000
0000
0000
0001
0000
0001
0000
1000
,
0000
1000
0000
0001
0000
0001
0000
1000
,
0000
1000
0000
0100
0000
0100
0000
0010
,
0000
0010
0000
0100
0000
0100
0000
1000
,
0000
1000
0000
0001
0000
0001
0000
0100
,
0000
0100
0000
0010
0000
0000
0000
0010
,
0000
0001
0000
0100
0000
1000
0000
0010
,
0000
0001
0000
0100
0000
1000
0000
0001
,
0000
0000
0000
0010
0000
0100
0000
1000
,
0000
0100
0000
0001
0000
0010
0000
1000
,
0000
0100
0000
0001
0000
0010
0000
1000
,
0000
0000
0100
0000
0000
0000
0001
0000
0000
0000
0000
0000
0000
0200
0000
0000
,
0000
0000
0000
0300
0000
0000
0000
0020
,
0000
0000
0000
0000
,
0000
0030
0000
0000
0000
0200
0000
0000
,
0000
0000
0000
0000
0000
0000
0000
0300
,
0000
0000
0000
0002
0000
0000
0000
0000
,
0000
0000
0000
0000
0000
0003
0000
0000
,
0000
2000
0000
0000
0000
0000
0000
0000
,
0000
0000
0000
3000
0000
0000
0000
0000
,
0000
0000
0000
0000
0000
0000
0000
1001
,
0000
0100
0000
0100
0000
0100
0000
0010
,
0000
0010
0000
0010
0000
1000
0000
1000
,
0000
1000
0000
0001
0000
0001
0000
0001
,
0000
0000
0000
1000
0000
0100
0000
0001
,
0000
0010
0000
1000
0000
0100
0000
0001
,
0000
0010
0000
1000
0000
0100
0000
0001
,
0000
1000
0000
0001
0000
1000
0000
0000
,
0000
0000
0000
0001
0000
1000
0000
1000
,
0000
0001
0000
0001
0000
1000
0000
1000
,
0000
0100
0000
0010
0000
0100
0000
0010
,
0000
0100
0000
0010
0000
1000
0000
0001
,
0000
1000
0000
0001
0000
0001
0000
1000
,
0000
0001
0000
0100
0000
0100
0000
0010
,
0000
0010
0000
0100
0000
0100
0000
0010
,
0000
1000
0000
0001
0000
0000
0100
0000
,
1001
0000
0000
0000;

//---------------dance-single - ANOTHER----------------
#NOTES:
     dance-single:
     ANOTHER:
     Medium:
     5:
     0.299,0.266,0.431,0.205,0.000,135.000,40.000,19.000,0.000,0.000:


0000
0000
0000
0000
,
0000
2000
0000
0000
,
0000
3000
0000
0000
0002
0000
0000
0000
0000
0000
0000
0000
0000
0000
0000
0000
,
0000
0003
0000
0000
0000
0000
0000
0000
0000
0000
1001
0000
0000
0000
0110
0000
,
0000
1001
0000
0110
0000
1100
0000
0101
,
0000
0002
0000
0000
,
0000
0003
0000
0000
2000
0000
0000
0000
0000
0000
0000
0000
0000
0000
0000
0000
,
0000
3000
0000
0000
0000
0000
1100
0000
0000
0000
0101
0000
0000
0000
1100
0000
,
0000
0101
0000
0100
0100
0000
0000
0000
,
0000
1001
0000
1000
0000
0100
0000
0001
,
0000
0100
0000
1000
0000
0100
0000
0001
,
0000
0100
0000
1000
0000
0001
0000
0001
,
0000
1000
0000
1000
0000
0010
0000
0010
,
0000
0100
0000
0100
0000
0001
0000
1000
,
0000
0010
0000
0001
0000
1000
0000
0100
,
0000
0010
0000
0001
0000
0100
0000
1000
,
0000
0000
1001
0000
0000
0010
0000
0001
,
0001
0000
0000
1001
0000
1000
0000
0001
,
0000
0100
0000
0100
0000
0100
0000
0010
,
0000
0010
0000
0010
0000
0001
0000
0001
,
0000
0001
0000
1000
0000
1000
0000
1000
,
0000
0010
0000
0001
0000
0100
0000
1000
,
0000
0010
0000
0001
0000
0100
0000
1000
,
0000
0010
0000
0001
0000
0100
0000
1000
,
0000
0001
0000
0010
0010
0000
0200
0000
,
0000
0000
0000
0300
0000
0000
0000
0000
0000
0000
1000
0000
0000
0000
0001
0000
,
0000
1000
0000
0001
0000
1000
0000
0001
,
0000
1001
0000
0010
0000
0100
0000
0010
,
0000
0100
0000
0010
0000
0100
0000
0110
,
0000
0001
0000
1000
0000
0001
0000
1000
,
0000
0001
0000
0000
2002
0000
0000
0000
,
0000
3003
0220
0000
,
0000
0000
0000
0000
0000
0330
0100
0100
,
0000
0002
0000
0000
,
0003
2000
0000
0000
,
3000
0000
0000
0000
0000
1001
0000
1100
,
0000
0101
0000
1100
0000
0101
0000
1001
,
0000
0020
0000
0000
,
0030
0200
0000
0000
,
0300
0000
0000
1010
0000
0011
0000
1010
,
0000
0011
0000
0110
0000
1001
0000
0000
,
0000
2000
0000
0000
,
3000
0002
0000
0000
,
0003
0000
0000
0000
0000
1001
0000
1001
,
0000
0110
0000
0110
0000
1010
0000
0101
,
0000
0002
0000
0000
,
0003
2000
0000
0000
,
3000
0000
0000
1001
0000
1010
0000
0011
,
0000
1100
0000
0101
0000
0000
2000
0000
,
0002
3003
0000
0000;

//---------------dance-single - MANIAC----------------
#NOTES:
     dance-single:
     MANIAC:
     Hard:
     7:
     0.410,0.399,0.097,0.248,0.000,234.000,9.000,23.000,0.000,0.000:

0000
0000
0000
0000
,
0000
0000
1000
0100
1000
0000
0001
0100
,
0001
0000
0100
1000
0100
0000
0100
0001
,
0100
0000
0000
0000
1000
1000
0000
1000
,
0001
0000
0010
0000
0200
0000
0000
0000
0302
0000
0000
0003
0001
0000
1000
0000
,
0001
0000
1000
0001
1000
0000
0001
0100
,
0001
0000
1000
0010
1000
0000
0100
0010
,
0001
0000
0000
0010
0001
1000
0100
0010
,
0001
1000
0001
0100
0020
0000
0030
0000
,
0000
1001
0000
0110
0000
0001
1000
0001
,
0000
0010
0000
0100
0000
0100
0100
0100
,
0000
1000
0000
0100
0000
0010
0001
0010
,
0000
0001
0000
1000
0000
0100
0100
0100
,
0000
1010
0000
0011
0000
0001
0000
0001
,
0000
1000
1000
1000
0000
0100
0000
0010
,
0000
0001
0001
0001
0000
1000
0000
0001
,
1000
0000
0100
0000
1000
0000
0000
0000
0002
0000
0000
0003
0000
0000
0010
0000
,
0200
0300
0000
1000
0000
0001
0000
1001
,
0000
1000
0000
0100
1000
0100
0000
0100
,
0000
0010
0000
0001
0001
0100
0000
0100
,
0000
0001
0000
0001
0001
0100
0000
1000
,
0000
0100
0000
0010
0010
0001
0000
0100
,
0000
0001
0000
0100
0100
0001
0000
2000
,
0000
3000
0000
0002
0000
0003
0000
2002
,
0000
3003
0000
0001
0002
0000
2000
0000
,
0000
0000
0000
0000
0000
3003
0000
0000
0000
0000
2000
0000
0000
0000
0001
0000
,
0000
0100
0000
0001
0000
0010
0000
0100
,
0000
3001
0000
0020
0000
1000
0000
0100
,
0000
0001
0000
0100
0000
1000
0000
0130
,
0000
0200
0000
0001
0000
0010
0000
1000
,
0000
0010
0000
0001
0000
0310
0000
0010
,
0000
1000
0001
0000
0220
0000
0000
0000
,
0000
0000
0000
0000
0000
0000
0000
0000
0000
0000
0000
0330
1001
0000
1001
0000
,
0000
0000
0001
0100
0001
0000
1000
0100
,
1000
0000
0010
0100
0010
0000
1000
0001
,
1000
0000
0000
0000
0001
0001
0000
0010
,
0001
0000
1000
0000
0200
0000
0000
0300
0020
0000
0000
0030
1000
0000
0001
0000
,
1000
0000
0001
0010
0001
0000
1000
0010
,
1000
0000
1000
0001
1000
0000
0100
0010
,
0100
0000
0000
1000
0001
0010
0100
1000
,
0100
0000
0010
0000
0001
0000
1000
0000
0200
0000
0000
0000
0000
0300
0000
0000
,
0000
0000
1000
1000
1000
0000
0001
0001
,
0001
0000
0010
0010
0010
0000
0100
0100
,
0100
0000
0000
0000
1000
0010
0000
0001
,
1000
0000
0100
0000
0020
0000
0000
0030
0200
0000
0000
0300
0010
0000
0100
0000
,
0010
0000
0010
1000
0001
0000
0100
1000
,
0001
0000
1000
1000
0001
0000
0001
0001
,
1000
0000
0000
1000
0100
0010
0001
0100
,
0010
1000
0001
0010
0100
0000
0020
0000
,
0200
0000
0000
0000
0000
0330
0000
0000
0000
0000
0000
0000
0000
0000
0000
0000;
