#TITLE:I Don't Need A Man;
#SUBTITLE:;
#ARTIST:Pussycat Dolls;
#TITLETRANSLIT:;
#SUBTITLETRANSLIT:;
#ARTISTTRANSLIT:;
#CREDIT:;
#BANNER:MAN-bn.PNG;
#BACKGROUND:MAN-bg.PNG;
#LYRICSPATH:;
#CDTITLE:;
#MUSIC:Pussycat Dolls - I Don't Need A Man.mp3;
#OFFSET:-2.280;
#SAMPLESTART:41.376;
#SAMPLELENGTH:11.980;
#SELECTABLE:YES;
#BPMS:0.000=105.707;
#STOPS:;
#BGCHANGES:;
// cache tags:
#FIRSTBEAT:4.000;
#LASTBEAT:189.000;
#SONGFILENAME:Songs/toune 2/I Don't Need A Man/Pussycat Dolls - I Don't Need A Man.sm;
#HASMUSIC:1;
#HASBANNER:1;
#MUSICLENGTH:113.092;
// end cache tags

//---------------dance-single - Basic----------------
#NOTES:
     dance-single:
     Basic:
     Easy:
     2:
     0.162,0.249,0.115,0.027,0.000,112.000,13.000,3.000,0.000,0.000:
0000
0000
0000
0000
,
0000
0000
0000
0000
,
0000
0000
0000
0000
,
1000
0000
0100
0000
,
0020
0000
0000
0030
,
0001
0000
0100
0000
,
2000
0000
0000
3000
,
0010
0000
0100
0000
,
0010
0000
0100
0000
,
0100
0001
0001
1000
,
1000
0000
0010
0000
,
0110
0000
0000
0000
,
1001
0000
0000
0000
,
1000
0000
0100
0000
,
0001
0000
0100
0000
,
0010
0000
0100
0000
,
0010
0010
0001
0001
,
0100
0000
1000
0000
,
0010
0010
1000
1000
,
0100
0000
0001
0000
,
1000
1000
0100
0100
,
0001
0001
0010
0000
,
0100
0100
1000
1001
,
0010
0000
0100
0000
,
0001
0000
1000
0000
,
0100
0000
0001
0000
,
1000
0000
0010
0000
,
0100
0000
0010
0000
,
0100
0100
0100
0000
,
0001
0000
1000
0000
,
0100
0100
0100
0000
,
0010
0001
0010
0000
,
0100
1000
0100
0000
,
1000
1000
0001
0001
,
0100
0010
0200
0300
,
1001
1001
1001
0000
,
0110
0110
0110
0000
,
1000
0000
0100
0000
,
0010
0000
0001
0000
,
0001
0010
0100
1000
,
1100
0000
1000
0000
,
1000
0100
0010
0001
,
0011
0000
0001
0000
,
0001
0010
0100
1000
,
1100
0000
1000
0000
,
0010
0000
0100
0000
,
0010
0000
0100
0010
,
0110
0000
0000
0000
;

//---------------dance-single - Standard----------------
#NOTES:
     dance-single:
     Standard:
     Medium:
     6:
     0.311,0.292,0.195,0.062,0.013,217.000,22.000,7.000,0.000,0.000:
0000
0000
0000
0000
,
1100
0000
0000
0010
0000
0010
0000
0000
,
0101
0000
0000
1000
0000
1000
0000
0000
,
0010
0100
0001
0000
0010
1000
0100
0000
,
0001
0000
1000
0000
,
0100
0001
0100
0000
0010
1000
0010
0000
,
0100
0000
0000
0000
1000
0000
0000
1000
,
0100
0010
0000
0001
0100
0000
0000
0010
,
1000
0001
0000
0100
1000
0000
0000
0010
,
0001
0100
0000
0001
1000
0000
0100
0000
,
0001
0000
2000
0001
0002
0000
3003
0000
,
0110
0001
1000
0100
,
0110
0001
1000
0100
,
0110
0000
1000
0000
0001
0001
0100
0000
,
0110
0000
0001
0000
1000
1000
0100
0000
,
0010
0000
1000
0100
0001
0000
0010
0000
,
0001
0010
1000
0000
1000
0010
0001
0000
,
0100
0000
0001
1000
0010
0000
0100
0000
,
1001
0100
0010
0000
1000
0100
0001
0000
,
0010
0000
0001
0100
1000
0000
0100
0000
,
0001
1000
0010
0000
1000
0001
0100
0001
,
1001
0010
0100
0001
,
1000
0000
0000
0100
0000
0000
0010
0000
0000
0000
0001
0000
0000
0000
0001
0000
,
0100
0000
0000
1000
0000
0100
0000
0000
,
0101
0000
0000
0010
0000
1000
0000
0100
,
0101
0000
0000
0010
0000
0001
0000
0000
,
1100
0001
0100
0010
,
1001
0100
0010
0000
0001
1000
0100
0000
,
0010
0000
0000
0000
0001
0000
0000
0001
,
0010
0100
1000
0000
1000
0000
0001
0001
,
0020
0000
0030
0000
0200
0000
0300
1000
,
0100
0010
0000
0001
0100
0000
0000
0010
,
1000
0100
0000
0010
0001
0000
0000
0100
,
1000
0001
0100
0010
0001
1000
0100
0010
,
0001
0000
0100
0000
2002
0000
3003
0010
,
1100
0001
0100
0010
,
1100
0001
0010
0100
,
1001
0000
0000
0000
0010
1000
0100
0000
,
0110
0000
0000
0000
0010
0001
1000
0000
,
1000
0000
0100
0001
0100
0000
0001
1000
,
0010
0000
1000
0100
0001
0000
0100
0000
,
0110
0000
0001
1000
0100
0000
1000
0001
,
0010
0000
0001
0100
0010
0000
1000
0000
,
1100
0000
1000
0100
0010
0000
0001
0000
,
0100
0000
0101
0000
0001
1000
0001
0100
,
0010
1100
0100
0101
,
0001
0000
0000
1000
0000
0000
0100
0100
0000
0000
0010
0000
0100
0000
0000
0000
,
0200
0300
0000
0000
;

//---------------dance-single - Heavy----------------
#NOTES:
     dance-single:
     Heavy:
     Hard:
     8:
     0.479,0.519,0.725,0.000,0.389,297.000,82.000,0.000,0.000,0.000:
0000
0000
0000
0000
,
1100
0000
0000
0010
0000
0001
0000
0010
,
0011
0000
0000
0000
0000
0010
0000
0100
,
1001
0000
0010
0000
1000
0000
0010
0000
0101
0000
0010
0000
1000
0000
0100
0010
,
0000
0011
0000
0000
0000
0000
0000
0001
0000
0000
0000
0000
0000
0000
1000
0000
,
0110
0000
0001
0000
0010
0000
1000
0000
1100
0000
0010
0000
0001
0000
0100
1000
,
0000
1100
0000
0000
0000
0000
0000
0010
0000
0000
0000
0000
0000
0100
0001
1000
,
0010
0000
0010
0000
0000
0000
0100
0000
0100
0000
0000
0000
0000
0001
1000
0100
,
0010
0000
0010
0000
0000
0001
1000
0000
0100
0000
0100
0000
0000
0010
0001
0010
,
0100
1000
0100
1000
0100
0000
0010
0001
0010
0001
0100
0001
0100
0000
0010
1000
,
0000
0100
0000
0000
0010
0000
0000
0000
0001
0000
0001
0000
0001
0000
1000
0000
,
1100
0101
1100
0110
,
0101
1100
0101
1001
,
0010
0001
0000
0100
0000
0100
0000
0010
0000
0001
1000
0000
1100
0000
1100
0000
,
0010
0001
0000
0100
0000
0100
0000
0010
0000
0001
1000
0000
0101
0000
1100
0000
,
0010
0100
0001
1000
,
1100
0000
0000
1001
0000
0000
0101
0000
0000
0000
0110
0000
0000
0101
0000
0000
,
1000
0010
0001
0100
,
1001
0000
0000
1001
0000
0000
0110
0000
0000
0000
0101
0000
0000
1001
0000
0000
,
1000
0100
0001
0010
,
1100
0000
0000
1001
0000
0000
0101
0000
0000
0000
0011
0000
0000
0101
0000
0000
,
1100
0000
1000
0010
0000
0000
0101
0000
0001
1000
0000
0000
0000
0010
1000
0001
,
0100
0000
0100
0010
0000
0000
0001
0000
0001
1000
0000
0000
1100
0000
0000
0000
,
0101
0000
0000
1010
0010
0110
0001
0000
,
1001
0000
0000
0010
0000
0100
0000
1001
,
0010
0000
0000
1000
0101
0010
1100
0010
,
1001
0000
0100
1001
0010
0000
0100
0001
,
1000
0010
0100
0000
0001
0000
1000
0100
0010
0100
0010
0000
0100
0000
0001
1000
,
0000
1100
0000
0000
0000
0000
0010
0000
0000
0000
0001
0000
0000
0000
0100
0000
,
0001
0000
1000
0000
0100
0000
0010
0000
0100
0000
0001
0000
1000
0000
0100
0010
,
0000
0011
0000
0000
0000
0000
0001
0000
0000
1000
0000
0100
0000
0010
0001
1000
,
0100
0000
0100
0000
0000
0010
1000
0000
1100
0000
0010
0000
0000
0001
0100
0010
,
0100
0000
0101
0000
0000
0001
1000
0000
0100
0000
0011
0000
0000
0001
1000
0100
,
0010
0001
0010
0001
0010
0000
0001
0100
0010
1000
0100
1000
0100
0000
1000
0010
,
0000
0100
0000
0000
0001
0000
0000
0000
1000
0000
0000
0000
0100
0000
0010
0000
,
0011
1001
1100
0110
,
1001
1100
0101
0110
,
0001
1000
0000
0010
0000
0010
0000
0100
0000
0001
1000
0000
1100
0000
1100
0000
,
0010
0001
0000
0100
0000
0001
0000
1000
0000
0100
0001
0000
1001
0000
0000
0000
,
0001
1000
0100
0010
,
1010
0000
0000
0110
0000
0000
1100
0000
0000
0000
1001
0000
0000
1100
0000
0000
,
0010
0001
0100
1000
,
0110
0000
0000
0110
0000
0000
1001
0000
0000
0000
1100
0000
0000
0110
0000
0000
,
0010
1000
0100
0001
,
1010
0000
0000
0110
0000
0000
1100
0000
0000
0000
0101
0000
0000
1100
0000
0000
,
1010
0000
0010
0001
0000
0000
1100
0000
0100
0010
0000
0000
0000
0001
0010
0100
,
1000
0000
0100
0010
0000
0000
0001
0000
1000
0100
0000
0000
0110
0000
0000
0000
,
1001
0000
0000
0000
;
