#TITLE:CLOSER;
#SUBTITLE:Naruto Shippuuden 4th Opening;
#ARTIST:Joe Inoue;
#TITLETRANSLIT:;
#SUBTITLETRANSLIT:;
#ARTISTTRANSLIT:;
#CREDIT:;
#BANNER:closer-bn.png;
#BACKGROUND:closer-bg.jpg;
#LYRICSPATH:;
#CDTITLE:yell0w_f0x.png;
#MUSIC:closer.mp3;
#OFFSET:0.000;
#SAMPLESTART:1.980;
#SAMPLELENGTH:20.500;
#SELECTABLE:YES;
#BPMS:0.000=166.000;
#STOPS:;
#BGCHANGES:73.500=closer-bg3.jpg=1.000=1=0=1,
118.000=closer-bg2.jpg=1.000=1=0=1,
173.500=closer-bg1.jpg=1.000=1=0=1,
206.000=closer-bg4.jpg=1.000=1=0=1,
99999=-nosongbg-=1.000=0=0=0 // don't automatically add -songbackground-
;
// cache tags:
#FIRSTBEAT:6.500;
#LASTBEAT:240.000;
#SONGFILENAME:Songs/new cedric/[yell0w_f0x]closer_narutoShippuuden(joe_inoue)/closer.sm;
#HASMUSIC:1;
#HASBANNER:1;
#MUSICLENGTH:88.920;
// end cache tags

//---------------dance-single - ----------------
#NOTES:
     dance-single:
     :
     Medium:
     5:
     0.487,0.472,0.045,0.045,0.000,295.000,4.000,4.000,0.000,0.000:
0000
0000
0000
0000
,
0000
0000
0000
0000
0000
1000
0100
0010
,
0001
0010
0001
1000
,
0010
0000
0100
0000
0001
0010
0100
0000
,
1000
0000
0100
0000
1000
0000
0010
0100
,
0010
0000
0001
0000
1000
0000
0000
1000
,
0100
0000
0010
0001
0010
0000
1000
0000
,
0001
0000
0100
0010
0000
1000
0000
0001
,
0010
0000
0100
0000
0010
0000
1000
0100
,
0010
0000
0110
0000
0000
1000
0100
0001
,
0100
1000
0000
1000
0000
0001
0100
0000
,
1000
0000
1000
0010
0000
0001
0010
1000
,
0010
0001
0000
0001
0000
1000
0010
0000
,
0001
0000
0001
0100
0000
1000
0001
1000
,
0001
0100
0010
0000
0000
0001
0100
0001
,
0100
0001
0001
0000
0000
1000
0010
1000
,
0010
1000
1000
0000
0000
0010
0100
0010
,
0100
0010
0010
0000
0000
0001
0001
0000
,
0000
1000
1000
0000
0000
0010
0001
0010
,
0001
0010
0010
0000
0000
0100
1000
0100
,
1000
0100
0100
0000
0000
0001
1000
0001
,
1000
0001
0001
0000
0000
0100
0100
0000
,
0000
0010
0010
0000
0001
0100
1000
0100
,
0001
0001
0010
0100
,
1000
1000
1000
0000
1000
0010
0001
0010
,
1000
0100
0010
0001
,
0001
0001
0001
0000
1000
0100
0010
0100
,
1000
1000
0100
0001
,
0010
0010
0010
0000
0001
0010
0100
0010
,
0001
0000
0100
0100
0000
0001
0100
0010
,
1000
0001
0100
0010
,
0001
0000
1000
0000
0100
0001
1000
0000
,
0010
0000
1000
0000
0010
0000
0001
1000
,
0001
0000
0100
0000
0010
0000
0000
0010
,
1000
0000
0001
0100
0001
0000
0010
0000
,
0100
0000
1000
0001
0000
0010
0000
0100
,
0001
0000
1000
0000
0001
0000
0010
1000
,
0001
0000
1001
0000
0000
0001
0010
0100
,
1000
0000
0100
1000
0100
0000
0001
0000
,
0100
0000
0010
0000
0100
0000
0000
0010
,
0001
0000
0010
1000
0001
0000
0100
0000
,
0100
0000
1000
0000
0000
0010
0001
0000
,
0010
0000
0100
0000
1000
0000
0001
0010
,
1000
0000
0010
0000
0001
1000
0010
0100
,
0001
0000
1000
0100
1000
0000
0001
0000
,
0100
0000
0010
0000
0001
0100
1000
0100
,
0001
0000
0010
0100
1000
0000
0001
0010
,
2000
0000
0000
3000
1000
0000
0100
0000
0000
0000
0010
0000
0000
0000
1000
0000
,
0100
0000
0010
0001
0010
0000
0100
0010
,
0200
0000
0000
0300
0100
0000
0010
0000
0000
0000
0000
0000
0001
0000
1000
0000
,
0001
0000
1000
0001
1000
0000
0100
0000
,
0010
0000
0001
1000
0000
1000
0100
0001
,
0010
0000
0010
0100
0010
0000
1000
0100
,
0010
0000
0001
0010
0000
0000
0010
0100
,
1000
0000
0100
0010
0001
0000
0100
0010
,
1000
0000
0100
0001
0000
0010
1000
0000
,
0100
0000
0001
0000
0010
0000
0001
0100
,
0010
0000
1000
0000
0000
0000
0000
1100
,
0000
0022
0000
0000
0000
0000
0000
0000
,
0000
0000
0000
0000
,
0033
0000
0000
0000
;

//---------------dance-single - ----------------
#NOTES:
     dance-single:
     :
     Hard:
     8:
     0.866,0.810,0.664,0.022,0.214,478.000,59.000,2.000,0.000,0.000:
0000
0000
0000
0000
,
0000
0000
0000
0000
,
0000
1000
0100
0001
0100
1000
0100
0001
,
0100
1000
0010
0001
0010
1000
0010
0001
,
0010
1000
0100
0001
0100
1000
0100
0001
,
0100
1000
0010
0001
0010
1000
0010
0001
,
0010
1000
0100
0001
0100
1000
0100
0001
,
0100
1000
0010
0001
0010
1000
0010
0001
,
0010
1000
0100
0001
0100
1000
0100
0001
,
1001
0000
1001
0110
0000
1000
0100
0001
,
0100
1000
0100
1000
0100
0001
0100
0001
,
0100
0001
0010
0001
0010
1000
0010
1000
,
0010
0100
0010
0001
0010
0100
0010
0100
,
1000
0000
0100
0000
0010
0000
1000
0000
0010
0000
0100
0000
0001
0010
0001
0000
,
1000
1001
1001
0001
0001
0001
0001
0001
,
0001
0011
0011
0010
0010
0010
0010
0010
,
0010
1010
1010
1000
1000
1000
1000
1000
,
1000
1100
1100
0100
0100
0110
0110
0010
,
0010
0001
0010
0000
0011
0000
0001
0000
0001
0000
0001
0000
0001
0000
0001
0000
,
0001
1001
1001
1000
1000
1000
1000
1000
,
1000
1010
1010
0010
0010
0010
0010
0010
,
0010
0000
0011
0000
0011
0000
0001
0000
0001
0100
0001
0000
0101
0000
0100
0000
,
0100
0010
0100
0000
0110
0000
0010
0000
0001
0000
0100
0000
1000
0000
0100
0000
,
0001
0101
0101
0100
0010
0001
0100
1000
,
0010
1010
1010
1000
0100
0010
0001
0010
,
0100
1000
0100
0000
0001
0000
0010
0000
0100
0001
0100
0000
0001
0000
1000
0000
,
0001
0100
0001
0000
0010
0000
0100
0000
1000
0000
0100
0000
0010
0000
0100
0000
,
0110
0110
0010
0001
0100
1000
0001
0100
,
0001
1000
0001
0000
1001
0000
1001
0000
0001
0000
0101
0000
0101
0000
0100
0000
,
1100
1100
0100
0110
0000
0000
0000
0000
,
0000
0000
1000
0000
0001
0000
0010
0000
0100
1000
0100
0000
0010
0000
0001
0000
,
0001
0000
0100
0000
1000
0000
0010
0000
0100
0010
0100
0000
0001
0000
1000
0000
,
1000
0000
0010
0000
1000
0000
0100
0000
0001
0010
0001
0000
0100
0000
0010
0000
,
0010
0000
1000
0000
0100
0000
0010
0000
0001
1000
0001
0000
0010
0000
0100
0000
,
0100
0000
0010
0000
0001
0000
0100
0000
0001
0100
0001
0000
0010
0000
1000
0000
,
1000
0000
0001
0000
1000
0000
0001
0000
0100
0001
0100
0000
0010
0000
0001
0000
,
0001
0000
0010
0000
0100
0000
0010
0000
1000
0100
1000
0000
0010
0000
0100
0000
,
0100
0010
1000
0001
0100
0101
1001
1010
,
1000
0000
0010
0000
0100
0000
1000
0000
0100
0010
0100
0000
0001
0000
0010
0000
,
0010
0000
0001
0000
1000
0000
0001
0000
0100
1000
0100
0000
0010
0000
1000
0000
,
1000
0000
0100
0000
0010
0000
1000
0000
0001
0100
0001
0000
0010
0000
0100
0000
,
0100
0000
0010
0000
1000
0000
0100
0000
0001
1000
0001
0000
1000
0000
0010
0000
,
0010
0000
1000
0000
0100
0000
0010
0000
0001
0100
0001
0000
1000
0000
0010
0000
,
0010
0000
1000
0100
0000
0010
0100
0010
0100
0001
0100
0001
0100
0000
0101
0000
,
0001
0000
0100
0000
1000
0000
0100
0000
1000
0010
1000
0000
0001
0000
0101
0000
,
0101
0000
0100
0000
0010
0000
0100
0000
0001
0010
0001
0000
1000
0000
1010
0000
,
1010
0000
0010
0000
0001
0000
0100
0000
1000
0100
1000
0000
0001
0000
0011
0000
,
0011
0000
0010
0000
1000
0000
0100
0000
0010
1000
0010
0000
1000
0000
1100
0000
,
1100
0000
0100
0000
0010
0000
0001
0000
0010
0001
0010
0000
0100
0000
0110
0000
,
0110
0000
0010
0000
0100
0000
0010
0000
1000
0001
1000
0000
0001
0000
1001
0000
,
1001
0000
1000
0000
0100
0000
0001
0000
1000
0010
1000
0000
0001
0000
0101
0000
,
0101
0100
0101
1010
0000
1000
0100
0001
,
0010
0000
1000
0000
0010
0000
0100
0000
0001
0010
0001
0000
1000
0000
0100
0000
,
0010
0000
1000
0000
0100
0000
0001
0000
0010
0100
0010
0000
1000
0000
0100
0000
,
1000
0000
0010
0000
0100
0000
0010
0000
1000
0010
1000
0000
0100
0000
0010
0000
,
1000
0000
0010
0000
1000
0000
0001
0000
0100
1000
0100
0000
0010
0000
0001
0000
,
0100
0000
1000
0000
0001
0000
0100
0000
1000
0001
1000
0000
0001
0000
0100
0000
,
1100
0000
1000
0000
1001
0000
0001
0000
0101
0000
0001
0100
0001
0000
1000
0000
,
0001
2002
0000
0000
0000
0000
0000
0000
,
0000
0000
0000
0000
,
3003
0000
0000
0000
;

//---------------dance-single - Copied from----------------
#NOTES:
     dance-single:
     Copied from:
     Easy:
     3:
     0.326,0.304,0.034,0.011,0.000,199.000,3.000,1.000,0.000,0.000:
0000
0000
0000
0000
,
0000
0000
0000
0000
,
0000
0100
0001
1000
,
0010
0100
0001
0100
,
1000
0100
1000
0010
,
0100
0001
1000
0010
,
0100
0010
0001
1000
,
0001
0100
0001
1000
,
0010
0100
0010
0001
,
0010
0000
0110
0000
0000
1000
0000
0001
,
0000
0100
0000
1000
0000
0001
0000
1000
,
0000
0010
0000
0100
0000
0001
0000
1000
,
0000
0001
0000
0010
0000
1000
0000
0100
,
0000
0010
0000
0100
0000
1000
0000
0001
,
0000
1001
0000
0000
0000
0001
0000
0001
,
0000
0001
0001
0000
0000
1000
0000
1000
,
0000
1000
1000
0000
0000
0010
0000
0100
,
0000
0010
0010
0000
0000
0100
0100
0000
,
0000
0010
0010
0000
0000
0100
0000
0100
,
0000
0100
0100
0000
0000
0010
0000
0010
,
0000
0010
0010
0000
0000
0001
0000
1000
,
0000
0001
0001
0000
0000
1000
1000
0000
,
0000
0001
0001
0000
0000
1000
1000
0000
,
0001
0010
0100
1000
,
1000
0000
0000
0000
0000
0001
0001
0000
,
1000
0100
0010
0001
,
0001
0000
0000
0000
0000
0010
0010
0000
,
1000
1000
0100
0001
,
0010
0000
0000
0000
0000
0100
0100
0000
,
0001
1001
0000
0000
,
1000
0001
0100
0010
,
0001
1000
0100
0001
,
0010
1000
0010
0001
,
1000
0100
0010
0001
,
1000
0010
0001
0010
,
0100
1000
0010
0100
,
0001
1000
0001
0010
,
0001
1000
0010
0100
,
0010
0000
0010
0001
,
0100
1000
0100
0010
,
0001
0000
0001
1000
,
0010
0001
0100
0001
,
0010
0000
1000
0001
,
1000
0010
0001
0100
,
1000
0000
1000
0010
,
0001
0000
0100
0001
,
1000
0000
0010
1000
,
0001
0000
0000
1000
0000
0000
0000
0010
,
0000
0000
1000
0010
,
0100
0000
0010
0000
,
0001
0100
0010
1000
,
0100
0010
0000
0100
,
0000
0010
0001
0010
,
1000
0000
0001
0100
,
0010
0000
0100
0001
,
0100
0010
0100
0000
,
1000
0000
0001
0010
,
0100
0000
0000
0000
0000
0000
0000
1000
,
0000
0002
0000
0000
0000
0000
0000
0000
,
0000
0000
0000
0000
,
0003
0000
0000
0000
;
