#TITLE:with you...;
#SUBTITLE:;
#ARTIST:Sota Fujimori;
#TITLETRANSLIT:;
#SUBTITLETRANSLIT:;
#ARTISTTRANSLIT:;
#CREDIT:;
#BANNER:withyou.png;
#BACKGROUND:withyou-bg.png;
#LYRICSPATH:;
#CDTITLE:!auraelogo_new.png;
#MUSIC:beatmaniaIIDX 13 - with you.mp3;
#OFFSET:1.720;
#SAMPLESTART:51.600;
#SAMPLELENGTH:14.180;
#SELECTABLE:YES;
#DISPLAYBPM:135.000;
#BPMS:0.000=135.000,119.000=270.000,120.000=135.000;
#STOPS:119.000=0.220
;
#BGCHANGES:;
// cache tags:
#FIRSTBEAT:24.000;
#LASTBEAT:279.000;
#SONGFILENAME:Songs/mongol/with you... (aurae)/withyou.sm;
#HASMUSIC:1;
#HASBANNER:1;
#MUSICLENGTH:124.528;
// end cache tags

//---------------dance-single - ----------------
#NOTES:
     dance-single:
     :
     Easy:
     3:
     0.180,0.224,0.040,0.016,0.000,150.000,5.000,2.000,0.000,0.000:
0000
0000
0000
0000
,
0000
0000
0000
0000
,
0000
0000
0000
0000
,
0000
0000
0000
0000
,
0000
0000
0000
0000
,
0000
0000
0000
0000
,
1000
0000
0001
0000
,
0100
0000
0010
0000
,
1000
0000
0010
0000
,
0100
0000
0010
0000
,
1000
0000
0001
0000
,
0010
0000
0001
0000
,
0100
0000
0010
0000
,
1000
0000
0001
0000
,
0010
0100
0000
0100
,
1000
0100
0000
0100
,
0010
0001
0000
0001
,
0010
0001
0000
0001
,
0010
0000
0010
0000
,
0100
0000
0100
0000
,
1000
0000
1000
0000
,
0001
0000
0001
1000
,
0001
0000
0100
0000
,
0001
0000
1000
0010
,
0001
0000
0100
0000
,
0010
0000
1000
0100
,
0002
0000
1003
0000
,
0020
0000
0031
0010
,
1000
0000
0100
0000
,
0010
0000
0001
0100
,
0100
0000
1000
0000
,
0001
0000
1000
0000
,
0010
0000
0100
0000
,
1000
0000
0100
0000
,
0001
0000
0010
0000
,
1000
0000
0010
0000
,
0100
0000
0001
0000
,
1000
0000
0001
0000
,
0010
0010
0010
0000
,
0100
0100
0100
0000
,
0010
0000
1000
0000
,
0010
0000
1000
0000
,
0001
0001
0001
0000
,
1000
1000
1000
0000
,
0001
0000
1000
0000
,
0001
0000
0100
0000
,
0001
0000
0010
0000
,
1000
0000
0010
0000
,
1000
0000
0100
0000
,
0001
0000
0100
0000
,
1001
0000
0100
0000
,
0110
0000
0010
0000
,
1001
0000
0100
0000
,
0110
0000
0010
0000
,
1000
0100
0000
0100
,
1000
0100
0000
0100
,
0010
0100
0000
0100
,
0001
0100
0000
0100
,
0001
0010
0000
0010
,
0001
0010
0000
0010
,
1000
0010
0000
0010
,
0100
0010
0000
0010
,
0010
0000
1000
0000
,
0010
0000
1000
0000
,
0100
0000
0001
0000
,
0100
0000
0001
0000
,
0010
0000
0001
0000
,
0010
0000
0001
0000
,
0100
0000
1000
0000
,
0100
0000
1000
1001
;

//---------------dance-single - ----------------
#NOTES:
     dance-single:
     :
     Medium:
     6:
     0.366,0.392,0.217,0.016,0.008,290.000,27.000,2.000,0.000,0.000:
0000
0000
0000
0000
,
0000
0000
0000
0000
,
0000
0000
0000
0000
,
0000
0000
0000
0000
,
0000
0000
0000
0000
,
0000
0000
0000
0000
,
1000
0100
1000
0100
,
1000
0001
1000
0000
,
0001
0010
0001
0010
,
0001
0100
0001
0000
,
0010
0100
0010
0100
,
0010
1000
0010
1000
,
0010
0001
0010
0001
,
0010
0100
0010
0000
,
1000
0101
0100
0001
,
1000
0001
0100
0100
,
0001
1100
1000
0100
,
1000
0001
0010
0000
,
0100
0001
0100
0001
,
1000
0001
1000
0001
,
0010
0001
0010
0001
,
0100
0000
0001
0000
0100
0001
0100
0000
,
1000
0110
1000
0110
,
0001
0000
0100
0000
0010
0100
0010
0000
,
0001
0110
0001
0110
,
1000
0000
0100
0000
0010
0000
0010
1000
,
0020
0000
0130
1001
,
0200
0000
0310
1001
,
1000
0100
0010
0001
,
1000
0100
0001
0110
,
0100
1000
0010
1000
,
0001
0000
0100
0000
0010
1000
0010
0000
,
0100
0001
1000
0001
,
0100
0000
0001
0000
1000
0010
1000
0000
,
0001
1100
0010
0001
,
1000
0000
0001
0000
0100
0001
0100
0000
,
1000
0101
0010
1000
,
0001
0000
1000
0000
0001
0100
0001
0000
,
0100
1000
0100
0000
0010
0000
0100
0000
,
0001
0100
0010
1000
,
0001
0010
0001
0000
0100
0000
0001
0000
,
1000
0000
0010
0000
0100
0010
0001
0000
,
0100
0011
0100
1010
,
0001
0000
1000
0000
0001
1000
0001
0000
,
0100
1010
0100
0011
,
1000
0001
1000
0000
0001
0000
0001
0001
,
0001
0101
1000
0101
,
0010
0000
0100
0000
0001
1000
0001
0000
,
0100
1010
0100
0011
,
1000
0000
0010
0000
1000
0100
0001
0000
,
1000
0000
0010
0000
0100
0010
1000
0000
,
0100
0001
0010
0000
0100
0010
0001
0000
,
1000
0100
0010
0001
,
1000
0000
0010
0000
1000
0000
0001
0000
0100
0001
0000
0100
0000
0000
0000
0000
,
1000
1100
0001
0101
,
1000
1010
0001
0011
,
1000
0000
0100
0000
0001
1000
0100
0000
,
0010
0000
0100
0001
0100
1000
0010
0000
,
0100
0000
1001
0000
0010
0100
0010
0000
,
1000
0000
0110
0000
0010
0100
1000
0000
,
0100
0010
0001
0000
1000
0100
1000
0000
,
0001
0010
0100
0010
0001
0000
1001
0000
,
0100
1000
1000
0000
0010
0100
0100
0000
,
0001
0000
0001
0100
0001
0000
0001
0000
,
1000
0000
0100
0000
1000
0010
0010
0000
,
0100
0000
0100
0010
0100
0000
1001
0000
,
0100
0001
0001
0000
0010
0100
0100
0000
,
1000
0000
1000
0010
1000
0000
1000
0000
,
0001
0000
0010
0100
0000
1000
0000
0000
,
0001
0010
0001
0000
0100
0010
0100
0000
;

//---------------dance-single - ----------------
#NOTES:
     dance-single:
     :
     Hard:
     7:
     0.446,0.476,0.225,0.016,0.028,359.000,28.000,2.000,0.000,0.000:
0000
0000
0000
0000
,
0000
0000
0000
0000
,
0000
0000
0000
0000
,
0000
0000
0000
0000
,
0000
0000
0000
0000
,
0000
0000
0000
0000
,
0001
0010
0001
0100
,
0010
1000
0010
0001
,
0100
0010
0100
0001
,
1000
0010
1000
0100
,
0010
1000
0100
1000
,
0001
0100
0010
0100
,
1000
0010
0100
0010
,
1000
0000
0001
0000
0100
0000
0001
1000
,
0100
1000
0010
0100
,
0010
0000
1000
0000
0001
0000
0100
0010
,
0100
0001
1000
0100
,
1000
0000
0010
0000
0100
0000
1000
0001
,
1000
0001
1000
0010
,
0100
0000
1000
0000
0001
0100
0001
0100
,
0010
1000
0100
0001
,
1000
0000
0000
0000
0010
0000
0000
0000
0100
0001
0000
0000
0100
0000
0001
0000
,
0010
0101
1000
0010
,
0100
0000
0101
0000
1000
0001
1000
0100
,
1000
0000
1010
0000
0100
0001
0100
0000
,
0001
0000
1010
0000
0100
1000
0100
0010
,
0002
0000
0100
0000
0103
0000
1000
0001
,
2000
0000
0100
0000
3100
0001
0010
0000
,
0100
1100
0001
0011
,
0100
1010
0101
1001
,
1000
0100
1000
0010
0100
0010
1000
0000
,
0001
0100
0001
0000
1000
0010
1000
0000
,
0100
0000
0011
0000
0010
1000
0001
0000
,
0100
0001
1000
0000
0010
0000
1000
0000
,
0010
0000
1001
0000
0100
0001
1000
0000
,
0100
0000
1000
0010
1000
0100
1000
0000
,
0001
0000
0110
0000
1000
0010
0001
0000
,
0100
0000
0010
0000
0100
0000
0010
0000
0100
0000
0000
0000
0001
0000
0000
0001
,
0100
1000
0010
0000
0010
1000
0100
0000
,
0001
0100
0001
0010
0100
0010
0100
0000
,
1000
0000
0110
0000
0001
1000
0001
0000
,
0100
1000
0010
1000
0100
0000
1001
0000
,
0100
0000
0011
0000
1000
0100
0010
0000
,
0100
0010
0100
1000
0100
0000
0011
0000
,
0100
0010
0100
0001
0100
0000
1001
0000
,
1000
0000
0001
0000
0010
0000
0000
0000
0010
0100
0000
0000
1001
0000
1000
0000
,
1001
0000
0110
0000
1000
0100
1000
0000
,
0010
0000
0100
0000
0001
0010
0001
0100
,
0010
0000
1000
0000
0001
0100
0001
0000
,
1000
0000
0010
0000
0100
0010
1000
0100
,
0010
0000
0001
0000
1000
0100
1000
0000
,
0010
0000
0100
0000
0010
0000
0100
0000
0001
0100
0000
0000
1100
0000
0000
0000
,
0001
0010
0100
0010
0001
0010
1000
0000
,
1010
0000
0000
0000
1010
0000
0000
0000
0100
0001
0000
1001
0000
0000
0000
0000
,
1000
0100
1000
0010
1000
0100
0010
1000
,
0100
0010
0100
0001
0100
1000
0001
0100
,
0010
1000
0010
0100
0010
0001
1000
0100
,
0001
0010
0001
0100
0001
1000
0100
0010
,
1000
0000
0101
0000
1000
0010
1000
0010
,
0100
0000
1010
0000
0001
0100
0010
1000
,
0100
0000
0001
0000
0010
0100
0010
1000
,
0100
1000
0100
0000
0001
0010
0100
0000
,
0001
0010
0001
0010
0100
0010
0100
0000
,
1000
0100
0010
0100
1000
0001
0010
0000
,
0100
1000
0100
0000
0001
0010
0100
0000
,
1000
0000
0010
0000
0001
0000
0100
0000
0010
0000
1000
0000
0001
0000
0000
0001
,
1000
0100
0001
1000
0010
0100
0010
0000
,
1000
0001
0100
0010
1000
0001
0010
0000
,
0101
0000
0110
0100
0000
0001
0010
0000
,
0100
0001
0010
0000
0010
0001
0100
0000
;
