#TITLE:Quiz Show;
#SUBTITLE:Banjo-Kazooie;
#ARTIST:Rareware;
#TITLETRANSLIT:;
#SUBTITLETRANSLIT:;
#ARTISTTRANSLIT:;
#CREDIT:;
#BANNER:quiz.png;
#BACKGROUND:quiz-bg.png;
#LYRICSPATH:;
#CDTITLE:kyka06.png;
#MUSIC:quiz.mp3;
#OFFSET:-0.060;
#SAMPLESTART:59.647;
#SAMPLELENGTH:12.500;
#SELECTABLE:YES;
#BPMS:0.000=130.070,56.000=133.070,60.000=130.070;
#STOPS:;
#BGCHANGES:;
// cache tags:
#FIRSTBEAT:0.000;
#LASTBEAT:184.000;
#SONGFILENAME:Songs/new/BK - Quiz Show/quiz.sm;
#HASMUSIC:1;
#HASBANNER:1;
#MUSICLENGTH:86.543;
// end cache tags

//---------------dance-single - ----------------
#NOTES:
     dance-single:
     :
     Hard:
     8:
     0.611,0.558,0.404,0.000,0.503,335.000,35.000,0.000,0.000,0.000:
1001
0101
1010
1100
,
0010
0000
0001
0000
0010
0000
0000
1000
0000
0010
0000
0100
0001
0000
0010
0000
,
0100
0000
1000
0000
0010
0000
0000
0001
0000
0010
0000
0100
0010
0000
1000
0000
,
0010
0000
0100
0000
0000
0000
0001
0000
0010
0000
0100
1000
0000
0010
0100
0000
,
0000
0000
0001
0000
0000
0000
0010
0000
0100
0000
1000
0010
0000
0100
0001
0000
,
1000
0000
0000
0010
0000
0000
0001
0000
1000
0000
0000
0100
0000
0000
0000
0000
,
1000
0000
0000
0100
0000
0000
0010
0000
0001
0010
0000
0100
0000
0000
0000
0000
,
0000
0000
0010
0000
0000
0000
0100
0000
0001
0000
0010
0100
0000
1000
0010
0000
,
0000
0000
0100
0000
0000
0000
0001
0000
0010
0000
0100
1000
0000
0010
0100
0000
,
1000
0000
0000
0001
0000
0000
0100
0000
1000
0100
1000
0000
0000
0000
0010
0000
,
0100
1000
0001
0010
0000
0100
1000
0000
0010
0000
0100
0000
0001
0000
0010
0000
,
0101
0000
0000
0000
1010
0000
0000
0000
1010
0000
0000
0100
0000
0000
0010
0000
,
1001
0000
0000
0000
1010
0000
0000
0000
0101
0000
0000
0100
0000
0000
0001
0000
,
1010
0000
0000
0000
1001
0000
0000
0000
0110
0000
0000
0100
0000
0000
0001
0000
,
0011
0000
0000
0000
1010
0000
0000
0000
0110
0000
0000
0001
0000
0000
1000
0000
,
1010
0000
1001
0000
0000
0000
0010
0000
0100
0000
0001
0010
0000
0010
0100
0000
,
0000
0000
1000
0000
0000
0000
0010
0000
0100
0000
0001
0010
0000
0100
1000
0000
,
1001
0000
0000
0010
0000
0000
0001
0000
0010
0000
0000
0100
0000
0000
0000
0000
,
0010
0000
0000
1000
0000
0000
0010
0000
0001
0000
0000
0010
0000
0000
0000
0000
,
0000
0000
1100
0000
0000
0000
0010
0000
0100
0000
0001
0010
0000
0100
1000
0000
,
0000
0000
1100
0000
0000
0000
0001
0000
0100
0000
0010
1000
0000
0100
1000
0000
,
0000
0000
1000
0000
0001
0000
0010
0000
0001
0010
0100
0000
0000
0000
0001
0000
,
1000
0100
1000
0010
0000
0100
0001
0000
0010
0000
0100
0000
1000
0000
0010
0000
,
0100
0000
0001
0010
0100
0000
1000
0000
0010
0000
0001
0010
0100
0000
0010
0000
,
0001
0000
0010
0100
1000
0000
0001
0000
1000
0000
0001
0100
0001
0000
0100
0000
,
0100
0000
0000
0001
0000
0000
1000
0000
0001
0000
0000
0100
0000
0000
0001
0000
,
0010
1000
0010
1000
0100
0000
1000
0000
0010
0000
0100
0000
0010
0000
0100
0000
,
0001
0000
0010
1000
0100
0000
1000
0000
0010
0000
0100
0001
0010
0000
0100
0000
,
1000
0000
0010
0100
0001
0000
0010
0000
0100
0000
1000
0010
1000
0000
0100
0000
,
0010
0000
0000
1000
0000
0000
0100
0000
1000
0000
0000
0001
0000
0000
0001
0000
,
1000
0100
0010
0001
0100
0000
0010
0000
1000
0000
0001
0000
0100
0000
0001
0000
,
1000
0000
0101
0000
0000
0000
1000
0000
0010
0000
0100
0010
0000
0100
0010
0000
,
0000
0000
1001
0000
0000
0000
0001
0000
1000
0000
0010
0100
0000
0001
0010
0000
,
1000
0000
0000
0001
0000
0000
0010
0000
1000
0000
0000
0001
0000
0000
0100
0000
,
0001
0010
0100
0010
0001
0000
0100
0000
0010
0000
1000
0000
0001
0000
1000
0000
,
0010
0000
1010
0000
0000
0000
0001
0000
0100
0000
0010
0100
0000
0001
0100
0000
,
0000
0000
1010
0000
0000
0000
0100
0000
0001
0000
1000
0100
0000
0010
0001
0000
,
0000
0000
1000
0000
0010
0000
0100
0000
0001
0010
0001
0000
0000
0000
0010
0000
,
0001
0000
1000
0010
0000
0100
0010
0000
1000
0000
0100
0000
0010
0000
0001
0000
,
0100
0000
0010
0000
0000
0000
1000
0000
0100
0000
0010
0001
0000
0100
0010
0000
,
0000
0000
1000
0000
0000
0000
0100
0000
0010
0000
0001
0100
0000
0010
1000
0000
,
0001
0000
0000
0010
0000
0000
1000
0000
0001
0010
0001
0000
0000
0000
0100
0000
,
0010
0001
1000
0100
0000
0010
0001
0000
0100
0000
0010
0000
1000
0000
0100
0000
,
1010
0000
0000
0000
0101
0000
0000
0000
0101
0000
0000
0010
0000
0000
0100
0000
,
1001
0000
0000
0000
0101
0000
0000
0000
1010
0000
0000
0100
0000
0000
0010
0000
,
0101
0000
0000
0000
1001
0000
0000
0000
0110
0000
0000
0001
0000
0000
0010
0000
,
1100
0000
0000
0000
;

//---------------dance-single - ----------------
#NOTES:
     dance-single:
     :
     Medium:
     6:
     0.426,0.425,0.012,0.023,0.295,255.000,1.000,2.000,0.000,0.000:
1000
0001
0100
0010
,
1000
0000
0000
0000
0000
0000
0000
1000
0000
0100
0000
1000
0100
0000
0000
0000
,
0000
0000
0001
0000
0000
0000
0000
1000
0000
0010
0000
1000
0010
0000
0000
0000
,
0000
0000
0001
0000
0000
0000
0010
0000
0100
0000
0000
1000
0000
0000
0010
0000
,
0000
0000
0100
0000
0000
0000
0001
0000
0010
0000
0000
0100
0000
0000
1000
0000
,
0010
0000
0000
0100
0000
0000
0001
0000
0010
0000
0000
0100
0000
0000
0000
0000
,
1000
0000
0000
0010
0000
0000
1000
0000
0001
0000
0000
1000
0000
0000
0000
0000
,
0000
0000
1000
0000
0000
0000
0000
0000
0100
0000
0000
0010
0000
0000
0001
0000
,
0000
0000
0000
0000
0000
0000
0000
0000
1000
0000
0000
0010
0000
0000
0100
0000
,
0001
0000
0000
0010
0000
0000
0100
0000
1000
0000
1000
0000
0000
0000
0000
0000
,
0100
0000
0000
0001
0000
0000
1000
0000
0001
0000
1000
0000
0010
0000
0100
0000
,
0001
0000
0000
0000
0010
0000
0000
0000
0100
0000
0000
0100
0000
0000
0100
0000
,
0010
0000
0000
0000
0001
0000
0000
0000
0100
0000
0000
0100
0000
0000
0100
0000
,
0010
0000
0000
0000
1000
0000
0000
0000
0100
0000
0000
0100
0000
0000
0100
0000
,
0010
0000
0000
0000
0001
0000
0000
0000
0100
0000
0000
0100
0000
0000
0100
0000
,
0000
0000
0010
0000
0000
0000
1000
0000
0100
0000
0000
0010
0000
0000
0001
0000
,
0000
0000
0100
0000
0000
0000
0010
0000
1000
0000
0000
0100
0000
0000
1000
0000
,
0010
0000
0000
0100
0000
0000
0001
0000
0020
0000
0000
0130
0000
0000
0000
0000
,
1000
0000
0000
0010
0000
0000
0100
0000
0002
0000
0000
0100
0003
0000
0000
0000
,
0000
0000
1000
0000
0000
0000
0100
0000
0010
0000
0000
0001
0000
0000
0100
0000
,
0000
0000
0010
0000
0000
0000
1000
0000
0100
0000
0000
1000
0000
0000
0010
0000
,
0100
0000
0000
0001
0010
0000
0000
0000
,
1000
0000
0000
0010
0000
0000
0100
0000
0001
0000
0000
0000
0010
0000
0000
0000
,
1000
0000
0010
0000
0100
0001
0010
0001
,
0100
0000
0010
0000
1000
0100
1000
0010
,
1000
0000
0000
0001
0000
0000
0100
0000
0001
0000
0000
0100
0000
0000
0010
0000
,
1000
0100
0010
0001
0100
0010
1000
0001
,
0100
0000
0010
0000
1000
0100
0010
0001
,
0100
0000
0010
0000
1000
0001
1000
0010
,
0100
0000
0000
0001
0000
0000
0010
0000
0100
0000
0000
1000
0000
0000
0010
0000
,
0100
0001
0010
0001
0100
0010
1000
0100
,
0010
0000
0000
0001
0000
0000
0100
0000
0010
0000
1000
0100
0000
0010
0001
0000
,
0000
0000
0100
0000
0000
0000
0010
0000
1000
0000
0100
1000
0000
0100
1000
0000
,
0010
0000
0000
0100
0000
0000
0001
0000
0010
0000
0000
0100
0000
0000
1000
0000
,
0010
1000
0010
1000
0001
0100
0001
0100
,
0000
0000
0010
0000
0000
0000
1000
0000
0100
0000
0000
0010
0000
0000
0001
0000
,
0000
0000
0100
0000
0000
0000
0010
0000
1000
0000
0000
0001
0000
0000
1000
0000
,
0000
0010
0100
0001
0010
0100
0000
1000
,
0010
0000
0000
0100
0000
0000
0001
0000
0010
0000
0100
0000
1000
0000
0010
0000
,
0100
0000
0001
0000
0000
0000
0010
0000
0100
0000
0000
0010
0000
0000
0001
0000
,
0000
0000
1000
0000
0000
0000
0010
0000
0100
0000
0000
0001
0000
0000
0010
0000
,
0100
0000
0000
0100
0000
0000
0100
0000
1000
0000
0000
1000
0000
0000
1000
0000
,
0010
0000
0000
0010
0000
0000
0010
0000
0100
0000
0100
0000
0001
0000
0001
0000
,
1000
0000
0000
0000
0010
0000
0000
0000
0100
0000
0000
0001
0000
0000
0010
0000
,
0100
0000
0000
0000
1000
0000
0000
0000
0010
0000
0000
0100
0000
0000
0001
0000
,
0010
0000
0000
0000
0100
0000
0000
0000
1000
0000
0000
0001
0000
0000
0100
0000
,
0110
0000
0000
0000
;

//---------------dance-single - ----------------
#NOTES:
     dance-single:
     :
     Challenge:
     11:
     0.715,0.611,1.000,0.000,0.503,341.000,92.000,0.000,0.000,0.000:
1001
1000
1010
0100
0101
0010
0011
0100
,
0110
0000
1000
0000
0100
0000
0010
0001
0000
0100
0000
0010
1000
0000
0100
0000
,
0010
0000
0001
0000
0100
0000
0010
1000
0000
0100
0000
0010
0100
0000
0001
0000
,
0100
0000
0010
0000
0000
0000
1000
0000
0100
0000
0010
0001
0000
0100
0010
0000
,
0000
0000
1000
0000
0000
0000
0100
0000
0010
0000
0001
0100
0000
0010
1000
0000
,
1001
0000
0000
0110
0000
0000
1100
0000
0011
0000
0000
0110
0000
0000
0000
0000
,
1001
0000
0000
0110
0000
0000
1100
0000
1000
0100
0000
0011
0000
0000
0000
0000
,
0000
0000
0100
0000
0000
0000
0010
0000
1000
0000
0100
0010
0000
0001
0100
0000
,
0000
0000
0010
0000
0000
0000
1000
0000
0100
0000
0010
0001
0000
0100
0010
0000
,
1001
0000
0000
1100
0000
0000
0110
0000
0001
0010
0001
0000
0000
0000
0100
0000
,
0010
0001
1000
0100
0000
0010
0001
0000
0100
0000
0010
0000
1000
0000
0100
0000
,
1010
0000
0000
0000
0101
0000
0000
0000
0101
0000
0000
1010
0000
0000
0110
0000
,
1001
0000
0000
0000
0101
0000
0000
0000
1010
0000
0000
0110
0000
0000
1010
0000
,
0101
0000
0000
0000
1001
0000
0000
0000
0110
0000
0000
0011
0000
0000
1010
0000
,
1100
0000
0000
0000
0101
0000
0000
0000
0110
0000
0000
1010
0000
0000
0011
0000
,
0101
0000
1001
0000
0000
0000
0100
0000
0010
0000
1000
0100
0000
0100
0010
0000
,
0000
0000
0001
0000
0000
0000
0100
0000
0010
0000
1000
0100
0000
0010
0001
0000
,
1001
0000
0000
0110
0000
0000
1100
0000
1100
0000
0000
0011
0000
0000
0000
0000
,
0110
0000
0000
1001
0000
0000
0110
0000
1001
0000
0000
1100
0000
0000
0000
0000
,
0000
0000
0011
0000
0000
0000
0100
0000
0010
0000
1000
0100
0000
0010
0001
0000
,
0000
0000
0011
0000
0000
0000
1000
0000
0010
0000
0100
0001
0000
0010
0001
0000
,
0000
0000
0001
0000
1000
0000
0100
0000
1000
0100
0010
0000
0000
0000
1000
0000
,
0001
0010
0001
0100
0000
0010
1000
0000
0100
0000
0010
0000
0001
0000
0100
0000
,
0010
0000
1000
0100
0010
0000
0001
0000
0100
0000
1000
0100
0010
0000
0100
0000
,
1000
0000
0100
0010
0001
0000
1000
0000
0001
0000
1000
0010
1000
0000
0010
0000
,
0110
0000
0000
1001
0000
0000
0011
0000
1100
0000
0000
1010
0000
0000
1010
0000
,
0100
0001
0100
0001
0010
0000
0001
0000
0100
0000
0010
0000
0100
0000
0010
0000
,
1000
0000
0100
0001
0010
0000
0001
0000
0100
0000
0010
1000
0100
0000
0010
0000
,
0001
0000
0100
0010
1000
0000
0100
0000
0010
0000
0001
0100
0001
0000
0010
0000
,
0101
0000
0000
1001
0000
0000
0110
0000
0101
0000
0000
1010
0000
0000
1001
0000
,
0001
0010
0100
1000
0010
0000
0100
0000
0001
0000
1000
0000
0010
0000
1000
0000
,
0001
0000
1010
0000
0000
0000
0001
0000
0100
0000
0010
0100
0000
0010
0100
0000
,
0000
0000
1001
0000
0000
0000
1000
0000
0001
0000
0100
0010
0000
1000
0100
0000
,
0101
0000
0000
1100
0000
0000
0110
0000
0011
0000
0000
1100
0000
0000
0110
0000
,
1000
0100
0010
0100
1000
0000
0010
0000
0100
0000
0001
0000
1000
0000
0001
0000
,
0100
0000
0101
0000
0000
0000
1000
0000
0010
0000
0100
0010
0000
1000
0010
0000
,
0000
0000
0101
0000
0000
0000
0010
0000
1000
0000
0001
0010
0000
0100
1000
0000
,
0000
0000
0001
0000
0100
0000
0010
0000
1000
0100
1000
0000
0000
0000
0100
0000
,
1000
0000
0001
0100
0000
0010
0100
0000
0001
0000
0010
0000
0100
0000
1000
0000
,
0010
0000
0100
0000
0000
0000
0001
0000
0010
0000
0100
1000
0000
0010
0100
0000
,
0000
0000
0001
0000
0000
0000
0010
0000
0100
0000
1000
0010
0000
0100
0001
0000
,
1001
0000
0000
0110
0000
0000
0011
0000
1000
0100
1000
0000
0000
0000
0010
0000
,
0100
1000
0001
0010
0000
0100
1000
0000
0010
0000
0100
0000
0001
0000
0010
0000
,
0101
0000
0000
0000
1010
0000
0000
0000
1010
0000
0000
0101
0000
0000
0110
0000
,
1001
0000
0000
0000
1010
0000
0000
0000
0101
0000
0000
0110
0000
0000
0101
0000
,
1010
0000
0000
0000
1001
0000
0000
0000
0110
0000
0000
1100
0000
0000
0101
0000
,
0011
0000
0000
0000
;

//---------------dance-single - ----------------
#NOTES:
     dance-single:
     :
     Easy:
     1:
     0.170,0.213,0.012,0.000,0.000,102.000,1.000,0.000,0.000,0.000:
1000
0100
0010
0001
,
0100
0000
0010
0000
,
1000
0000
0100
0000
,
0010
0000
0001
0000
,
0100
0000
0010
0000
,
1000
0000
0010
0000
,
1000
0000
0010
0000
,
0100
0000
0001
0000
,
1000
0000
0100
0000
,
1000
0000
0010
0000
,
0010
0000
1000
0000
,
0100
0100
0010
0000
,
0001
0001
0100
0000
,
0010
1000
1000
0000
,
0100
0010
0010
0000
,
0001
0000
0100
0000
,
0010
0000
1000
0000
,
0100
0000
1000
0000
,
0010
0000
1000
0000
,
0100
0000
0010
0000
,
0001
0000
0100
0000
,
0100
0000
0010
0000
,
1000
0000
0100
0000
,
0010
0000
0001
0000
,
0100
0000
0010
0000
,
1000
0000
0010
0000
,
1000
0000
0010
0000
,
0100
0000
0001
0000
,
1000
0000
0100
0000
,
1000
0000
0010
0000
,
0010
0000
1000
0000
,
0100
0000
0010
0000
,
0001
0000
0100
0000
,
0010
0000
1000
0000
,
0100
0000
0010
0000
,
0001
0000
0100
0000
,
0010
0000
1000
0000
,
0100
0000
1000
0000
,
0010
0000
1000
0000
,
0100
0000
0010
0000
,
0001
0000
0100
0000
,
0001
0000
1000
0000
,
0010
0000
0100
0000
,
0001
1000
1000
0000
,
0100
0100
0001
0000
,
1000
0001
0010
0000
,
1100
0000
0000
0000
;
